  0
SECTION
  2
HEADER
  9
$ACADVER
  1
AC1015
  9
$ACADMAINTVER
 70
    20
  9
$DWGCODEPAGE
  3
ANSI_1252
  9
$INSBASE
 10
0.0
 20
0.0
 30
0.0
  9
$EXTMIN
 10
568.455106347372
 20
-2172.627871729547
 30
0.0
  9
$EXTMAX
 10
1169.313814728061
 20
-1364.580649053193
 30
0.0
  9
$LIMMIN
 10
0.0
 20
0.0
  9
$LIMMAX
 10
297.0
 20
210.0
  9
$ORTHOMODE
 70
     0
  9
$REGENMODE
 70
     1
  9
$FILLMODE
 70
     1
  9
$QTEXTMODE
 70
     0
  9
$MIRRTEXT
 70
     0
  9
$LTSCALE
 40
1.5
  9
$ATTMODE
 70
     1
  9
$TEXTSIZE
 40
3.5
  9
$TRACEWID
 40
1.0
  9
$TEXTSTYLE
  7
STANDARD
  9
$CLAYER
  8
FERRO
  9
$CELTYPE
  6
BYLAYER
  9
$CECOLOR
 62
   256
  9
$CELTSCALE
 40
1.0
  9
$DISPSILH
 70
     0
  9
$DIMSCALE
 40
3.0
  9
$DIMASZ
 40
1.0
  9
$DIMEXO
 40
1.5
  9
$DIMDLI
 40
10.0
  9
$DIMRND
 40
0.0
  9
$DIMDLE
 40
0.0
  9
$DIMEXE
 40
0.0
  9
$DIMTP
 40
0.0
  9
$DIMTM
 40
0.0
  9
$DIMTXT
 40
2.5
  9
$DIMCEN
 40
2.0
  9
$DIMTSZ
 40
0.0
  9
$DIMTOL
 70
     0
  9
$DIMLIM
 70
     0
  9
$DIMTIH
 70
     0
  9
$DIMTOH
 70
     0
  9
$DIMSE1
 70
     0
  9
$DIMSE2
 70
     0
  9
$DIMTAD
 70
     1
  9
$DIMZIN
 70
     8
  9
$DIMBLK
  1
Oblique
  9
$DIMASO
 70
     1
  9
$DIMSHO
 70
     1
  9
$DIMPOST
  1

  9
$DIMAPOST
  1

  9
$DIMALT
 70
     0
  9
$DIMALTD
 70
     4
  9
$DIMALTF
 40
0.0394
  9
$DIMLFAC
 40
1.0
  9
$DIMTOFL
 70
     1
  9
$DIMTVP
 40
0.0
  9
$DIMTIX
 70
     0
  9
$DIMSOXD
 70
     0
  9
$DIMSAH
 70
     0
  9
$DIMBLK1
  1

  9
$DIMBLK2
  1

  9
$DIMSTYLE
  2
STANDARD_WS
  9
$DIMCLRD
 70
   256
  9
$DIMCLRE
 70
   256
  9
$DIMCLRT
 70
   256
  9
$DIMTFAC
 40
1.0
  9
$DIMGAP
 40
1.0
  9
$DIMJUST
 70
     0
  9
$DIMSD1
 70
     0
  9
$DIMSD2
 70
     0
  9
$DIMTOLJ
 70
     1
  9
$DIMTZIN
 70
     0
  9
$DIMALTZ
 70
     0
  9
$DIMALTTZ
 70
     0
  9
$DIMUPT
 70
     0
  9
$DIMDEC
 70
     1
  9
$DIMTDEC
 70
     1
  9
$DIMALTU
 70
     8
  9
$DIMALTTD
 70
     4
  9
$DIMTXSTY
  7
STANDARD
  9
$DIMAUNIT
 70
     0
  9
$DIMADEC
 70
     1
  9
$DIMALTRND
 40
0.0
  9
$DIMAZIN
 70
     2
  9
$DIMDSEP
 70
    46
  9
$DIMATFIT
 70
     3
  9
$DIMFRAC
 70
     0
  9
$DIMLDRBLK
  1
Oblique
  9
$DIMLUNIT
 70
     2
  9
$DIMLWD
 70
    -2
  9
$DIMLWE
 70
    -2
  9
$DIMTMOVE
 70
     0
  9
$LUNITS
 70
     2
  9
$LUPREC
 70
     4
  9
$SKETCHINC
 40
1.0
  9
$FILLETRAD
 40
7.07070707070707
  9
$AUNITS
 70
     0
  9
$AUPREC
 70
     0
  9
$MENU
  1
acad
  9
$ELEVATION
 40
0.0
  9
$PELEVATION
 40
0.0
  9
$THICKNESS
 40
0.0
  9
$LIMCHECK
 70
     0
  9
$CHAMFERA
 40
7.07070707070707
  9
$CHAMFERB
 40
7.07070707070707
  9
$CHAMFERC
 40
14.14141414141414
  9
$CHAMFERD
 40
0.0
  9
$SKPOLY
 70
     0
  9
$TDCREATE
 40
2451513.764827315
  9
$TDUCREATE
 40
2451513.723160648
  9
$TDUPDATE
 40
2457730.483841320
  9
$TDUUPDATE
 40
2457730.442174653
  9
$TDINDWG
 40
0.2600369676
  9
$TDUSRTIMER
 40
0.2600369676
  9
$USRTIMER
 70
     1
  9
$ANGBASE
 50
0.0
  9
$ANGDIR
 70
     0
  9
$PDMODE
 70
     0
  9
$PDSIZE
 40
0.0
  9
$PLINEWID
 40
0.0
  9
$SPLFRAME
 70
     0
  9
$SPLINETYPE
 70
     6
  9
$SPLINESEGS
 70
     8
  9
$HANDSEED
  5
B1E1
  9
$SURFTAB1
 70
     6
  9
$SURFTAB2
 70
     6
  9
$SURFTYPE
 70
     6
  9
$SURFU
 70
     6
  9
$SURFV
 70
     6
  9
$UCSBASE
  2

  9
$UCSNAME
  2

  9
$UCSORG
 10
0.0
 20
0.0
 30
0.0
  9
$UCSXDIR
 10
1.0
 20
0.0
 30
0.0
  9
$UCSYDIR
 10
0.0
 20
1.0
 30
0.0
  9
$UCSORTHOREF
  2

  9
$UCSORTHOVIEW
 70
     0
  9
$UCSORGTOP
 10
0.0
 20
0.0
 30
0.0
  9
$UCSORGBOTTOM
 10
0.0
 20
0.0
 30
0.0
  9
$UCSORGLEFT
 10
0.0
 20
0.0
 30
0.0
  9
$UCSORGRIGHT
 10
0.0
 20
0.0
 30
0.0
  9
$UCSORGFRONT
 10
0.0
 20
0.0
 30
0.0
  9
$UCSORGBACK
 10
0.0
 20
0.0
 30
0.0
  9
$PUCSBASE
  2

  9
$PUCSNAME
  2

  9
$PUCSORG
 10
0.0
 20
0.0
 30
0.0
  9
$PUCSXDIR
 10
1.0
 20
0.0
 30
0.0
  9
$PUCSYDIR
 10
0.0
 20
1.0
 30
0.0
  9
$PUCSORTHOREF
  2

  9
$PUCSORTHOVIEW
 70
     0
  9
$PUCSORGTOP
 10
0.0
 20
0.0
 30
0.0
  9
$PUCSORGBOTTOM
 10
0.0
 20
0.0
 30
0.0
  9
$PUCSORGLEFT
 10
0.0
 20
0.0
 30
0.0
  9
$PUCSORGRIGHT
 10
0.0
 20
0.0
 30
0.0
  9
$PUCSORGFRONT
 10
0.0
 20
0.0
 30
0.0
  9
$PUCSORGBACK
 10
0.0
 20
0.0
 30
0.0
  9
$USERI1
 70
     0
  9
$USERI2
 70
     0
  9
$USERI3
 70
     0
  9
$USERI4
 70
     0
  9
$USERI5
 70
     0
  9
$USERR1
 40
0.0
  9
$USERR2
 40
0.0
  9
$USERR3
 40
0.0
  9
$USERR4
 40
0.0
  9
$USERR5
 40
0.0
  9
$WORLDVIEW
 70
     1
  9
$SHADEDGE
 70
     3
  9
$SHADEDIF
 70
    70
  9
$TILEMODE
 70
     1
  9
$MAXACTVP
 70
    48
  9
$PINSBASE
 10
0.0
 20
0.0
 30
0.0
  9
$PLIMCHECK
 70
     0
  9
$PEXTMIN
 10
0.0
 20
0.0
 30
0.0
  9
$PEXTMAX
 10
11.0
 20
8.5
 30
0.0
  9
$PLIMMIN
 10
0.0
 20
0.0
  9
$PLIMMAX
 10
11.0
 20
8.5
  9
$UNITMODE
 70
     0
  9
$VISRETAIN
 70
     1
  9
$PLINEGEN
 70
     0
  9
$PSLTSCALE
 70
     1
  9
$TREEDEPTH
 70
  3020
  9
$CMLSTYLE
  2
STANDARD
  9
$CMLJUST
 70
     0
  9
$CMLSCALE
 40
20.0
  9
$PROXYGRAPHICS
 70
     1
  9
$MEASUREMENT
 70
     1
  9
$CELWEIGHT
370
    -1
  9
$ENDCAPS
280
     0
  9
$JOINSTYLE
280
     0
  9
$LWDISPLAY
290
     0
  9
$INSUNITS
 70
     0
  9
$HYPERLINKBASE
  1

  9
$STYLESHEET
  1
aclt.ctb
  9
$XEDIT
290
     1
  9
$CEPSNTYPE
380
     0
  9
$PSTYLEMODE
290
     1
  9
$FINGERPRINTGUID
  2
{245EED19-B48F-11D3-AE0D-0050BF001A35}
  9
$VERSIONGUID
  2
{38208ED6-D359-4A06-9C20-789BA3053436}
  9
$EXTNAMES
290
     1
  9
$PSVPSCALE
 40
0.0
  9
$OLESTARTUP
290
     0
  0
ENDSEC
  0
SECTION
  2
CLASSES
  0
CLASS
  1
DICTIONARYVAR
  2
AcDbDictionaryVar
  3
ObjectDBX Classes
 90
        0
280
     0
281
     0
  0
CLASS
  1
ACDBDICTIONARYWDFLT
  2
AcDbDictionaryWithDefault
  3
ObjectDBX Classes
 90
        0
280
     0
281
     0
  0
CLASS
  1
ACDBPLACEHOLDER
  2
AcDbPlaceHolder
  3
ObjectDBX Classes
 90
        0
280
     0
281
     0
  0
CLASS
  1
LAYOUT
  2
AcDbLayout
  3
ObjectDBX Classes
 90
        0
280
     0
281
     0
  0
CLASS
  1
MATERIAL
  2
AcDbMaterial
  3
ObjectDBX Classes
 90
     1153
280
     0
281
     0
  0
CLASS
  1
VISUALSTYLE
  2
AcDbVisualStyle
  3
ObjectDBX Classes
 90
     4095
280
     0
281
     0
  0
CLASS
  1
TABLESTYLE
  2
AcDbTableStyle
  3
ObjectDBX Classes
 90
     4095
280
     0
281
     0
  0
CLASS
  1
SCALE
  2
AcDbScale
  3
ObjectDBX Classes
 90
     1153
280
     0
281
     0
  0
CLASS
  1
MLEADERSTYLE
  2
AcDbMLeaderStyle
  3
ACDB_MLEADERSTYLE_CLASS
 90
     4095
280
     0
281
     0
  0
CLASS
  1
ACDBSECTIONVIEWSTYLE
  2
AcDbSectionViewStyle
  3
ObjectDBX Classes
 90
     1025
280
     0
281
     0
  0
CLASS
  1
ACDBDETAILVIEWSTYLE
  2
AcDbDetailViewStyle
  3
ObjectDBX Classes
 90
     1025
280
     0
281
     0
  0
CLASS
  1
CELLSTYLEMAP
  2
AcDbCellStyleMap
  3
ObjectDBX Classes
 90
     1152
280
     0
281
     0
  0
ENDSEC
  0
SECTION
  2
TABLES
  0
TABLE
  2
VPORT
  5
8
330
0
100
AcDbSymbolTable
 70
     1
  0
VPORT
  5
B12A
330
8
100
AcDbSymbolTableRecord
100
AcDbViewportTableRecord
  2
*Active
 70
     0
 10
0.0
 20
0.0
 11
1.0
 21
1.0
 12
1584.964341523639
 22
-1964.961594956451
 13
0.0
 23
0.0
 14
10.0
 24
10.0
 15
10.0
 25
10.0
 16
0.0
 26
0.0
 36
1.0
 17
0.0
 27
0.0
 37
0.0
 40
1312.218538146441
 41
2.085280373831775
 42
50.0
 43
0.0
 44
0.0
 50
0.0
 51
0.0
 71
     0
 72
   100
 73
     1
 74
     1
 75
     0
 76
     0
 77
     0
 78
     0
281
     0
 65
     1
110
0.0
120
0.0
130
0.0
111
1.0
121
0.0
131
0.0
112
0.0
122
1.0
132
0.0
 79
     0
146
0.0
1001
ACAD_NAV_VCDISPLAY
1070
     3
  0
ENDTAB
  0
TABLE
  2
LTYPE
  5
5
330
0
100
AcDbSymbolTable
 70
     3
  0
LTYPE
  5
12
330
5
100
AcDbSymbolTableRecord
100
AcDbLinetypeTableRecord
  2
BYBLOCK
 70
     0
  3

 72
    65
 73
     0
 40
0.0
  0
LTYPE
  5
13
330
5
100
AcDbSymbolTableRecord
100
AcDbLinetypeTableRecord
  2
BYLAYER
 70
     0
  3

 72
    65
 73
     0
 40
0.0
  0
LTYPE
  5
14
330
5
100
AcDbSymbolTableRecord
100
AcDbLinetypeTableRecord
  2
CONTINUOUS
 70
     0
  3
Solid line
 72
    65
 73
     0
 40
0.0
  0
LTYPE
  5
40
330
5
100
AcDbSymbolTableRecord
100
AcDbLinetypeTableRecord
  2
TRATTEGGIATA2
 70
     0
  3
tratteggiata (.5x) _ _ _ _ _ _ _ _ _ _ _ _ _ _ 
 72
    65
 73
     2
 40
9.524999999999998
 49
6.349999999999999
 74
     0
 49
-3.174999999999999
 74
     0
  0
LTYPE
  5
A46D
330
5
100
AcDbSymbolTableRecord
100
AcDbLinetypeTableRecord
  2
TRATTOPUNTO2
 70
     0
  3
Tratto punto (.5x) _._._._._._._._._._._._._._.
 72
    65
 73
     4
 40
12.7
 49
6.349999999999999
 74
     0
 49
-3.174999999999999
 74
     0
 49
0.0
 74
     0
 49
-3.174999999999999
 74
     0
  0
ENDTAB
  0
TABLE
  2
LAYER
  5
2
330
0
100
AcDbSymbolTable
 70
    11
  0
LAYER
  5
E
102
{ACAD_XDICTIONARY
360
B181
102
}
330
2
100
AcDbSymbolTableRecord
100
AcDbLayerTableRecord
  2
0
 70
     0
 62
     7
  6
CONTINUOUS
370
    -3
390
A2C3
  0
LAYER
  5
33
102
{ACAD_XDICTIONARY
360
B183
102
}
330
2
100
AcDbSymbolTableRecord
100
AcDbLayerTableRecord
  2
QUOTE
 70
     0
 62
    12
  6
TRATTEGGIATA2
370
    -3
390
A2C3
  0
LAYER
  5
43
102
{ACAD_XDICTIONARY
360
B185
102
}
330
2
100
AcDbSymbolTableRecord
100
AcDbLayerTableRecord
  2
FERRO
 70
     0
 62
   250
  6
CONTINUOUS
370
    -3
390
A2C3
  0
LAYER
  5
59
102
{ACAD_XDICTIONARY
360
B187
102
}
330
2
100
AcDbSymbolTableRecord
100
AcDbLayerTableRecord
  2
AREA
 70
     1
 62
   166
  6
CONTINUOUS
370
    -3
390
A2C3
  0
LAYER
  5
138
330
2
100
AcDbSymbolTableRecord
100
AcDbLayerTableRecord
  2
DEFPOINTS
 70
     0
 62
     7
  6
CONTINUOUS
290
     0
370
    -3
390
A2C3
  0
LAYER
  5
5AF
102
{ACAD_XDICTIONARY
360
B189
102
}
330
2
100
AcDbSymbolTableRecord
100
AcDbLayerTableRecord
  2
TABELLA
 70
     0
 62
     7
  6
CONTINUOUS
370
    -3
390
A2C3
  0
LAYER
  5
185F
102
{ACAD_XDICTIONARY
360
B18B
102
}
330
2
100
AcDbSymbolTableRecord
100
AcDbLayerTableRecord
  2
ALLUMINIO
 70
     0
 62
     3
  6
CONTINUOUS
370
    -3
390
A2C3
  0
LAYER
  5
2DBD
102
{ACAD_XDICTIONARY
360
B18D
102
}
330
2
100
AcDbSymbolTableRecord
100
AcDbLayerTableRecord
  2
CONTORNO
 70
     0
 62
     7
  6
CONTINUOUS
370
    -3
390
A2C3
  0
LAYER
  5
A388
102
{ACAD_XDICTIONARY
360
B18F
102
}
330
2
100
AcDbSymbolTableRecord
100
AcDbLayerTableRecord
  2
AREA166
 70
     0
 62
   166
  6
CONTINUOUS
370
    -3
390
A2C3
  0
LAYER
  5
A46E
102
{ACAD_XDICTIONARY
360
B191
102
}
330
2
100
AcDbSymbolTableRecord
100
AcDbLayerTableRecord
  2
ASSI
 70
     0
 62
     5
  6
TRATTOPUNTO2
370
    -3
390
A2C3
  0
LAYER
  5
A6D9
102
{ACAD_XDICTIONARY
360
B193
102
}
330
2
100
AcDbSymbolTableRecord
100
AcDbLayerTableRecord
  2
GUARNIZIONI
 70
     0
 62
    85
  6
CONTINUOUS
370
    -3
390
A2C3
  0
ENDTAB
  0
TABLE
  2
STYLE
  5
3
330
0
100
AcDbSymbolTable
 70
     3
  0
STYLE
  5
F
330
3
100
AcDbSymbolTableRecord
100
AcDbTextStyleTableRecord
  2
STANDARD
 70
     0
 40
0.0
 41
1.0
 50
0.0
 71
     0
 42
3.5
  3
txt
  4

  0
STYLE
  5
394
330
3
100
AcDbSymbolTableRecord
100
AcDbTextStyleTableRecord
  2
ROMANS
 70
     0
 40
2.5
 41
0.5
 50
0.0
 71
     0
 42
2.5
  3
romans
  4

  0
STYLE
  5
395
330
3
100
AcDbSymbolTableRecord
100
AcDbTextStyleTableRecord
  2
ROMAND
 70
     0
 40
3.0
 41
0.5
 50
0.0
 71
     0
 42
3.0
  3
romand
  4

  0
ENDTAB
  0
TABLE
  2
VIEW
  5
6
330
0
100
AcDbSymbolTable
 70
     0
  0
ENDTAB
  0
TABLE
  2
UCS
  5
7
330
0
100
AcDbSymbolTable
 70
     0
  0
ENDTAB
  0
TABLE
  2
APPID
  5
9
330
0
100
AcDbSymbolTable
 70
     7
  0
APPID
  5
10
330
9
100
AcDbSymbolTableRecord
100
AcDbRegAppTableRecord
  2
ACAD
 70
     0
  0
APPID
  5
24
330
9
100
AcDbSymbolTableRecord
100
AcDbRegAppTableRecord
  2
CONTENTTABDATA
 70
     0
  0
APPID
  5
25
330
9
100
AcDbSymbolTableRecord
100
AcDbRegAppTableRecord
  2
CONTENTCURRENTTAB
 70
     0
  0
APPID
  5
2DBF
330
9
100
AcDbSymbolTableRecord
100
AcDbRegAppTableRecord
  2
CONTENTBLOCKDESCRIPTION
 70
     0
  0
APPID
  5
2DC0
330
9
100
AcDbSymbolTableRecord
100
AcDbRegAppTableRecord
  2
CONTENTBLOCKICON
 70
     0
  0
APPID
  5
B19D
330
9
100
AcDbSymbolTableRecord
100
AcDbRegAppTableRecord
  2
ACAD_NAV_VCDISPLAY
 70
     0
  0
APPID
  5
B1DE
330
9
100
AcDbSymbolTableRecord
100
AcDbRegAppTableRecord
  2
ACAD_MLEADERVER
 70
     0
  0
ENDTAB
  0
TABLE
  2
DIMSTYLE
  5
A
330
0
100
AcDbSymbolTable
 70
     2
100
AcDbDimStyleTable
 71
     1
340
38
  0
DIMSTYLE
105
1D
330
A
100
AcDbSymbolTableRecord
100
AcDbDimStyleTableRecord
  2
STANDARD
 70
     0
340
F
  0
DIMSTYLE
105
38
102
{ACAD_REACTORS
330
A471
330
AF74
330
A0CA
330
B01A
102
}
330
A
100
AcDbSymbolTableRecord
100
AcDbDimStyleTableRecord
  2
STANDARD_WS
 70
     0
 40
0.7070707070707071
 41
2.5
 42
0.625
 43
3.75
 44
1.25
 73
     0
 74
     0
 77
     1
 78
     8
140
2.5
141
2.5
143
0.0394
147
0.625
171
     4
172
     1
273
     8
274
     4
340
F
  0
ENDTAB
  0
TABLE
  2
BLOCK_RECORD
  5
1
330
0
100
AcDbSymbolTable
 70
     6
  0
BLOCK_RECORD
  5
18
330
1
100
AcDbSymbolTableRecord
100
AcDbBlockTableRecord
  2
*MODEL_SPACE
340
A2C6
  0
BLOCK_RECORD
  5
15
330
1
100
AcDbSymbolTableRecord
100
AcDbBlockTableRecord
  2
*PAPER_SPACE
340
A2C7
  0
BLOCK_RECORD
  5
370
330
1
100
AcDbSymbolTableRecord
100
AcDbBlockTableRecord
  2
WMF3
340
0
102
{BLKREFS
331
CB4
331
D59
331
46E9
331
655B
331
670C
331
8AB0
331
8B44
331
8C16
331
8DD8
331
8F1B
331
8F1E
331
8F20
331
9079
331
907C
331
907E
331
9E04
331
9E06
331
9E08
331
9E9C
331
9FF9
331
9FFB
331
9FFD
331
A091
331
A1E3
331
A1E5
331
A1E7
331
A27B
331
A41E
331
A78B
331
A886
331
ADA5
331
ADF6
331
AE14
331
58A
102
}
  0
BLOCK_RECORD
  5
373
330
1
100
AcDbSymbolTableRecord
100
AcDbBlockTableRecord
  2
WMF4
340
0
102
{BLKREFS
331
CB5
331
D5A
331
46EA
331
655C
331
670D
331
8AB1
331
8B45
331
8C17
331
8DD9
331
8F1C
331
8F1F
331
8F21
331
907A
331
907D
331
907F
331
9E05
331
9E07
331
9E09
331
9E9D
331
9FFA
331
9FFC
331
9FFE
331
A092
331
A1E4
331
A1E6
331
A1E8
331
A27C
331
A41F
331
A78C
331
A887
331
ADA6
331
ADF7
331
AE15
331
58B
102
}
  0
BLOCK_RECORD
  5
A2DB
330
1
100
AcDbSymbolTableRecord
100
AcDbBlockTableRecord
  2
*X2
340
0
  0
BLOCK_RECORD
  5
A472
330
1
100
AcDbSymbolTableRecord
100
AcDbBlockTableRecord
  2
*D3
340
0
  0
BLOCK_RECORD
  5
A96C
330
1
100
AcDbSymbolTableRecord
100
AcDbBlockTableRecord
  2
_Oblique
340
0
102
{BLKREFS
331
B0E1
331
B0E2
331
B0F7
331
B0F8
102
}
  0
BLOCK_RECORD
  5
B01B
330
1
100
AcDbSymbolTableRecord
100
AcDbBlockTableRecord
  2
*D5
340
0
  0
ENDTAB
  0
ENDSEC
  0
SECTION
  2
BLOCKS
  0
BLOCK
  5
19
330
18
100
AcDbEntity
  8
0
100
AcDbBlockBegin
  2
*MODEL_SPACE
 70
     0
 10
0.0
 20
0.0
 30
0.0
  3
*MODEL_SPACE
  1

  0
ENDBLK
  5
1A
330
18
100
AcDbEntity
  8
0
100
AcDbBlockEnd
  0
BLOCK
  5
16
330
15
100
AcDbEntity
 67
     1
  8
0
100
AcDbBlockBegin
  2
*PAPER_SPACE
 70
     0
 10
0.0
 20
0.0
 30
0.0
  3
*PAPER_SPACE
  1

  0
ENDBLK
  5
17
330
15
100
AcDbEntity
 67
     1
  8
0
100
AcDbBlockEnd
  0
BLOCK
  5
371
330
370
100
AcDbEntity
  8
0
100
AcDbBlockBegin
  2
WMF3
 70
     0
 10
297.0543972648738
 20
-297.0543972648738
 30
0.0
  3
WMF3
  1

  0
ENDBLK
  5
372
330
370
100
AcDbEntity
  8
0
100
AcDbBlockEnd
  0
BLOCK
  5
374
330
373
100
AcDbEntity
  8
0
100
AcDbBlockBegin
  2
WMF4
 70
     0
 10
297.0543972648738
 20
-297.0543972648738
 30
0.0
  3
WMF4
  1

  0
ENDBLK
  5
375
330
373
100
AcDbEntity
  8
0
100
AcDbBlockEnd
  0
BLOCK
  5
A2E9
330
A2DB
100
AcDbEntity
  8
0
100
AcDbBlockBegin
  2
*X2
 70
     1
 10
0.0
 20
0.0
 30
0.0
  3
*X2
  1

  0
LINE
  5
A2DC
330
A2DB
100
AcDbEntity
  8
0
 62
     0
100
AcDbLine
 10
50.3651548004718
 20
80.0
 30
0.0
 11
53.0
 21
82.6348451995282
 31
0.0
  0
LINE
  5
A2DD
330
A2DB
100
AcDbEntity
  8
0
 62
     0
100
AcDbLine
 10
50.0
 20
80.08385800558166
 30
0.0
 11
52.91614199441834
 21
83.0
 31
0.0
  0
LINE
  5
A2DE
330
A2DB
100
AcDbEntity
  8
0
 62
     0
100
AcDbLine
 10
50.0
 20
80.53287081163512
 30
0.0
 11
52.46712918836488
 21
83.0
 31
0.0
  0
LINE
  5
A2DF
330
A2DB
100
AcDbEntity
  8
0
 62
     0
100
AcDbLine
 10
50.0
 20
80.98188361768858
 30
0.0
 11
52.01811638231142
 21
83.0
 31
0.0
  0
LINE
  5
A2E0
330
A2DB
100
AcDbEntity
  8
0
 62
     0
100
AcDbLine
 10
50.0
 20
81.43089642374203
 30
0.0
 11
51.56910357625797
 21
83.0
 31
0.0
  0
LINE
  5
A2E1
330
A2DB
100
AcDbEntity
  8
0
 62
     0
100
AcDbLine
 10
50.0
 20
81.87990922979549
 30
0.0
 11
51.12009077020451
 21
83.0
 31
0.0
  0
LINE
  5
A2E2
330
A2DB
100
AcDbEntity
  8
0
 62
     0
100
AcDbLine
 10
50.0
 20
82.32892203584894
 30
0.0
 11
50.67107796415105
 21
83.0
 31
0.0
  0
LINE
  5
A2E3
330
A2DB
100
AcDbEntity
  8
0
 62
     0
100
AcDbLine
 10
50.0
 20
82.7779348419024
 30
0.0
 11
50.22206515809759
 21
83.0
 31
0.0
  0
LINE
  5
A2E4
330
A2DB
100
AcDbEntity
  8
0
 62
     0
100
AcDbLine
 10
50.81416760652525
 20
80.0
 30
0.0
 11
53.0
 21
82.18583239347474
 31
0.0
  0
LINE
  5
A2E5
330
A2DB
100
AcDbEntity
  8
0
 62
     0
100
AcDbLine
 10
51.26318041257871
 20
80.0
 30
0.0
 11
53.0
 21
81.73681958742129
 31
0.0
  0
LINE
  5
A2E6
330
A2DB
100
AcDbEntity
  8
0
 62
     0
100
AcDbLine
 10
51.71219321863217
 20
80.0
 30
0.0
 11
53.0
 21
81.28780678136783
 31
0.0
  0
LINE
  5
A2E7
330
A2DB
100
AcDbEntity
  8
0
 62
     0
100
AcDbLine
 10
52.16120602468563
 20
80.0
 30
0.0
 11
53.0
 21
80.83879397531438
 31
0.0
  0
LINE
  5
A2E8
330
A2DB
100
AcDbEntity
  8
0
 62
     0
100
AcDbLine
 10
52.61021883073908
 20
80.0
 30
0.0
 11
53.0
 21
80.38978116926092
 31
0.0
  0
ENDBLK
  5
A2EA
330
A2DB
100
AcDbEntity
  8
0
100
AcDbBlockEnd
  0
BLOCK
  5
A47C
330
A472
100
AcDbEntity
  8
0
100
AcDbBlockBegin
  2
*D3
 70
     1
 10
0.0
 20
0.0
 30
0.0
  3
*D3
  1

  0
LINE
  5
B0DE
330
A472
100
AcDbEntity
  8
QUOTE
370
    -2
100
AcDbLine
 10
758.6164809443034
 20
-1818.827298210888
 30
0.0
 11
758.6164809443034
 21
-1804.411170246055
 31
0.0
  0
LINE
  5
B0DF
330
A472
100
AcDbEntity
  8
QUOTE
370
    -2
100
AcDbLine
 10
706.616480944303
 20
-1812.777163995424
 30
0.0
 11
706.616480944303
 21
-1804.411170246055
 31
0.0
  0
LINE
  5
B0E0
330
A472
100
AcDbEntity
  8
QUOTE
370
    -2
100
AcDbLine
 10
758.6164809443034
 20
-1804.411170246055
 30
0.0
 11
706.616480944303
 21
-1804.411170246055
 31
0.0
  0
INSERT
  5
B0E1
330
A472
100
AcDbEntity
  8
QUOTE
370
    -2
100
AcDbBlockReference
  2
_Oblique
 10
758.6164809443034
 20
-1804.411170246055
 30
0.0
 41
3.0
 42
3.0
 43
3.0
  0
INSERT
  5
B0E2
330
A472
100
AcDbEntity
  8
QUOTE
370
    -2
100
AcDbBlockReference
  2
_Oblique
 10
706.616480944303
 20
-1804.411170246055
 30
0.0
 41
3.0
 42
3.0
 43
3.0
 50
180.0
  0
MTEXT
  5
B0E3
330
A472
100
AcDbEntity
  8
QUOTE
100
AcDbMText
 10
732.6164809443032
 20
-1797.661170246055
 30
0.0
 40
7.5
 41
0.0
 71
     5
 72
     1
  1
\A1;52
 73
     1
 44
1.0
1001
ACAD
1000
MTEXTBEGIN
1070
    73
1070
     1
1070
    44
1040
1.0
1070
    74
1070
     0
1000
MTEXTEND
  0
POINT
  5
B0E4
330
A472
100
AcDbEntity
  8
DEFPOINTS
 62
     0
100
AcDbPoint
 10
758.6164809443034
 20
-1823.327298210888
 30
0.0
  0
POINT
  5
B0E5
330
A472
100
AcDbEntity
  8
DEFPOINTS
 62
     0
100
AcDbPoint
 10
706.616480944303
 20
-1817.277163995424
 30
0.0
  0
POINT
  5
B0E6
330
A472
100
AcDbEntity
  8
DEFPOINTS
 62
     0
100
AcDbPoint
 10
706.616480944303
 20
-1804.411170246055
 30
0.0
  0
ENDBLK
  5
A47D
330
A472
100
AcDbEntity
  8
0
100
AcDbBlockEnd
  0
BLOCK
  5
A96E
330
A96C
100
AcDbEntity
  8
0
 62
   250
100
AcDbBlockBegin
  2
_Oblique
 70
     0
 10
0.0
 20
0.0
 30
0.0
  3
_Oblique
  1

  0
LINE
  5
A96D
330
A96C
100
AcDbEntity
  8
FERRO
 62
     0
370
    -2
100
AcDbLine
 10
-0.5
 20
-0.5
 30
0.0
 11
0.5
 21
0.5
 31
0.0
  0
ENDBLK
  5
A96F
330
A96C
100
AcDbEntity
  8
0
 62
   250
100
AcDbBlockEnd
  0
BLOCK
  5
B025
330
B01B
100
AcDbEntity
  8
0
100
AcDbBlockBegin
  2
*D5
 70
     1
 10
0.0
 20
0.0
 30
0.0
  3
*D5
  1

  0
LINE
  5
B0F4
330
B01B
100
AcDbEntity
  8
QUOTE
370
    -2
100
AcDbLine
 10
873.3271726990047
 20
-1560.214324335413
 30
0.0
 11
873.3271726990047
 21
-1584.904150607816
 31
0.0
  0
LINE
  5
B0F5
330
B01B
100
AcDbEntity
  8
QUOTE
370
    -2
100
AcDbLine
 10
703.3164809443031
 20
-1559.214324335413
 30
0.0
 11
703.3164809443031
 21
-1584.904150607816
 31
0.0
  0
LINE
  5
B0F6
330
B01B
100
AcDbEntity
  8
QUOTE
370
    -2
100
AcDbLine
 10
873.3271726990047
 20
-1584.904150607816
 30
0.0
 11
703.3164809443031
 21
-1584.904150607816
 31
0.0
  0
INSERT
  5
B0F7
330
B01B
100
AcDbEntity
  8
QUOTE
370
    -2
100
AcDbBlockReference
  2
_Oblique
 10
873.3271726990047
 20
-1584.904150607816
 30
0.0
 41
3.0
 42
3.0
 43
3.0
  0
INSERT
  5
B0F8
330
B01B
100
AcDbEntity
  8
QUOTE
370
    -2
100
AcDbBlockReference
  2
_Oblique
 10
703.3164809443031
 20
-1584.904150607816
 30
0.0
 41
3.0
 42
3.0
 43
3.0
 50
180.0
  0
MTEXT
  5
B0F9
330
B01B
100
AcDbEntity
  8
QUOTE
100
AcDbMText
 10
788.3218268216539
 20
-1578.154150607816
 30
0.0
 40
7.5
 41
0.0
 71
     5
 72
     1
  1
\A1;160
 73
     1
 44
1.0
1001
ACAD
1000
MTEXTBEGIN
1070
    73
1070
     1
1070
    44
1040
1.0
1070
    74
1070
     0
1000
MTEXTEND
  0
POINT
  5
B0FA
330
B01B
100
AcDbEntity
  8
DEFPOINTS
 62
     0
100
AcDbPoint
 10
873.3271726990047
 20
-1555.714324335413
 30
0.0
  0
POINT
  5
B0FB
330
B01B
100
AcDbEntity
  8
DEFPOINTS
 62
     0
100
AcDbPoint
 10
703.3164809443031
 20
-1554.714324335413
 30
0.0
  0
POINT
  5
B0FC
330
B01B
100
AcDbEntity
  8
DEFPOINTS
 62
     0
100
AcDbPoint
 10
703.3164809443031
 20
-1584.904150607816
 30
0.0
  0
ENDBLK
  5
B026
330
B01B
100
AcDbEntity
  8
0
100
AcDbBlockEnd
  0
ENDSEC
  0
SECTION
  2
ENTITIES
  0
INSERT
  5
58A
330
18
100
AcDbEntity
  8
AREA
 62
     1
100
AcDbBlockReference
  2
WMF3
 10
118.8888423094627
 20
247.2301865419039
 30
0.0
  0
INSERT
  5
58B
330
18
100
AcDbEntity
  8
AREA
 62
     1
100
AcDbBlockReference
  2
WMF4
 10
116.3969945894702
 20
245.5709684997675
 30
0.0
  0
INSERT
  5
CB4
330
18
100
AcDbEntity
  8
AREA
 62
     1
100
AcDbBlockReference
  2
WMF3
 10
119.0154567964939
 20
249.2754968857944
 30
0.0
  0
INSERT
  5
CB5
330
18
100
AcDbEntity
  8
AREA
 62
     1
100
AcDbBlockReference
  2
WMF4
 10
116.5236090765014
 20
247.6162788436579
 30
0.0
  0
INSERT
  5
D59
330
18
100
AcDbEntity
  8
AREA
 62
     1
100
AcDbBlockReference
  2
WMF3
 10
119.0154567964939
 20
249.2754968857944
 30
0.0
  0
INSERT
  5
D5A
330
18
100
AcDbEntity
  8
AREA
 62
     1
100
AcDbBlockReference
  2
WMF4
 10
116.5236090765014
 20
247.6162788436579
 30
0.0
  0
LINE
  5
45B4
330
18
100
AcDbEntity
  8
ASSI
 48
5.0
100
AcDbLine
 10
806.0363727905365
 20
-1791.403836080223
 30
0.0
 11
669.5464065402134
 21
-1791.403836080223
 31
0.0
  0
LINE
  5
45EB
102
{ACAD_REACTORS
330
472E
102
}
330
18
100
AcDbEntity
  8
FERRO
 62
   250
100
AcDbLine
 10
764.1722658248518
 20
-1640.915568504925
 30
0.0
 11
763.4111710969778
 21
-1642.895846947144
 31
0.0
  0
LINE
  5
45EC
102
{ACAD_REACTORS
330
472E
102
}
330
18
100
AcDbEntity
  8
FERRO
 62
   250
100
AcDbLine
 10
763.0434576884895
 20
-1719.188994406292
 30
0.0
 11
760.1364809443034
 21
-1719.188994406292
 31
0.0
  0
LINE
  5
45ED
102
{ACAD_REACTORS
330
472E
102
}
330
18
100
AcDbEntity
  8
FERRO
 62
   250
100
AcDbLine
 10
764.0124499365515
 20
-1700.321902429278
 30
0.0
 11
764.0124499365515
 21
-1701.775390801372
 31
0.0
  0
LINE
  5
45EE
102
{ACAD_REACTORS
330
472E
102
}
330
18
100
AcDbEntity
  8
FERRO
 62
   250
100
AcDbLine
 10
777.5783414094196
 20
-1701.775390801372
 30
0.0
 11
764.0124499365515
 21
-1701.775390801372
 31
0.0
  0
LINE
  5
45EF
102
{ACAD_REACTORS
330
472E
102
}
330
18
100
AcDbEntity
  8
FERRO
 62
   250
100
AcDbLine
 10
764.0124499365515
 20
-1700.321902429278
 30
0.0
 11
760.1364809443034
 21
-1700.321902429278
 31
0.0
  0
LINE
  5
45F0
102
{ACAD_REACTORS
330
472E
102
}
330
18
100
AcDbEntity
  8
FERRO
 62
   250
100
AcDbLine
 10
764.0124499365515
 20
-1688.693995452534
 30
0.0
 11
764.0124499365515
 21
-1690.147483824627
 31
0.0
  0
LINE
  5
45F1
102
{ACAD_REACTORS
330
472E
102
}
330
18
100
AcDbEntity
  8
FERRO
 62
   250
100
AcDbLine
 10
777.5783414094196
 20
-1688.693995452534
 30
0.0
 11
764.0124499365515
 21
-1688.693995452534
 31
0.0
  0
LINE
  5
45F2
102
{ACAD_REACTORS
330
472E
102
}
330
18
100
AcDbEntity
  8
FERRO
 62
   250
100
AcDbLine
 10
764.0124499365515
 20
-1690.147483824627
 30
0.0
 11
760.1364809443034
 21
-1690.147483824627
 31
0.0
  0
LINE
  5
45F3
102
{ACAD_REACTORS
330
472E
102
}
330
18
100
AcDbEntity
  8
FERRO
 62
   250
100
AcDbLine
 10
777.5783414094196
 20
-1684.527980319154
 30
0.0
 11
777.5783414094196
 21
-1704.654110685362
 31
0.0
  0
LINE
  5
45F4
330
18
100
AcDbEntity
  8
FERRO
 62
   250
100
AcDbLine
 10
760.1364809443034
 20
-1670.739382003191
 30
0.0
 11
750.4465584636832
 21
-1670.739382003191
 31
0.0
  0
LINE
  5
45F5
102
{ACAD_REACTORS
330
472E
102
}
330
18
100
AcDbEntity
  8
FERRO
 62
   250
100
AcDbLine
 10
760.1364809443034
 20
-1670.739382003191
 30
0.0
 11
750.4465584636832
 21
-1670.739382003191
 31
0.0
  0
LINE
  5
45F6
102
{ACAD_REACTORS
330
472E
102
}
330
18
100
AcDbEntity
  8
FERRO
 62
   250
100
AcDbLine
 10
750.4465584636834
 20
-1665.894420762881
 30
0.0
 11
750.4465584636834
 21
-1670.739382003191
 31
0.0
  0
ARC
  5
45F7
102
{ACAD_REACTORS
330
472E
102
}
330
18
100
AcDbEntity
  8
FERRO
 62
   250
100
AcDbCircle
 10
806.6481088512803
 20
-1684.527980319154
 30
0.0
 40
29.06976744186049
100
AcDbArc
 50
125.3765401519416
 51
180.0
  0
LINE
  5
45F8
102
{ACAD_REACTORS
330
472E
102
}
330
18
100
AcDbEntity
  8
FERRO
 62
   250
100
AcDbLine
 10
760.1364809443034
 20
-1670.739382003191
 30
0.0
 11
760.1364809443034
 21
-1719.188994406292
 31
0.0
  0
ARC
  5
45F9
102
{ACAD_REACTORS
330
472E
102
}
330
18
100
AcDbEntity
  8
FERRO
 62
   250
100
AcDbCircle
 10
763.0434576884895
 20
-1704.654110685362
 30
0.0
 40
14.53488372093024
100
AcDbArc
 50
270.0
 51
0.000000000000007
  0
LINE
  5
45FA
330
18
100
AcDbEntity
  8
FERRO
 62
   250
100
AcDbLine
 10
784.1280720961369
 20
-1630.489014488088
 30
0.0
 11
786.108350538356
 21
-1631.250109215962
 31
0.0
  0
ARC
  5
45FB
102
{ACAD_REACTORS
330
472E
102
}
330
18
100
AcDbEntity
  8
FERRO
 62
   250
100
AcDbCircle
 10
804.7341494431908
 20
-1636.904246816033
 30
0.0
 40
7.751937984496128
100
AcDbArc
 50
180.0
 51
270.0
  0
LINE
  5
45FC
102
{ACAD_REACTORS
330
472E
102
}
330
18
100
AcDbEntity
  8
FERRO
 62
   250
100
AcDbLine
 10
801.8271726990047
 20
-1617.524401854793
 30
0.0
 11
796.9822114586947
 21
-1617.524401854793
 31
0.0
  0
LINE
  5
45FD
330
18
100
AcDbEntity
  8
FERRO
 62
   250
100
AcDbLine
 10
801.8271726990047
 20
-1627.214324335414
 30
0.0
 11
801.8271726990047
 21
-1617.524401854793
 31
0.0
  0
LINE
  5
45FE
102
{ACAD_REACTORS
330
472E
102
}
330
18
100
AcDbEntity
  8
FERRO
 62
   250
100
AcDbLine
 10
801.8271726990047
 20
-1627.214324335414
 30
0.0
 11
801.8271726990047
 21
-1617.524401854793
 31
0.0
  0
LINE
  5
45FF
102
{ACAD_REACTORS
330
472E
102
}
330
18
100
AcDbEntity
  8
FERRO
 62
   250
100
AcDbLine
 10
796.9822114586947
 20
-1636.904246816033
 30
0.0
 11
796.9822114586947
 21
-1617.524401854793
 31
0.0
  0
LINE
  5
4600
330
18
100
AcDbEntity
  8
FERRO
 62
   250
100
AcDbLine
 10
796.9822114586947
 20
-1617.524401854793
 30
0.0
 11
780.0556771687395
 21
-1630.041796309877
 31
0.0
  0
LINE
  5
4601
102
{ACAD_REACTORS
330
472E
102
}
330
18
100
AcDbEntity
  8
FERRO
 62
   250
100
AcDbLine
 10
821.2589107278516
 20
-1631.090293327661
 30
0.0
 11
819.8054223557585
 21
-1631.090293327661
 31
0.0
  0
LINE
  5
4602
102
{ACAD_REACTORS
330
472E
102
}
330
18
100
AcDbEntity
  8
FERRO
 62
   250
100
AcDbLine
 10
819.8054223557585
 20
-1644.65618480053
 30
0.0
 11
819.8054223557585
 21
-1631.090293327661
 31
0.0
  0
LINE
  5
4603
102
{ACAD_REACTORS
330
472E
102
}
330
18
100
AcDbEntity
  8
FERRO
 62
   250
100
AcDbLine
 10
821.2589107278516
 20
-1631.090293327661
 30
0.0
 11
821.2589107278516
 21
-1627.214324335414
 31
0.0
  0
LINE
  5
4604
102
{ACAD_REACTORS
330
472E
102
}
330
18
100
AcDbEntity
  8
FERRO
 62
   250
100
AcDbLine
 10
832.8868177045958
 20
-1644.65618480053
 30
0.0
 11
832.8868177045958
 21
-1631.090293327661
 31
0.0
  0
LINE
  5
4605
102
{ACAD_REACTORS
330
472E
102
}
330
18
100
AcDbEntity
  8
FERRO
 62
   250
100
AcDbLine
 10
832.8868177045958
 20
-1631.090293327661
 30
0.0
 11
831.4333293325027
 21
-1631.090293327661
 31
0.0
  0
LINE
  5
4606
102
{ACAD_REACTORS
330
472E
102
}
330
18
100
AcDbEntity
  8
FERRO
 62
   250
100
AcDbLine
 10
831.4333293325027
 20
-1631.090293327661
 30
0.0
 11
831.4333293325027
 21
-1627.214324335414
 31
0.0
  0
LINE
  5
4607
102
{ACAD_REACTORS
330
472E
102
}
330
18
100
AcDbEntity
  8
FERRO
 62
   250
100
AcDbLine
 10
835.7419013811751
 20
-1644.65618480053
 30
0.0
 11
817.5537555110921
 21
-1644.65618480053
 31
0.0
  0
LINE
  5
4608
102
{ACAD_REACTORS
330
472E
102
}
330
18
100
AcDbEntity
  8
FERRO
 62
   250
100
AcDbLine
 10
804.7341494431908
 20
-1644.65618480053
 30
0.0
 11
817.5537555110921
 21
-1644.65618480053
 31
0.0
  0
ARC
  5
4609
330
18
100
AcDbEntity
  8
FERRO
 62
   250
100
AcDbCircle
 10
817.5537555110921
 20
-1673.72595224239
 30
0.0
 40
29.06976744186049
100
AcDbArc
 50
89.99999999999998
 51
144.6234598480583
  0
LINE
  5
460A
102
{ACAD_REACTORS
330
472E
102
}
330
18
100
AcDbEntity
  8
FERRO
 62
   250
100
AcDbLine
 10
850.2767851021056
 20
-1630.1213010796
 30
0.0
 11
850.2767851021056
 21
-1627.214324335414
 31
0.0
  0
LINE
  5
460B
102
{ACAD_REACTORS
330
472E
102
}
330
18
100
AcDbEntity
  8
FERRO
 62
   250
100
AcDbLine
 10
850.2767851021056
 20
-1627.214324335414
 30
0.0
 11
801.8271726990047
 21
-1627.214324335414
 31
0.0
  0
ARC
  5
460C
102
{ACAD_REACTORS
330
472E
102
}
330
18
100
AcDbEntity
  8
FERRO
 62
   250
100
AcDbCircle
 10
835.7419013811751
 20
-1630.1213010796
 30
0.0
 40
14.53488372093024
100
AcDbArc
 50
270.0
 51
360.0
  0
CIRCLE
  5
460D
102
{ACAD_REACTORS
330
472E
102
}
330
18
100
AcDbEntity
  8
FERRO
 62
   250
100
AcDbCircle
 10
780.0008220295747
 20
-1646.999071925671
 30
0.0
 40
11.14341085271318
  0
CIRCLE
  5
460E
102
{ACAD_REACTORS
330
472D
330
472E
102
}
330
18
100
AcDbEntity
  8
FERRO
 62
   250
100
AcDbCircle
 10
780.0008220295747
 20
-1646.999071925671
 30
0.0
 40
9.689922480620161
  0
ARC
  5
460F
102
{ACAD_REACTORS
330
472E
102
}
330
18
100
AcDbEntity
  8
FERRO
 62
   250
100
AcDbCircle
 10
780.0008220295747
 20
-1646.999071925671
 30
0.0
 40
16.95736434108528
100
AcDbArc
 50
305.3765401519416
 51
158.9763736872902
  0
ARC
  5
4610
102
{ACAD_REACTORS
330
472E
102
}
330
18
100
AcDbEntity
  8
FERRO
 62
   250
100
AcDbCircle
 10
717.4726610205425
 20
-1632.153128684415
 30
0.0
 40
47.1778836290387
100
AcDbArc
 50
314.3409816391349
 51
346.8379093189664
  0
LINE
  5
4611
330
18
100
AcDbEntity
  8
FERRO
 62
   250
100
AcDbLine
 10
755.794775517947
 20
-1730.708994406292
 30
0.0
 11
709.4381863706603
 21
-1730.708994406292
 31
0.0
  0
LINE
  5
4612
330
18
100
AcDbEntity
  8
FERRO
 62
   250
100
AcDbLine
 10
757.810279393916
 20
-1732.724498282261
 30
0.0
 11
707.4226824946913
 21
-1732.724498282261
 31
0.0
  0
LINE
  5
4613
330
18
100
AcDbEntity
  8
FERRO
 62
   250
100
AcDbLine
 10
707.4226824946913
 20
-1682.336901383036
 30
0.0
 11
707.4226824946913
 21
-1673.065583553579
 31
0.0
  0
LINE
  5
4617
330
18
100
AcDbEntity
  8
FERRO
 62
   250
100
AcDbLine
 10
720.3112993857559
 20
-1681.026823863656
 30
0.0
 11
719.3098762384647
 21
-1681.026823863656
 31
0.0
  0
LINE
  5
4620
330
18
100
AcDbEntity
  8
FERRO
 62
   250
100
AcDbLine
 10
725.1760533090482
 20
-1673.065583553579
 30
0.0
 11
719.3098762384647
 21
-1681.026823863656
 31
0.0
  0
LINE
  5
4621
330
18
100
AcDbEntity
  8
FERRO
 62
   250
100
AcDbLine
 10
726.7715197039933
 20
-1672.259382003191
 30
0.0
 11
720.3112993857559
 21
-1681.026823863656
 31
0.0
  0
LINE
  5
4623
330
18
100
AcDbEntity
  8
FERRO
 62
   250
100
AcDbLine
 10
726.7715197039933
 20
-1672.259382003191
 30
0.0
 11
706.6164809443034
 21
-1672.259382003191
 31
0.0
  0
LINE
  5
4624
330
18
100
AcDbEntity
  8
FERRO
 62
   250
100
AcDbLine
 10
725.1760533090482
 20
-1673.065583553579
 30
0.0
 11
707.4226824946913
 21
-1673.065583553579
 31
0.0
  0
LINE
  5
4625
330
18
100
AcDbEntity
  8
FERRO
 62
   250
100
AcDbLine
 10
744.9216625028512
 20
-1681.026823863656
 30
0.0
 11
745.9230856501421
 21
-1681.026823863656
 31
0.0
  0
LINE
  5
462F
330
18
100
AcDbEntity
  8
FERRO
 62
   250
100
AcDbLine
 10
740.0569085795589
 20
-1673.065583553579
 30
0.0
 11
745.9230856501421
 21
-1681.026823863656
 31
0.0
  0
LINE
  5
4630
330
18
100
AcDbEntity
  8
FERRO
 62
   250
100
AcDbLine
 10
738.4614421846135
 20
-1672.259382003191
 30
0.0
 11
744.9216625028512
 21
-1681.026823863656
 31
0.0
  0
LINE
  5
4632
330
18
100
AcDbEntity
  8
FERRO
 62
   250
100
AcDbLine
 10
758.810279393916
 20
-1681.336901383036
 30
0.0
 11
758.8102793939158
 21
-1672.065583553578
 31
0.0
  0
LINE
  5
4633
330
18
100
AcDbEntity
  8
FERRO
 62
   250
100
AcDbLine
 10
758.6164809443034
 20
-1672.259382003191
 30
0.0
 11
738.4614421846135
 21
-1672.259382003191
 31
0.0
  0
LINE
  5
4634
330
18
100
AcDbEntity
  8
FERRO
 62
   250
100
AcDbLine
 10
757.8102793939158
 20
-1673.065583553579
 30
0.0
 11
740.0569085795589
 21
-1673.065583553579
 31
0.0
  0
LINE
  5
4635
330
18
100
AcDbEntity
  8
FERRO
 62
   250
100
AcDbLine
 10
755.794775517947
 20
-1684.352405259005
 30
0.0
 11
709.4381863706601
 21
-1684.352405259005
 31
0.0
  0
LINE
  5
4636
330
18
100
AcDbEntity
  8
FERRO
 62
   250
100
AcDbLine
 10
757.810279393916
 20
-1682.336901383036
 30
0.0
 11
707.4226824946913
 21
-1682.336901383036
 31
0.0
  0
LINE
  5
4649
330
18
100
AcDbEntity
  8
FERRO
 62
   250
100
AcDbLine
 10
709.4381863706603
 20
-1730.708994406292
 30
0.0
 11
709.4381863706601
 21
-1684.352405259005
 31
0.0
  0
LINE
  5
464A
330
18
100
AcDbEntity
  8
FERRO
 62
   250
100
AcDbLine
 10
755.794775517947
 20
-1730.708994406292
 30
0.0
 11
755.794775517947
 21
-1684.352405259005
 31
0.0
  0
LINE
  5
464B
330
18
100
AcDbEntity
  8
FERRO
 62
   250
100
AcDbLine
 10
706.6164809443034
 20
-1783.112095181486
 30
0.0
 11
706.6164809443034
 21
-1672.259382003191
 31
0.0
  0
LINE
  5
464C
330
18
100
AcDbEntity
  8
FERRO
 62
   250
100
AcDbLine
 10
707.4226824946913
 20
-1783.354604063047
 30
0.0
 11
707.4226824946913
 21
-1682.336901383036
 31
0.0
  0
LINE
  5
464D
330
18
100
AcDbEntity
  8
FERRO
 62
   250
100
AcDbLine
 10
757.810279393916
 20
-1783.354604063019
 30
0.0
 11
757.810279393916
 21
-1682.336901383036
 31
0.0
  0
LINE
  5
464E
330
18
100
AcDbEntity
  8
FERRO
 62
   250
100
AcDbLine
 10
758.6164809443034
 20
-1672.259382003191
 30
0.0
 11
758.6164809443034
 21
-1783.112095181486
 31
0.0
  0
LINE
  5
4655
330
18
100
AcDbEntity
  8
0
 62
     7
100
AcDbLine
 10
703.3164809443031
 20
-1554.714324335413
 30
0.0
 11
1103.677798587735
 21
-1554.714324335413
 31
0.0
  0
INSERT
  5
46E9
330
18
100
AcDbEntity
  8
ALLUMINIO
 62
     1
100
AcDbBlockReference
  2
WMF3
 10
1358.329111410511
 20
161.8851418267927
 30
0.0
 41
2.0
 42
2.0
 43
2.0
  0
INSERT
  5
46EA
330
18
100
AcDbEntity
  8
ALLUMINIO
 62
     1
100
AcDbBlockReference
  2
WMF4
 10
1353.345415970526
 20
158.5667057425198
 30
0.0
 41
2.0
 42
2.0
 43
2.0
  0
SPLINE
  5
4721
330
18
100
AcDbEntity
  8
FERRO
 62
   250
100
AcDbSpline
210
0.0
220
0.0
230
1.0
 70
  1064
 71
     3
 72
    14
 73
    10
 74
     8
 42
0.000000001
 43
0.0000000001
 44
0.0000000001
 40
0.0
 40
0.0
 40
0.0
 40
0.0
 40
0.8418856795807474
 40
12.45413535531984
 40
27.15457310255386
 40
35.59079673857002
 40
44.29605862002413
 40
53.69220198114483
 40
54.53408766072602
 40
54.53408766072602
 40
54.53408766072602
 40
54.53408766072602
 10
758.6164809443032
 20
-1783.112095181486
 30
0.0
 10
758.3477612343483
 20
-1783.191099873539
 30
0.0
 10
754.372552103713
 20
-1784.359827590843
 30
0.0
 10
745.6849005941807
 20
-1789.529900309709
 30
0.0
 10
734.6903460214543
 20
-1780.959056877715
 30
0.0
 10
724.1835504455641
 20
-1783.883929863857
 30
0.0
 10
715.747511143594
 20
-1789.107559606513
 30
0.0
 10
710.1608259884232
 20
-1784.123797838812
 30
0.0
 10
706.8857910799378
 20
-1783.188967431924
 30
0.0
 10
706.6164809443032
 20
-1783.112095181486
 30
0.0
 11
758.6164809443032
 21
-1783.112095181486
 31
0.0
 11
757.8102793939158
 21
-1783.354604063048
 31
0.0
 11
746.691021786014
 21
-1786.702208098895
 31
0.0
 11
732.581625607755
 21
-1782.575731460741
 31
0.0
 11
724.3224695820209
 21
-1784.295094999803
 31
0.0
 11
716.0633135562868
 21
-1787.046081398766
 31
0.0
 11
707.4226824946911
 21
-1783.354604063048
 31
0.0
 11
706.6164809443032
 21
-1783.112095181486
 31
0.0
  0
HATCH
  5
472D
330
18
100
AcDbEntity
  8
AREA166
 62
   250
100
AcDbHatch
 10
0.0
 20
0.0
 30
0.0
210
0.0
220
0.0
230
1.0
  2
SOLID
 70
     1
 71
     1
 91
        1
 92
        7
 72
     1
 73
     1
 93
        2
 10
770.3108995489546
 20
-1646.999071925671
 42
1.0
 10
789.6907445101949
 20
-1646.999071925671
 42
1.0
 97
        1
330
460E
 75
     0
 76
     1
 47
1.043845980145889
 98
        1
 10
776.7216474795056
 20
-1645.749926043341
  0
HATCH
  5
472E
330
18
100
AcDbEntity
  8
AREA166
 62
   166
100
AcDbHatch
 10
0.0
 20
0.0
 30
0.0
210
0.0
220
0.0
230
1.0
  2
DOTS
 70
     0
 71
     1
 91
        6
 92
        7
 72
     1
 73
     1
 93
       11
 10
760.1364809443034
 20
-1670.739382003191
 42
0.0
 10
760.1364809443033
 20
-1690.147483824627
 42
0.0
 10
764.0124499365515
 20
-1690.147483824627
 42
0.0
 10
764.0124499365517
 20
-1688.693995452534
 42
0.0
 10
777.5783414094195
 20
-1688.693995452534
 42
0.0
 10
777.5783414094196
 20
-1684.527980319154
 42
-0.24295779866662
 10
789.8182434902029
 20
-1660.825511860113
 42
1.346499099033025
 10
764.1722658248517
 20
-1640.915568504925
 42
0.0
 10
763.4111710969776
 20
-1642.895846947145
 42
-0.1427525949938867
 10
750.4465584636834
 20
-1665.894420762881
 42
0.0
 10
750.4465584636833
 20
-1670.739382003191
 42
0.0
 97
       11
330
45F5
330
45F6
330
4610
330
45EB
330
460F
330
45F7
330
45F3
330
45F1
330
45F0
330
45F2
330
45F8
 92
       22
 72
     1
 73
     1
 93
        2
 10
768.8574111768615
 20
-1646.999071925671
 42
-1.0
 10
791.144232882288
 20
-1646.999071925671
 42
-1.0
 97
        1
330
460D
 92
        6
 72
     1
 73
     1
 93
        2
 10
770.3108995489546
 20
-1646.999071925671
 42
-1.0
 10
789.6907445101949
 20
-1646.999071925671
 42
-1.0
 97
        1
330
460E
 92
        7
 72
     1
 73
     1
 93
        7
 10
764.0124499365515
 20
-1701.775390801371
 42
0.0
 10
764.0124499365515
 20
-1700.321902429278
 42
0.0
 10
760.1364809443033
 20
-1700.321902429278
 42
0.0
 10
760.1364809443035
 20
-1719.188994406292
 42
0.0
 10
763.0434576884907
 20
-1719.188994406292
 42
0.4142135623730654
 10
777.5783414094196
 20
-1704.654110685362
 42
0.0
 10
777.5783414094195
 20
-1701.775390801372
 42
0.0
 97
        7
330
45EF
330
45ED
330
45EE
330
45F3
330
45F9
330
45EC
330
45F8
 92
        7
 72
     1
 73
     1
 93
       10
 10
819.8054223557585
 20
-1631.090293327661
 42
0.0
 10
821.2589107278516
 20
-1631.090293327662
 42
0.0
 10
821.2589107278514
 20
-1627.214324335414
 42
0.0
 10
801.8271726990047
 20
-1627.214324335414
 42
0.0
 10
801.8271726990047
 20
-1617.524401854793
 42
0.0
 10
796.9822114586946
 20
-1617.524401854793
 42
0.0
 10
796.9822114586947
 20
-1636.904246816033
 42
0.4142135623730952
 10
804.7341494431909
 20
-1644.65618480053
 42
0.0
 10
817.5537555110921
 20
-1644.65618480053
 42
0.0
 10
819.8054223557585
 20
-1644.65618480053
 42
0.0
 97
       10
330
45FC
330
45FE
330
460B
330
4603
330
4601
330
4602
330
4607
330
4608
330
45FB
330
45FF
 92
        7
 72
     1
 73
     1
 93
        7
 10
832.8868177045958
 20
-1644.65618480053
 42
0.0
 10
835.7419013811751
 20
-1644.65618480053
 42
0.4142135623730971
 10
850.2767851021056
 20
-1630.1213010796
 42
0.0
 10
850.2767851021054
 20
-1627.214324335414
 42
0.0
 10
831.4333293325027
 20
-1627.214324335414
 42
0.0
 10
831.4333293325029
 20
-1631.090293327662
 42
0.0
 10
832.886817704596
 20
-1631.090293327662
 42
0.0
 97
        7
330
4605
330
4606
330
460B
330
460A
330
460C
330
4607
330
4604
 75
     0
 76
     1
 52
0.0
 41
2.0
 77
     0
 78
     1
 53
180.0
 43
1637.662045510399
 44
26.41573000903645
 45
-1.587499999999999
 46
3.174999999999999
 79
     2
 49
0.0
 49
-3.174999999999999
 47
1.043845980145889
 98
        6
 10
769.4092340686463
 20
-1670.802230525657
 10
769.4092340686463
 20
-1670.802230525657
 10
769.4092340686463
 20
-1670.802230525657
 10
768.3646052804085
 20
-1708.38068492779
 10
812.2390778167684
 20
-1635.311466229266
 10
837.3102044140603
 20
-1633.223774962853
  0
INSERT
  5
655B
330
18
100
AcDbEntity
  8
ALLUMINIO
 62
     1
100
AcDbBlockReference
  2
WMF3
 10
582.5970495602237
 20
-279.27482726071
 30
0.0
 41
3.999999999999999
 42
3.999999999999999
 43
3.999999999999999
  0
INSERT
  5
655C
330
18
100
AcDbEntity
  8
ALLUMINIO
 62
     1
100
AcDbBlockReference
  2
WMF4
 10
572.6296586802536
 20
-285.9116994292558
 30
0.0
 41
3.999999999999999
 42
3.999999999999999
 43
3.999999999999999
  0
INSERT
  5
670C
330
18
100
AcDbEntity
  8
ALLUMINIO
 62
     1
100
AcDbBlockReference
  2
WMF3
 10
589.4326850976631
 20
-88.60908119522447
 30
0.0
 41
2.0
 42
2.0
 43
2.0
  0
INSERT
  5
670D
330
18
100
AcDbEntity
  8
ALLUMINIO
 62
     1
100
AcDbBlockReference
  2
WMF4
 10
584.4489896576781
 20
-91.92751727949735
 30
0.0
 41
2.0
 42
2.0
 43
2.0
  0
INSERT
  5
8AB0
330
18
100
AcDbEntity
  8
ALLUMINIO
 62
     1
100
AcDbBlockReference
  2
WMF3
 10
1502.020270793584
 20
-711.2331799408297
 30
0.0
  0
INSERT
  5
8AB1
330
18
100
AcDbEntity
  8
ALLUMINIO
 62
     1
100
AcDbBlockReference
  2
WMF4
 10
1499.528423073591
 20
-712.8923979829663
 30
0.0
  0
INSERT
  5
8B44
330
18
100
AcDbEntity
  8
ALLUMINIO
 62
     1
100
AcDbBlockReference
  2
WMF3
 10
1964.398053197002
 20
-1286.183688527569
 30
0.0
  0
INSERT
  5
8B45
330
18
100
AcDbEntity
  8
ALLUMINIO
 62
     1
100
AcDbBlockReference
  2
WMF4
 10
1961.90620547701
 20
-1287.842906569706
 30
0.0
  0
INSERT
  5
8C16
330
18
100
AcDbEntity
  8
ALLUMINIO
 62
     1
100
AcDbBlockReference
  2
WMF3
 10
883.3426222293006
 20
-326.2071731127912
 30
0.0
  0
INSERT
  5
8C17
330
18
100
AcDbEntity
  8
ALLUMINIO
 62
     1
100
AcDbBlockReference
  2
WMF4
 10
880.8507745093081
 20
-327.8663911549277
 30
0.0
  0
INSERT
  5
8DD8
330
18
100
AcDbEntity
  8
ALLUMINIO
 62
     1
100
AcDbBlockReference
  2
WMF3
 10
668.4959233042757
 20
-188.290246797548
 30
0.0
 41
2.245639534883713
 42
2.245639534883713
 43
2.245639534883713
  0
INSERT
  5
8DD9
330
18
100
AcDbEntity
  8
ALLUMINIO
 62
     1
100
AcDbBlockReference
  2
WMF4
 10
662.9001315493505
 20
-192.016252429962
 30
0.0
 41
2.245639534883713
 42
2.245639534883713
 43
2.245639534883713
  0
INSERT
  5
8F1B
330
18
100
AcDbEntity
  8
AREA
 62
     1
100
AcDbBlockReference
  2
WMF3
 10
1173.742395918546
 20
394.8670251580704
 30
0.0
  0
INSERT
  5
8F1C
330
18
100
AcDbEntity
  8
AREA
 62
     1
100
AcDbBlockReference
  2
WMF4
 10
1171.250548198553
 20
393.2078071159339
 30
0.0
  0
INSERT
  5
8F1E
330
18
100
AcDbEntity
  8
AREA
 62
     1
100
AcDbBlockReference
  2
WMF3
 10
1173.869010405577
 20
396.9123355019608
 30
0.0
  0
INSERT
  5
8F1F
330
18
100
AcDbEntity
  8
AREA
 62
     1
100
AcDbBlockReference
  2
WMF4
 10
1171.377162685585
 20
395.2531174598243
 30
0.0
  0
INSERT
  5
8F20
330
18
100
AcDbEntity
  8
AREA
 62
     1
100
AcDbBlockReference
  2
WMF3
 10
1173.869010405577
 20
396.9123355019608
 30
0.0
  0
INSERT
  5
8F21
330
18
100
AcDbEntity
  8
AREA
 62
     1
100
AcDbBlockReference
  2
WMF4
 10
1171.377162685585
 20
395.2531174598243
 30
0.0
  0
INSERT
  5
9079
330
18
100
AcDbEntity
  8
AREA
 62
     1
100
AcDbBlockReference
  2
WMF3
 10
1038.937020049797
 20
-791.2034078923266
 30
0.0
  0
INSERT
  5
907A
330
18
100
AcDbEntity
  8
AREA
 62
     1
100
AcDbBlockReference
  2
WMF4
 10
1036.445172329804
 20
-792.862625934463
 30
0.0
  0
INSERT
  5
907C
330
18
100
AcDbEntity
  8
AREA
 62
     1
100
AcDbBlockReference
  2
WMF3
 10
1039.063634536828
 20
-789.1580975484361
 30
0.0
  0
INSERT
  5
907D
330
18
100
AcDbEntity
  8
AREA
 62
     1
100
AcDbBlockReference
  2
WMF4
 10
1036.571786816835
 20
-790.8173155905727
 30
0.0
  0
INSERT
  5
907E
330
18
100
AcDbEntity
  8
AREA
 62
     1
100
AcDbBlockReference
  2
WMF3
 10
1039.063634536828
 20
-789.1580975484361
 30
0.0
  0
INSERT
  5
907F
330
18
100
AcDbEntity
  8
AREA
 62
     1
100
AcDbBlockReference
  2
WMF4
 10
1036.571786816835
 20
-790.8173155905727
 30
0.0
  0
HATCH
  5
9B04
330
18
100
AcDbEntity
  8
AREA166
 62
   166
100
AcDbHatch
 10
0.0
 20
0.0
 30
0.0
210
0.0
220
0.0
230
1.0
  2
HONEY
 70
     0
 71
     0
 91
        1
 92
        5
 93
        4
 72
     1
 10
707.4226824946913
 20
-1732.724498282261
 11
757.810279393916
 21
-1732.72449828226
 72
     1
 10
757.810279393916
 20
-1732.72449828226
 11
757.8102793939159
 21
-1783.354604063048
 72
     4
 94
        3
 73
     0
 74
     0
 95
       12
 96
        8
 40
0.8095054611353289
 40
0.8095054611355564
 40
0.8095054611355564
 40
0.8095054611355564
 40
11.9751301493461
 40
26.1101664447631
 40
34.22191994093235
 40
42.5923640577153
 40
51.62711728956213
 40
51.62711728956215
 40
51.62711728956215
 40
51.62711728956215
 10
757.810279393916
 20
-1783.354604063048
 10
754.1032048608949
 20
-1784.520117725691
 10
745.684900594181
 20
-1789.52990030971
 10
734.6903460214546
 20
-1780.959056877715
 10
724.1835504455643
 20
-1783.883929863858
 10
715.7475111435937
 20
-1789.107559606511
 10
710.4091117930288
 20
-1784.345288269378
 10
707.4226824946913
 20
-1783.354604063047
 72
     1
 10
707.4226824946913
 20
-1783.354604063047
 11
707.4226824946913
 21
-1732.724498282261
 97
        0
 75
     0
 76
     1
 52
0.0
 41
1.455999999999999
 77
     0
 78
     3
 53
180.0
 43
1673.657573328166
 44
94.69951872254142
 45
-6.934199999999999
 46
4.003461279999999
 79
     2
 49
4.622799999999999
 49
-9.245599999999999
 53
60.0
 43
1673.657573328166
 44
94.69951872254142
 45
6.934199171547365
 46
4.003462714922056
 79
     2
 49
4.622799999999991
 49
-9.245599999999983
 53
120.0
 43
1673.657573328166
 44
94.69951872254142
 45
-0.0000008284526355
 46
8.006923994922052
 79
     2
 49
-9.245599999999994
 49
4.622799999999997
 47
0.4674590473530481
 98
        1
 10
725.9002079277798
 20
-1755.59579881731
  0
INSERT
  5
9E04
330
18
100
AcDbEntity
  8
AREA
 62
     1
100
AcDbBlockReference
  2
WMF3
 10
2060.696351223306
 20
-755.2071482055043
 30
0.0
  0
INSERT
  5
9E05
330
18
100
AcDbEntity
  8
AREA
 62
     1
100
AcDbBlockReference
  2
WMF4
 10
2058.204503503314
 20
-756.8663662476408
 30
0.0
  0
INSERT
  5
9E06
330
18
100
AcDbEntity
  8
AREA
 62
     1
100
AcDbBlockReference
  2
WMF3
 10
2060.822965710338
 20
-753.161837861614
 30
0.0
  0
INSERT
  5
9E07
330
18
100
AcDbEntity
  8
AREA
 62
     1
100
AcDbBlockReference
  2
WMF4
 10
2058.331117990345
 20
-754.8210559037504
 30
0.0
  0
INSERT
  5
9E08
330
18
100
AcDbEntity
  8
AREA
 62
     1
100
AcDbBlockReference
  2
WMF3
 10
2060.822965710338
 20
-753.161837861614
 30
0.0
  0
INSERT
  5
9E09
330
18
100
AcDbEntity
  8
AREA
 62
     1
100
AcDbBlockReference
  2
WMF4
 10
2058.331117990345
 20
-754.8210559037504
 30
0.0
  0
INSERT
  5
9E9C
330
18
100
AcDbEntity
  8
AREA
 62
     1
100
AcDbBlockReference
  2
WMF3
 10
2433.320275653887
 20
-673.3966400332365
 30
0.0
  0
INSERT
  5
9E9D
330
18
100
AcDbEntity
  8
AREA
 62
     1
100
AcDbBlockReference
  2
WMF4
 10
2430.828427933894
 20
-675.0558580753729
 30
0.0
  0
INSERT
  5
9FF9
330
18
100
AcDbEntity
  8
AREA
 62
     1
100
AcDbBlockReference
  2
WMF3
 10
942.165018739738
 20
-886.0443957620208
 30
0.0
 41
2.0
 42
2.0
 43
2.0
  0
INSERT
  5
9FFA
330
18
100
AcDbEntity
  8
AREA
 62
     1
100
AcDbBlockReference
  2
WMF4
 10
937.1813232997531
 20
-889.3628318462939
 30
0.0
 41
2.0
 42
2.0
 43
2.0
  0
INSERT
  5
9FFB
330
18
100
AcDbEntity
  8
AREA
 62
     1
100
AcDbBlockReference
  2
WMF3
 10
942.4182477138005
 20
-881.9537750742401
 30
0.0
 41
2.0
 42
2.0
 43
2.0
  0
INSERT
  5
9FFC
330
18
100
AcDbEntity
  8
AREA
 62
     1
100
AcDbBlockReference
  2
WMF4
 10
937.4345522738156
 20
-885.272211158513
 30
0.0
 41
2.0
 42
2.0
 43
2.0
  0
INSERT
  5
9FFD
330
18
100
AcDbEntity
  8
AREA
 62
     1
100
AcDbBlockReference
  2
WMF3
 10
942.4182477138005
 20
-881.9537750742401
 30
0.0
 41
2.0
 42
2.0
 43
2.0
  0
INSERT
  5
9FFE
330
18
100
AcDbEntity
  8
AREA
 62
     1
100
AcDbBlockReference
  2
WMF4
 10
937.4345522738156
 20
-885.272211158513
 30
0.0
 41
2.0
 42
2.0
 43
2.0
  0
INSERT
  5
A091
330
18
100
AcDbEntity
  8
AREA
 62
     1
100
AcDbBlockReference
  2
WMF3
 10
1687.412867600899
 20
-722.4233794174852
 30
0.0
 41
2.0
 42
2.0
 43
2.0
  0
INSERT
  5
A092
330
18
100
AcDbEntity
  8
AREA
 62
     1
100
AcDbBlockReference
  2
WMF4
 10
1682.429172160914
 20
-725.7418155017581
 30
0.0
 41
2.0
 42
2.0
 43
2.0
  0
LEADER
  5
A0CA
330
18
100
AcDbEntity
  8
QUOTE
100
AcDbLeader
  3
STANDARD_WS
 73
     0
 74
     0
 75
     1
 40
26.66666666666668
 41
71.66666666666667
 76
     3
 10
871.901563775636
 20
-1600.614163809064
 30
0.0
 10
903.9132963853049
 20
-1623.990594162661
 30
0.0
 10
906.9132963853048
 20
-1623.990594162661
 30
0.0
340
A0CB
210
0.0
220
0.0
230
-1.0
213
3.0
223
-7.025294372433108
233
0.0
1001
ACAD
1000
DSTYLE
1002
{
1070
    40
1040
3.0
1070
    41
1040
1.0
1070
    42
1040
1.5
1070
    43
1040
10.0
1070
    44
1040
0.0
1070
    79
1070
     2
1070
   141
1040
2.0
1070
   147
1040
1.0
1070
   176
1070
   256
1070
   177
1070
   256
1070
   178
1070
   256
1070
   179
1070
     1
1070
   271
1070
     1
1070
   272
1070
     1
1070
   341
1005
A96C
1070
   342
1005
A96C
1002
}
  0
MTEXT
  5
A0CB
102
{ACAD_REACTORS
330
A0CA
102
}
330
18
100
AcDbEntity
  8
QUOTE
100
AcDbMText
 10
906.9132963853048
 20
-1606.631966456895
 30
0.0
 40
10.0
 41
0.0
 71
     4
 72
     1
  1
tubolare\P70x70x2
 73
     1
 44
1.0
1001
ACAD
1000
MTEXTBEGIN
1070
    73
1070
     1
1070
    44
1040
1.0
1070
    74
1070
     0
1000
MTEXTEND
  0
INSERT
  5
A1E3
330
18
100
AcDbEntity
  8
AREA
 62
     1
100
AcDbBlockReference
  2
WMF3
 10
1359.441396540012
 20
-1359.345123808488
 30
0.0
 41
2.0
 42
2.0
 43
2.0
  0
INSERT
  5
A1E4
330
18
100
AcDbEntity
  8
AREA
 62
     1
100
AcDbBlockReference
  2
WMF4
 10
1354.457701100026
 20
-1362.663559892761
 30
0.0
 41
2.0
 42
2.0
 43
2.0
  0
INSERT
  5
A1E5
330
18
100
AcDbEntity
  8
AREA
 62
     1
100
AcDbBlockReference
  2
WMF3
 10
1359.694625514074
 20
-1355.254503120707
 30
0.0
 41
2.0
 42
2.0
 43
2.0
  0
INSERT
  5
A1E6
330
18
100
AcDbEntity
  8
AREA
 62
     1
100
AcDbBlockReference
  2
WMF4
 10
1354.710930074089
 20
-1358.57293920498
 30
0.0
 41
2.0
 42
2.0
 43
2.0
  0
INSERT
  5
A1E7
330
18
100
AcDbEntity
  8
AREA
 62
     1
100
AcDbBlockReference
  2
WMF3
 10
1359.694625514074
 20
-1355.254503120707
 30
0.0
 41
2.0
 42
2.0
 43
2.0
  0
INSERT
  5
A1E8
330
18
100
AcDbEntity
  8
AREA
 62
     1
100
AcDbBlockReference
  2
WMF4
 10
1354.710930074089
 20
-1358.57293920498
 30
0.0
 41
2.0
 42
2.0
 43
2.0
  0
INSERT
  5
A27B
330
18
100
AcDbEntity
  8
AREA
 62
     1
100
AcDbBlockReference
  2
WMF3
 10
2104.689245401173
 20
-1195.724107463952
 30
0.0
 41
2.0
 42
2.0
 43
2.0
  0
INSERT
  5
A27C
330
18
100
AcDbEntity
  8
AREA
 62
     1
100
AcDbBlockReference
  2
WMF4
 10
2099.705549961187
 20
-1199.042543548225
 30
0.0
 41
2.0
 42
2.0
 43
2.0
  0
INSERT
  5
A41E
330
18
100
AcDbEntity
  8
AREA166
 62
     1
100
AcDbBlockReference
  2
WMF3
 10
1775.826786576635
 20
-1194.211980900148
 30
0.0
 41
3.0
 42
3.0
 43
3.0
  0
INSERT
  5
A41F
330
18
100
AcDbEntity
  8
AREA166
 62
     1
100
AcDbBlockReference
  2
WMF4
 10
1768.351243416657
 20
-1199.189635026558
 30
0.0
 41
3.0
 42
3.0
 43
3.0
  0
DIMENSION
  5
A471
330
18
100
AcDbEntity
  8
QUOTE
100
AcDbDimension
  2
*D3
 10
706.616480944303
 20
-1804.411170246055
 30
0.0
 11
732.6164809443032
 21
-1797.661170246055
 31
0.0
 70
    32
 71
     5
 42
52.00000000000045
  3
STANDARD_WS
100
AcDbAlignedDimension
 13
758.6164809443034
 23
-1823.327298210888
 33
0.0
 14
706.616480944303
 24
-1817.277163995424
 34
0.0
 50
180.0
100
AcDbRotatedDimension
1001
ACAD
1000
DSTYLE
1002
{
1070
    40
1040
3.0
1070
    41
1040
1.0
1070
    42
1040
1.5
1070
    43
1040
10.0
1070
    44
1040
0.0
1070
    79
1070
     2
1070
   141
1040
2.0
1070
   147
1040
1.0
1070
   176
1070
   256
1070
   177
1070
   256
1070
   178
1070
   256
1070
   179
1070
     1
1070
   271
1070
     1
1070
   272
1070
     1
1070
   341
1005
A96C
1070
   342
1005
A96C
1002
}
  0
LINE
  5
A594
330
18
100
AcDbEntity
  8
FERRO
 62
   250
100
AcDbLine
 10
750.7482638900398
 20
-1670.739382003191
 30
0.0
 11
750.7482638900401
 21
-1671.259382003191
 31
0.0
  0
LWPOLYLINE
  5
A6DB
330
18
100
AcDbEntity
  8
FERRO
100
AcDbPolyline
 90
        4
 70
     1
 43
0.0
 10
743.6164809443036
 20
-1645.759382003191
 10
743.6164809443036
 20
-1631.759382003191
 10
721.6164809443037
 20
-1631.759382003191
 10
721.6164809443037
 20
-1645.759382003191
  0
LWPOLYLINE
  5
A6DC
330
18
100
AcDbEntity
  8
FERRO
100
AcDbPolyline
 90
        3
 70
     0
 43
0.0
 10
718.6164809443036
 20
-1628.759382003191
 10
718.6164809443036
 20
-1621.516741316072
 10
726.5558207725239
 20
-1615.698721831411
  0
LWPOLYLINE
  5
A6DD
330
18
100
AcDbEntity
  8
FERRO
100
AcDbPolyline
 90
        3
 70
     0
 43
0.0
 10
721.6164809443037
 20
-1628.759382003191
 10
721.6164809443037
 20
-1622.759382003191
 10
727.0861508584137
 20
-1616.229051917301
  0
LINE
  5
A6DE
330
18
100
AcDbEntity
  8
FERRO
100
AcDbLine
 10
727.0861508584137
 20
-1616.229051917301
 30
0.0
 11
726.5558207725239
 21
-1615.698721831411
 31
0.0
  0
LINE
  5
A6DF
330
18
100
AcDbEntity
  8
FERRO
100
AcDbLine
 10
746.6164809443037
 20
-1628.759382003191
 30
0.0
 11
746.6164809443037
 21
-1623.759382003191
 31
0.0
  0
LINE
  5
A6E0
330
18
100
AcDbEntity
  8
FERRO
100
AcDbLine
 10
744.6164809443037
 20
-1628.759382003191
 30
0.0
 11
746.6164809443037
 21
-1623.759382003191
 31
0.0
  0
LINE
  5
A6E1
330
18
100
AcDbEntity
  8
FERRO
100
AcDbLine
 10
745.1164809443037
 20
-1671.759382003191
 30
0.0
 11
747.6164809443036
 21
-1672.259382003191
 31
0.0
  0
LINE
  5
A6E2
330
18
100
AcDbEntity
  8
FERRO
100
AcDbLine
 10
747.6164809443036
 20
-1672.259382003191
 30
0.0
 11
746.6164809443037
 21
-1670.259382003191
 31
0.0
  0
LINE
  5
A6E3
330
18
100
AcDbEntity
  8
FERRO
100
AcDbLine
 10
720.1164809443037
 20
-1671.759382003191
 30
0.0
 11
717.6164809443037
 21
-1672.259382003191
 31
0.0
  0
LINE
  5
A6E4
330
18
100
AcDbEntity
  8
FERRO
100
AcDbLine
 10
717.6164809443037
 20
-1672.259382003191
 30
0.0
 11
718.6164809443036
 21
-1670.259382003191
 31
0.0
  0
LINE
  5
A6E5
330
18
100
AcDbEntity
  8
FERRO
100
AcDbLine
 10
737.8664809443037
 20
-1671.759382003191
 30
0.0
 11
737.8664809443037
 21
-1678.759382003191
 31
0.0
  0
LINE
  5
A6E6
330
18
100
AcDbEntity
  8
FERRO
100
AcDbLine
 10
727.3664809443037
 20
-1678.759382003191
 30
0.0
 11
727.3664809443037
 21
-1671.759382003191
 31
0.0
  0
LINE
  5
A6E7
330
18
100
AcDbEntity
  8
FERRO
100
AcDbLine
 10
724.8664809443036
 20
-1678.259382003191
 30
0.0
 11
727.3664809443037
 21
-1678.759382003191
 31
0.0
  0
LINE
  5
A6E8
330
18
100
AcDbEntity
  8
FERRO
100
AcDbLine
 10
730.1164809443035
 20
-1681.026823863656
 30
0.0
 11
724.8664809443036
 21
-1678.259382003191
 31
0.0
  0
LINE
  5
A6E9
330
18
100
AcDbEntity
  8
FERRO
100
AcDbLine
 10
735.1164809443035
 20
-1681.026823863656
 30
0.0
 11
740.3664809443037
 21
-1678.259382003191
 31
0.0
  0
LINE
  5
A6EA
330
18
100
AcDbEntity
  8
FERRO
100
AcDbLine
 10
740.3664809443037
 20
-1678.259382003191
 30
0.0
 11
737.8664809443037
 21
-1678.759382003191
 31
0.0
  0
ARC
  5
A6EB
330
18
100
AcDbEntity
  8
FERRO
100
AcDbCircle
 10
732.6164809443039
 20
-1692.613163463972
 30
0.0
 40
11.85298550298028
100
AcDbArc
 50
77.82388473721839
 51
102.1761152627837
  0
LINE
  5
A6EC
330
18
100
AcDbEntity
  8
FERRO
100
AcDbLine
 10
734.8664809443037
 20
-1672.259382003191
 30
0.0
 11
734.8664809443037
 21
-1677.759382003191
 31
0.0
  0
LINE
  5
A6ED
330
18
100
AcDbEntity
  8
FERRO
100
AcDbLine
 10
734.8664809443037
 20
-1677.759382003191
 30
0.0
 11
730.3664809443037
 21
-1677.759382003191
 31
0.0
  0
LINE
  5
A6EE
330
18
100
AcDbEntity
  8
FERRO
100
AcDbLine
 10
730.3664809443037
 20
-1672.259382003191
 30
0.0
 11
730.3664809443037
 21
-1677.759382003191
 31
0.0
  0
ARC
  5
A6EF
330
18
100
AcDbEntity
  8
FERRO
100
AcDbCircle
 10
732.6164809443034
 20
-1674.290632003191
 30
0.0
 40
3.03125000000001
100
AcDbArc
 50
42.07502205083788
 51
137.924977949162
  0
LINE
  5
A6F0
330
18
100
AcDbEntity
  8
FERRO
100
AcDbLine
 10
746.6164809443037
 20
-1670.259382003191
 30
0.0
 11
746.6164809443037
 21
-1628.759382003191
 31
0.0
  0
LINE
  5
A6F1
330
18
100
AcDbEntity
  8
FERRO
100
AcDbLine
 10
744.6164809443037
 20
-1628.759382003191
 30
0.0
 11
721.6164809443037
 21
-1628.759382003191
 31
0.0
  0
LINE
  5
A6F2
330
18
100
AcDbEntity
  8
FERRO
100
AcDbLine
 10
718.6164809443036
 20
-1628.759382003191
 30
0.0
 11
718.6164809443036
 21
-1670.259382003191
 31
0.0
  0
LINE
  5
A6F3
330
18
100
AcDbEntity
  8
FERRO
100
AcDbLine
 10
745.1164809443037
 20
-1671.759382003191
 30
0.0
 11
737.8664809443037
 21
-1671.759382003191
 31
0.0
  0
LINE
  5
A6F4
330
18
100
AcDbEntity
  8
FERRO
100
AcDbLine
 10
720.1164809443037
 20
-1671.759382003191
 30
0.0
 11
727.3664809443037
 21
-1671.759382003191
 31
0.0
  0
LINE
  5
A6F5
330
18
100
AcDbEntity
  8
FERRO
100
AcDbLine
 10
721.6164809443037
 20
-1648.759382003191
 30
0.0
 11
743.6164809443036
 21
-1648.759382003191
 31
0.0
  0
LINE
  5
A6F6
330
18
100
AcDbEntity
  8
FERRO
100
AcDbLine
 10
743.6164809443036
 20
-1668.759382003191
 30
0.0
 11
721.6164809443037
 21
-1668.759382003191
 31
0.0
  0
LINE
  5
A6F7
330
18
100
AcDbEntity
  8
FERRO
100
AcDbLine
 10
721.6164809443037
 20
-1648.759382003191
 30
0.0
 11
721.6164809443037
 21
-1668.759382003191
 31
0.0
  0
LINE
  5
A6F8
330
18
100
AcDbEntity
  8
FERRO
100
AcDbLine
 10
743.6164809443036
 20
-1648.759382003191
 30
0.0
 11
743.6164809443036
 21
-1668.759382003191
 31
0.0
  0
INSERT
  5
A78B
330
18
100
AcDbEntity
  8
ALLUMINIO
 62
     1
100
AcDbBlockReference
  2
WMF3
 10
1817.613906467558
 20
-1646.13420216101
 30
0.0
 41
0.5
 42
0.5
 43
0.5
  0
INSERT
  5
A78C
330
18
100
AcDbEntity
  8
ALLUMINIO
 62
     1
100
AcDbBlockReference
  2
WMF4
 10
1816.367982607561
 20
-1646.963811182078
 30
0.0
 41
0.5
 42
0.5
 43
0.5
  0
INSERT
  5
A886
330
18
100
AcDbEntity
  8
ALLUMINIO
 62
     1
100
AcDbBlockReference
  2
WMF3
 10
1705.460171629709
 20
-1676.692457393573
 30
0.0
 41
0.5
 42
0.5
 43
0.5
  0
INSERT
  5
A887
330
18
100
AcDbEntity
  8
ALLUMINIO
 62
     1
100
AcDbBlockReference
  2
WMF4
 10
1704.214247769713
 20
-1677.522066414642
 30
0.0
 41
0.5
 42
0.5
 43
0.5
  0
HATCH
  5
A9E2
330
18
100
AcDbEntity
  8
AREA166
 62
   250
100
AcDbHatch
 10
0.0
 20
0.0
 30
0.0
210
0.0
220
0.0
230
1.0
  2
SOLID
 70
     1
 71
     0
 91
        2
 92
        7
 72
     0
 73
     1
 93
        4
 10
707.4226824946913
 20
-1682.336901383036
 10
757.810279393916
 20
-1682.336901383036
 10
757.810279393916
 20
-1732.724498282261
 10
707.4226824946913
 20
-1732.724498282261
 97
        0
 92
       22
 72
     0
 73
     1
 93
        4
 10
755.794775517947
 20
-1684.352405259005
 10
709.4381863706598
 20
-1684.352405259006
 10
709.4381863706603
 20
-1730.708994406292
 10
755.794775517947
 20
-1730.708994406292
 97
        0
 75
     0
 76
     1
 47
0.4626583194212935
 98
        2
 10
756.4180510511273
 20
-1715.815282862521
 10
756.4180510511273
 20
-1715.815282862521
  0
LINE
  5
AA54
330
18
100
AcDbEntity
  8
FERRO
 62
   250
100
AcDbLine
 10
871.3271726990047
 20
-1557.714324335413
 30
0.0
 11
805.3271726990047
 21
-1557.714324335413
 31
0.0
  0
LINE
  5
AA55
330
18
100
AcDbEntity
  8
FERRO
 62
   250
100
AcDbLine
 10
805.3271726990047
 20
-1557.714324335413
 30
0.0
 11
805.3271726990047
 21
-1623.714324335414
 31
0.0
  0
LINE
  5
AA56
330
18
100
AcDbEntity
  8
FERRO
 62
   250
100
AcDbLine
 10
805.3271726990047
 20
-1623.714324335414
 30
0.0
 11
871.3271726990047
 21
-1623.714324335414
 31
0.0
  0
LINE
  5
AA57
330
18
100
AcDbEntity
  8
FERRO
 62
   250
100
AcDbLine
 10
871.3271726990047
 20
-1623.714324335414
 30
0.0
 11
871.3271726990047
 21
-1557.714324335413
 31
0.0
  0
LINE
  5
AA58
330
18
100
AcDbEntity
  8
FERRO
 62
   250
100
AcDbLine
 10
873.3271726990047
 20
-1555.714324335413
 30
0.0
 11
803.3271726990047
 21
-1555.714324335413
 31
0.0
  0
LINE
  5
AA59
330
18
100
AcDbEntity
  8
FERRO
 62
   250
100
AcDbLine
 10
803.3271726990047
 20
-1555.714324335413
 30
0.0
 11
803.3271726990047
 21
-1625.714324335413
 31
0.0
  0
LINE
  5
AA5A
330
18
100
AcDbEntity
  8
FERRO
 62
   250
100
AcDbLine
 10
803.3271726990047
 20
-1625.714324335413
 30
0.0
 11
873.3271726990047
 21
-1625.714324335413
 31
0.0
  0
LINE
  5
AA5B
330
18
100
AcDbEntity
  8
FERRO
 62
   250
100
AcDbLine
 10
873.3271726990047
 20
-1625.714324335413
 30
0.0
 11
873.3271726990047
 21
-1555.714324335413
 31
0.0
  0
HATCH
  5
AA64
330
18
100
AcDbEntity
  8
AREA166
 62
   250
100
AcDbHatch
 10
0.0
 20
0.0
 30
0.0
210
0.0
220
0.0
230
1.0
  2
SOLID
 70
     1
 71
     0
 91
        2
 92
        7
 72
     0
 73
     1
 93
        4
 10
803.3271726990047
 20
-1555.714324335413
 10
873.3271726990048
 20
-1555.714324335413
 10
873.3271726990047
 20
-1625.714324335413
 10
803.3271726990047
 20
-1625.714324335413
 97
        0
 92
       22
 72
     0
 73
     1
 93
        4
 10
871.3271726990047
 20
-1557.714324335413
 10
805.3271726990047
 20
-1557.714324335413
 10
805.3271726990047
 20
-1623.714324335414
 10
871.3271726990047
 20
-1623.714324335414
 97
        0
 75
     0
 76
     1
 47
0.3651970449718584
 98
        2
 10
872.5596140923235
 20
-1584.158150449994
 10
872.5596140923235
 20
-1584.158150449994
  0
SPLINE
  5
AA8A
102
{ACAD_REACTORS
330
AA92
102
}
330
18
100
AcDbEntity
  8
FERRO
 62
   250
100
AcDbSpline
210
0.0
220
0.0
230
1.0
 70
  1064
 71
     3
 72
    14
 73
    10
 74
     8
 42
0.000000001
 43
0.0000000001
 44
0.0000000001
 40
0.0
 40
0.0
 40
0.0
 40
0.0
 40
0.841885679580551
 40
12.45413535531984
 40
27.15457310255352
 40
35.5907967385696
 40
44.29605862002392
 40
53.6922019811449
 40
54.53408766072588
 40
54.53408766072588
 40
54.53408766072588
 40
54.53408766072588
 10
758.6164809443032
 20
-1817.277163995423
 30
0.0
 10
758.3477612343482
 20
-1817.19815930337
 30
0.0
 10
754.3725521037123
 20
-1816.029431586072
 30
0.0
 10
745.6849005941812
 20
-1810.859358867197
 30
0.0
 10
734.6903460214546
 20
-1819.430202299195
 30
0.0
 10
724.1835504455642
 20
-1816.505329313052
 30
0.0
 10
715.7475111435937
 20
-1811.281699570397
 30
0.0
 10
710.1608259884237
 20
-1816.265461338098
 30
0.0
 10
706.8857910799378
 20
-1817.200291744986
 30
0.0
 10
706.6164809443032
 20
-1817.277163995423
 30
0.0
 11
758.6164809443032
 21
-1817.277163995423
 31
0.0
 11
757.8102793939158
 21
-1817.034655113862
 31
0.0
 11
746.691021786014
 21
-1813.687051078014
 31
0.0
 11
732.5816256077553
 21
-1817.813527716168
 31
0.0
 11
724.322469582021
 21
-1816.094164177107
 31
0.0
 11
716.0633135562868
 21
-1813.343177778144
 31
0.0
 11
707.4226824946911
 21
-1817.034655113862
 31
0.0
 11
706.6164809443032
 21
-1817.277163995423
 31
0.0
  0
LINE
  5
AA8B
330
18
100
AcDbEntity
  8
FERRO
 62
   250
100
AcDbLine
 10
755.794775517947
 20
-1869.680264770618
 30
0.0
 11
755.794775517947
 21
-1916.036853917904
 31
0.0
  0
LINE
  5
AA8C
330
18
100
AcDbEntity
  8
FERRO
 62
   250
100
AcDbLine
 10
709.4381863706601
 20
-1869.680264770618
 30
0.0
 11
709.4381863706601
 21
-1916.036853917904
 31
0.0
  0
LINE
  5
AA8D
330
18
100
AcDbEntity
  8
FERRO
 62
   250
100
AcDbLine
 10
758.6164809443034
 20
-1928.129877173718
 30
0.0
 11
758.6164809443034
 21
-1817.277163995424
 31
0.0
  0
LINE
  5
AA8E
102
{ACAD_REACTORS
330
AA92
102
}
330
18
100
AcDbEntity
  8
FERRO
 62
   250
100
AcDbLine
 10
757.810279393916
 20
-1817.03465511389
 30
0.0
 11
757.8102793939158
 21
-1918.052357793873
 31
0.0
  0
LINE
  5
AA8F
102
{ACAD_REACTORS
330
AA92
102
}
330
18
100
AcDbEntity
  8
FERRO
 62
   250
100
AcDbLine
 10
707.4226824946911
 20
-1817.034655113863
 30
0.0
 11
707.4226824946911
 21
-1918.052357793873
 31
0.0
  0
LINE
  5
AA90
330
18
100
AcDbEntity
  8
FERRO
 62
   250
100
AcDbLine
 10
706.6164809443034
 20
-1817.277163995424
 30
0.0
 11
706.6164809443034
 21
-1928.129877173718
 31
0.0
  0
HATCH
  5
AA91
330
18
100
AcDbEntity
  8
AREA166
 62
   250
100
AcDbHatch
 10
0.0
 20
0.0
 30
0.0
210
0.0
220
0.0
230
1.0
  2
SOLID
 70
     1
 71
     0
 91
        2
 92
        7
 72
     0
 73
     1
 93
        4
 10
707.4226824946911
 20
-1918.052357793873
 10
757.8102793939158
 20
-1918.052357793873
 10
757.8102793939158
 20
-1867.670310365616
 10
707.4226824946911
 20
-1867.670310365616
 97
        0
 92
       22
 72
     0
 73
     1
 93
        4
 10
755.794775517947
 20
-1916.036853917905
 10
709.4381863706598
 20
-1916.036853917905
 10
709.4381863706603
 20
-1869.817746924066
 10
755.794775517947
 20
-1869.817746924066
 97
        0
 75
     0
 76
     1
 47
0.2932133146534028
 98
        2
 10
756.8931016023489
 20
-1904.752961477656
 10
756.8931016023489
 20
-1904.752961477656
  0
HATCH
  5
AA92
330
18
100
AcDbEntity
  8
AREA166
 62
   166
100
AcDbHatch
 10
0.0
 20
0.0
 30
0.0
210
0.0
220
0.0
230
1.0
  2
HONEY
 70
     0
 71
     1
 91
        1
 92
        5
 93
        4
 72
     4
 94
        3
 73
     0
 74
     0
 95
       12
 96
        8
 40
0.841885679580551
 40
0.8418856795807441
 40
0.8418856795807441
 40
0.8418856795807441
 40
12.45413535531984
 40
27.15457310255352
 40
35.5907967385696
 40
44.29605862002392
 40
53.6922019811449
 40
53.6922019811449
 40
53.6922019811449
 40
53.6922019811449
 10
757.8102793939158
 20
-1817.034655113863
 10
754.1032048608946
 20
-1815.869141451221
 10
745.6849005941815
 20
-1810.859358867197
 10
734.6903460214543
 20
-1819.430202299195
 10
724.1835504455643
 20
-1816.505329313051
 10
715.7475111435937
 20
-1811.281699570398
 10
710.4091117930278
 20
-1816.043970907531
 10
707.422682494691
 20
-1817.034655113862
 72
     1
 10
707.4226824946911
 20
-1817.034655113862
 11
707.4226824946912
 21
-1867.670310365617
 72
     1
 10
707.4226824946912
 20
-1867.670310365617
 11
757.8102793939159
 21
-1867.670310365616
 72
     1
 10
757.8102793939159
 20
-1867.670310365616
 11
757.8102793939159
 21
-1817.034655113863
 97
        4
330
AA93
330
AA8E
330
AA8A
330
AA8F
 75
     0
 76
     1
 52
0.0
 41
1.455999999999999
 77
     0
 78
     3
 53
180.0
 43
1769.994387967147
 44
-3693.375863125643
 45
-6.934199999999999
 46
-4.003461279999999
 79
     2
 49
4.622799999999999
 49
-9.245599999999999
 53
300.0
 43
1769.994387967147
 44
-3693.375863125643
 45
6.934199171547365
 46
-4.003462714922056
 79
     2
 49
4.622799999999991
 49
-9.245599999999983
 53
240.0
 43
1769.994387967147
 44
-3693.375863125643
 45
-0.0000008284526355
 46
-8.006923994922052
 79
     2
 49
-9.245599999999999
 49
4.622799999999999
 47
0.4674590473530481
 98
        1
 10
731.2572735894589
 20
-1835.788184417872
  0
LINE
  5
AA93
102
{ACAD_REACTORS
330
AA92
102
}
330
18
100
AcDbEntity
  8
FERRO
 62
   250
100
AcDbLine
 10
757.8102793939158
 20
-1867.670310365616
 30
0.0
 11
707.4226824946911
 21
-1867.670310365616
 31
0.0
  0
LINE
  5
AA94
330
18
100
AcDbEntity
  8
FERRO
 62
   250
100
AcDbLine
 10
755.794775517947
 20
-1869.817746924066
 30
0.0
 11
709.4381863706601
 21
-1869.817746924066
 31
0.0
  0
LINE
  5
AA95
330
18
100
AcDbEntity
  8
FERRO
 62
   250
100
AcDbLine
 10
738.1785720183402
 20
-1928.129877173719
 30
0.0
 11
744.6387923365776
 21
-1919.362435313254
 31
0.0
  0
LINE
  5
AA96
330
18
100
AcDbEntity
  8
FERRO
 62
   250
100
AcDbLine
 10
739.7740384132853
 20
-1927.323675623331
 30
0.0
 11
745.6402154838688
 21
-1919.362435313254
 31
0.0
  0
LINE
  5
AA97
330
18
100
AcDbEntity
  8
FERRO
 62
   250
100
AcDbLine
 10
757.8102793939156
 20
-1927.323675623331
 30
0.0
 11
739.7740384132853
 21
-1927.323675623331
 31
0.0
  0
LINE
  5
AA98
330
18
100
AcDbEntity
  8
FERRO
 62
   250
100
AcDbLine
 10
758.6164809443034
 20
-1928.129877173718
 30
0.0
 11
738.1785720183402
 21
-1928.129877173719
 31
0.0
  0
LINE
  5
AA9A
330
18
100
AcDbEntity
  8
FERRO
 62
   250
100
AcDbLine
 10
744.6387923365776
 20
-1919.362435313254
 30
0.0
 11
745.6402154838688
 21
-1919.362435313254
 31
0.0
  0
LINE
  5
AA9D
330
18
100
AcDbEntity
  8
FERRO
 62
   250
100
AcDbLine
 10
757.8102793939158
 20
-1918.052357793873
 30
0.0
 11
707.4226824946911
 21
-1918.052357793873
 31
0.0
  0
LINE
  5
AA9E
330
18
100
AcDbEntity
  8
FERRO
 62
   250
100
AcDbLine
 10
755.794775517947
 20
-1916.036853917905
 30
0.0
 11
709.4381863706601
 21
-1916.036853917904
 31
0.0
  0
LINE
  5
AA9F
330
18
100
AcDbEntity
  8
FERRO
 62
   250
100
AcDbLine
 10
757.8102793939158
 20
-1918.052357793873
 30
0.0
 11
757.8102793939156
 21
-1927.323675623331
 31
0.0
  0
LINE
  5
AAA5
330
18
100
AcDbEntity
  8
FERRO
 62
   250
100
AcDbLine
 10
726.48864953772
 20
-1928.129877173719
 30
0.0
 11
720.0284292194826
 21
-1919.362435313254
 31
0.0
  0
LINE
  5
AAA6
330
18
100
AcDbEntity
  8
FERRO
 62
   250
100
AcDbLine
 10
724.8931831427746
 20
-1927.323675623331
 30
0.0
 11
719.0270060721914
 21
-1919.362435313254
 31
0.0
  0
LINE
  5
AAA9
330
18
100
AcDbEntity
  8
FERRO
 62
   250
100
AcDbLine
 10
720.0284292194826
 20
-1919.362435313254
 30
0.0
 11
719.0270060721914
 21
-1919.362435313254
 31
0.0
  0
LINE
  5
AAAB
330
18
100
AcDbEntity
  8
FERRO
 62
   250
100
AcDbLine
 10
724.8931831427746
 20
-1927.323675623331
 30
0.0
 11
707.4226824946911
 21
-1927.323675623331
 31
0.0
  0
LINE
  5
AAAC
330
18
100
AcDbEntity
  8
FERRO
 62
   250
100
AcDbLine
 10
726.48864953772
 20
-1928.129877173719
 30
0.0
 11
706.6164809443034
 21
-1928.129877173719
 31
0.0
  0
LINE
  5
AAAD
330
18
100
AcDbEntity
  8
FERRO
100
AcDbLine
 10
734.7891893460621
 20
-1922.629877173719
 30
0.0
 11
730.2891893460621
 21
-1922.629877173719
 31
0.0
  0
ARC
  5
AAAE
330
18
100
AcDbEntity
  8
FERRO
100
AcDbCircle
 10
732.5391893460619
 20
-1926.098627173719
 30
0.0
 40
3.03125000000001
100
AcDbArc
 50
222.0750220508379
 51
317.9249779491621
  0
ARC
  5
AAAF
330
18
100
AcDbEntity
  8
FERRO
100
AcDbCircle
 10
732.5391893460623
 20
-1907.776095712936
 30
0.0
 40
11.85298550298124
100
AcDbArc
 50
257.8238847372172
 51
282.1761152627823
  0
LINE
  5
AAB2
330
18
100
AcDbEntity
  8
FERRO
100
AcDbLine
 10
727.2891893460621
 20
-1921.629877173719
 30
0.0
 11
727.2891893460621
 21
-1928.629877173719
 31
0.0
  0
LINE
  5
AAB3
330
18
100
AcDbEntity
  8
FERRO
100
AcDbLine
 10
730.2891893460621
 20
-1928.129877173719
 30
0.0
 11
730.2891893460621
 21
-1922.629877173719
 31
0.0
  0
LINE
  5
AAB4
330
18
100
AcDbEntity
  8
FERRO
100
AcDbLine
 10
730.0391893460621
 20
-1919.362435313254
 30
0.0
 11
724.7891893460621
 21
-1922.129877173719
 31
0.0
  0
LINE
  5
AAB5
330
18
100
AcDbEntity
  8
FERRO
100
AcDbLine
 10
724.7891893460621
 20
-1922.129877173719
 30
0.0
 11
727.2891893460621
 21
-1921.629877173719
 31
0.0
  0
LINE
  5
AAB7
330
18
100
AcDbEntity
  8
FERRO
100
AcDbLine
 10
737.7891893460621
 20
-1928.629877173719
 30
0.0
 11
737.7891893460621
 21
-1921.629877173719
 31
0.0
  0
LINE
  5
AAB8
330
18
100
AcDbEntity
  8
FERRO
100
AcDbLine
 10
734.7891893460621
 20
-1928.129877173719
 30
0.0
 11
734.7891893460621
 21
-1922.629877173719
 31
0.0
  0
LINE
  5
AAB9
330
18
100
AcDbEntity
  8
FERRO
100
AcDbLine
 10
740.2891893460621
 20
-1922.129877173719
 30
0.0
 11
737.7891893460621
 21
-1921.629877173719
 31
0.0
  0
LINE
  5
AABA
330
18
100
AcDbEntity
  8
FERRO
100
AcDbLine
 10
735.0391893460625
 20
-1919.362435313254
 30
0.0
 11
740.2891893460621
 21
-1922.129877173719
 31
0.0
  0
LINE
  5
AAC0
330
18
100
AcDbEntity
  8
FERRO
 62
   250
100
AcDbLine
 10
707.4226824946911
 20
-1918.052357793873
 30
0.0
 11
707.4226824946911
 21
-1927.323675623331
 31
0.0
  0
INSERT
  5
ADA5
330
18
100
AcDbEntity
  8
ALLUMINIO
 62
     1
100
AcDbBlockReference
  2
WMF3
 10
2012.888827054073
 20
-1932.710558532678
 30
0.0
 41
0.5
 42
0.5
 43
0.5
  0
INSERT
  5
ADA6
330
18
100
AcDbEntity
  8
ALLUMINIO
 62
     1
100
AcDbBlockReference
  2
WMF4
 10
2011.642903194077
 20
-1933.540167553745
 30
0.0
 41
0.5
 42
0.5
 43
0.5
  0
INSERT
  5
ADF6
330
18
100
AcDbEntity
  8
ALLUMINIO
 62
     1
100
AcDbBlockReference
  2
WMF3
 10
2155.297098030617
 20
-1908.766118661302
 30
0.0
 41
0.5
 42
0.5
 43
0.5
  0
INSERT
  5
ADF7
330
18
100
AcDbEntity
  8
ALLUMINIO
 62
     1
100
AcDbBlockReference
  2
WMF4
 10
2154.051174170621
 20
-1909.59572768237
 30
0.0
 41
0.5
 42
0.5
 43
0.5
  0
LINE
  5
AE03
330
18
100
AcDbEntity
  8
FERRO
100
AcDbLine
 10
715.7891893460621
 20
-1928.629877173719
 30
0.0
 11
727.2891893460621
 21
-1928.629877173719
 31
0.0
  0
LINE
  5
AE04
330
18
100
AcDbEntity
  8
FERRO
100
AcDbLine
 10
715.7891893460621
 20
-1928.629877173719
 30
0.0
 11
714.2891893460621
 21
-1928.129877173718
 31
0.0
  0
LINE
  5
AE05
330
18
100
AcDbEntity
  8
FERRO
100
AcDbLine
 10
747.7891893460621
 20
-1928.629877173719
 30
0.0
 11
749.2891893460621
 21
-1928.129877173719
 31
0.0
  0
LINE
  5
AE06
330
18
100
AcDbEntity
  8
FERRO
100
AcDbLine
 10
747.7891893460621
 20
-1928.629877173719
 30
0.0
 11
737.7891893460621
 21
-1928.629877173719
 31
0.0
  0
LINE
  5
AE07
330
18
100
AcDbEntity
  8
FERRO
100
AcDbLine
 10
749.2891893460621
 20
-1928.129877173719
 30
0.0
 11
749.2891893460621
 21
-1971.55473812606
 31
0.0
  0
LINE
  5
AE08
330
18
100
AcDbEntity
  8
FERRO
100
AcDbLine
 10
746.2891893460621
 20
-1933.129877173719
 30
0.0
 11
746.2891893460621
 21
-1948.129877173719
 31
0.0
  0
LINE
  5
AE09
330
18
100
AcDbEntity
  8
FERRO
100
AcDbLine
 10
746.2891893460621
 20
-1933.129877173719
 30
0.0
 11
730.69512467357
 21
-1933.129877173719
 31
0.0
  0
LINE
  5
AE0A
330
18
100
AcDbEntity
  8
FERRO
100
AcDbLine
 10
746.2891893460621
 20
-1948.129877173719
 30
0.0
 11
734.2891893460621
 21
-1948.129877173719
 31
0.0
  0
LINE
  5
AE0B
330
18
100
AcDbEntity
  8
FERRO
100
AcDbLine
 10
734.2891893460621
 20
-1948.129877173719
 30
0.0
 11
731.8146267568684
 21
-1935.757064227752
 31
0.0
  0
LINE
  5
AE0C
330
18
100
AcDbEntity
  8
FERRO
100
AcDbLine
 10
714.2891893460621
 20
-1928.129877173718
 30
0.0
 11
714.2891893460621
 21
-1933.129877173719
 31
0.0
  0
LINE
  5
AE0D
330
18
100
AcDbEntity
  8
FERRO
100
AcDbLine
 10
731.2891893460621
 20
-1948.426935714498
 30
0.0
 11
728.8728847297959
 21
-1936.345412633166
 31
0.0
  0
LINE
  5
AE0E
330
18
100
AcDbEntity
  8
FERRO
100
AcDbLine
 10
714.2891893460621
 20
-1933.129877173719
 30
0.0
 11
724.9505620270322
 21
-1933.129877173719
 31
0.0
  0
ARC
  5
AE0F
330
18
100
AcDbEntity
  8
FERRO
100
AcDbCircle
 10
724.9505620270324
 20
-1937.129877173719
 30
0.0
 40
4.0
100
AcDbArc
 50
11.30993247402534
 51
90.00000000000003
  0
ARC
  5
AE10
330
18
100
AcDbEntity
  8
FERRO
100
AcDbCircle
 10
724.9505620270324
 20
-1937.129877173719
 30
0.0
 40
7.0
100
AcDbArc
 50
11.30993247402534
 51
34.8499045790382
  0
LWPOLYLINE
  5
AE11
330
18
100
AcDbEntity
  8
FERRO
100
AcDbPolyline
 90
        5
 70
     0
 43
0.0
 10
746.2891893460621
 20
-1950.129877173719
 10
746.2891893460621
 20
-1968.129877173719
 42
-0.3421714355369481
 10
734.2891893460621
 20
-1953.129877173719
 10
734.2891893460621
 20
-1950.129877173719
 10
746.2891893460621
 20
-1950.129877173719
  0
ARC
  5
AE12
330
18
100
AcDbEntity
  8
FERRO
100
AcDbCircle
 10
749.9654650773745
 20
-1952.888856588669
 30
0.0
 40
18.67812845101637
100
AcDbArc
 50
180.8070109016221
 51
267.9250482055323
  0
LINE
  5
AE13
330
18
100
AcDbEntity
  8
FERRO
100
AcDbLine
 10
731.2891893460621
 20
-1953.151929279508
 30
0.0
 11
731.2891893460621
 21
-1948.426935714498
 31
0.0
  0
INSERT
  5
AE14
330
18
100
AcDbEntity
  8
ALLUMINIO
 62
     1
100
AcDbBlockReference
  2
WMF3
 10
1624.252636001087
 20
-1787.871406016009
 30
0.0
  0
INSERT
  5
AE15
330
18
100
AcDbEntity
  8
ALLUMINIO
 62
     1
100
AcDbBlockReference
  2
WMF4
 10
1621.760788281095
 20
-1789.530624058145
 30
0.0
  0
HATCH
  5
AF22
330
18
100
AcDbEntity
  8
AREA166
 62
   250
100
AcDbHatch
 10
0.0
 20
0.0
 30
0.0
210
0.0
220
0.0
230
1.0
  2
ANSI35
 70
     0
 71
     0
 91
        1
 92
        7
 72
     0
 73
     1
 93
        4
 10
703.3164809443031
 20
-1466.398217343978
 10
1103.677798587735
 20
-1466.398217343978
 10
1103.677798587735
 20
-1554.714324335414
 10
703.3164809443031
 20
-1554.714324335413
 97
        0
 75
     0
 76
     1
 52
0.0
 41
3.0
 77
     0
 78
     2
 53
135.0
 43
1747.984403974885
 44
0.0
 45
13.47038418160372
 46
13.47038418160373
 79
     0
 53
135.0
 43
1734.514013974885
 44
0.0
 45
13.47038418160372
 46
13.47038418160373
 79
     4
 49
23.8125
 49
-4.762499999999999
 49
0.0
 49
-4.762499999999999
 47
0.6209641437526419
 98
        1
 10
920.2273957247282
 20
-1525.824943185532
  0
LEADER
  5
AF74
330
18
100
AcDbEntity
  8
QUOTE
100
AcDbLeader
  3
STANDARD_WS
 73
     0
 74
     0
 75
     1
 40
22.5
 41
120.0
 76
     3
 10
748.4555137054116
 20
-1748.25075920919
 30
0.0
 10
794.6492142313996
 20
-1778.289074970212
 30
0.0
 10
797.6492142313995
 20
-1778.289074970212
 30
0.0
340
AF75
210
0.0
220
0.0
230
-1.0
213
0.0
223
-2.374285706693171
233
0.0
1001
ACAD
1000
DSTYLE
1002
{
1070
    40
1040
3.0
1070
    41
1040
1.0
1070
    42
1040
1.5
1070
    43
1040
10.0
1070
    44
1040
0.0
1070
    79
1070
     2
1070
   141
1040
2.0
1070
   147
1040
1.0
1070
   176
1070
   256
1070
   177
1070
   256
1070
   178
1070
   256
1070
   179
1070
     1
1070
   271
1070
     1
1070
   272
1070
     1
1070
   341
1005
A96C
1070
   342
1005
A96C
1002
}
  0
MTEXT
  5
AF75
102
{ACAD_REACTORS
330
AF74
102
}
330
18
100
AcDbEntity
  8
QUOTE
100
AcDbMText
 10
800.6492142313996
 20
-1778.914789263519
 30
0.0
 40
7.5
 41
0.0
 71
     7
 72
     1
  1
MATERIALE INTERNO\PCOIBENTE Sp.50mm.
 73
     1
 44
1.0
1001
ACAD
1000
MTEXTBEGIN
1070
    73
1070
     1
1070
    44
1040
1.0
1070
    74
1070
     0
1000
MTEXTEND
  0
LINE
  5
AFDC
330
18
100
AcDbEntity
  8
0
100
AcDbLine
 10
703.3164809443031
 20
-1554.714324335413
 30
0.0
 11
703.3164809443031
 21
-1466.834270099694
 31
0.0
  0
DIMENSION
  5
B01A
330
18
100
AcDbEntity
  8
QUOTE
100
AcDbDimension
  2
*D5
 10
703.3164809443031
 20
-1584.904150607816
 30
0.0
 11
788.3218268216539
 21
-1578.154150607816
 31
0.0
 70
    32
  1
160
 71
     5
 42
170.0106917547016
  3
STANDARD_WS
100
AcDbAlignedDimension
 13
873.3271726990047
 23
-1555.714324335413
 33
0.0
 14
703.3164809443031
 24
-1554.714324335413
 34
0.0
 50
180.0
100
AcDbRotatedDimension
1001
ACAD
1000
DSTYLE
1002
{
1070
    40
1040
3.0
1070
    41
1040
1.0
1070
    42
1040
1.5
1070
    43
1040
10.0
1070
    44
1040
0.0
1070
    79
1070
     2
1070
   141
1040
2.0
1070
   147
1040
1.0
1070
   176
1070
   256
1070
   177
1070
   256
1070
   178
1070
   256
1070
   179
1070
     1
1070
   271
1070
     1
1070
   272
1070
     1
1070
   341
1005
A96C
1070
   342
1005
A96C
1002
}
  0
LWPOLYLINE
  5
B111
330
18
100
AcDbEntity
  8
FERRO
100
AcDbPolyline
 90
        4
 70
     1
 43
0.0
 10
758.6164809443034
 20
-1908.129877173718
 10
774.6164809443034
 20
-1908.129877173718
 10
774.6164809443034
 20
-1858.129877173718
 10
758.6164809443034
 20
-1858.129877173718
  0
LINE
  5
B112
330
18
100
AcDbEntity
  8
FERRO
100
AcDbLine
 10
766.6164809443034
 20
-1858.129877173718
 30
0.0
 11
766.6164809443034
 21
-1828.129877173719
 31
0.0
  0
LINE
  5
B113
330
18
100
AcDbEntity
  8
FERRO
100
AcDbLine
 10
766.6164809443034
 20
-1828.129877173719
 30
0.0
 11
771.6164809443035
 21
-1828.129877173719
 31
0.0
  0
LINE
  5
B114
330
18
100
AcDbEntity
  8
FERRO
100
AcDbLine
 10
771.6164809443035
 20
-1828.129877173719
 30
0.0
 11
771.6164809443035
 21
-1858.129877173718
 31
0.0
  0
LINE
  5
B115
330
18
100
AcDbEntity
  8
FERRO
100
AcDbLine
 10
766.6164809443034
 20
-1848.129877173718
 30
0.0
 11
771.6164809443035
 21
-1848.129877173718
 31
0.0
  0
LEADER
  5
B11F
330
18
100
AcDbEntity
  8
QUOTE
100
AcDbLeader
  3
STANDARD_WS
 73
     0
 74
     0
 75
     1
 40
35.25306660490266
 41
77.36480325378514
 76
     3
 10
774.6164809443034
 20
-1883.129877173718
 30
0.0
 10
794.6492142313996
 20
-1854.750720364089
 30
0.0
 10
797.6492142313995
 20
-1854.750720364089
 30
0.0
340
B120
210
0.0
220
0.0
230
-1.0
213
0.0
223
-2.374285706693171
233
0.0
1001
ACAD
1000
DSTYLE
1002
{
1070
    40
1040
3.0
1070
    41
1040
1.0
1070
    42
1040
1.5
1070
    43
1040
10.0
1070
    44
1040
0.0
1070
    79
1070
     2
1070
   141
1040
2.0
1070
   147
1040
1.0
1070
   176
1070
   256
1070
   177
1070
   256
1070
   178
1070
   256
1070
   179
1070
     1
1070
   271
1070
     1
1070
   272
1070
     1
1070
   341
1005
A96C
1070
   342
1005
A96C
1002
}
  0
MTEXT
  5
B120
102
{ACAD_REACTORS
330
B11F
102
}
330
18
100
AcDbEntity
  8
QUOTE
100
AcDbMText
 10
800.6492142313996
 20
-1855.376434657395
 30
0.0
 40
7.5
 41
0.0
 71
     7
 72
     1
  1
 {\H0.2813x; }cariglione\P   {\fTimes New Roman|b0|i0|c0|p18;\H0.2813x; \H3.556x;(solo su \Pportone manuale)}
 73
     1
 44
1.0
1001
ACAD
1000
MTEXTBEGIN
1070
    73
1070
     1
1070
    44
1040
1.0
1070
    74
1070
     0
1000
MTEXTEND
  0
VIEWPORT
  5
32
102
{ACAD_XDICTIONARY
360
B1A2
102
}
330
15
100
AcDbEntity
 67
     1
  8
0
100
AcDbViewport
 10
7.258166969147005
 20
4.25
 30
0.0
 40
14.51633393829401
 41
8.5
 68
     2
 69
     1
 12
7.258166969147005
 22
4.25
 13
0.0
 23
0.0
 14
10.0
 24
10.0
 15
10.0
 25
10.0
 16
0.0
 26
0.0
 36
1.0
 17
0.0
 27
0.0
 37
0.0
 42
50.0
 43
0.0
 44
0.0
 45
8.5
 50
0.0
 51
0.0
 72
   100
 90
    32800
  1

281
     0
 71
     1
 74
     0
110
0.0
120
0.0
130
0.0
111
1.0
121
0.0
131
0.0
112
0.0
122
1.0
132
0.0
 79
     0
146
0.0
  0
VIEWPORT
  5
35
102
{ACAD_XDICTIONARY
360
B1A4
102
}
330
15
100
AcDbEntity
 67
     1
  8
QUOTE
100
AcDbViewport
 10
5.5
 20
4.25
 30
0.0
 40
11.0
 41
8.5
 68
     1
 69
     2
 12
148.5
 22
105.0
 13
0.0
 23
0.0
 14
7.0
 24
7.0
 15
7.0
 25
7.0
 16
0.0
 26
0.0
 36
1.0
 17
0.0
 27
0.0
 37
0.0
 42
50.0
 43
0.0
 44
0.0
 45
234.0126404494382
 50
0.0
 51
0.0
 72
   100
 90
    32800
  1

281
     0
 71
     1
 74
     0
110
0.0
120
0.0
130
0.0
111
1.0
121
0.0
131
0.0
112
0.0
122
1.0
132
0.0
 79
     0
146
0.0
  0
ENDSEC
  0
SECTION
  2
OBJECTS
  0
DICTIONARY
  5
C
330
0
100
AcDbDictionary
281
     1
  3
ACAD_CIP_PREVIOUS_PRODUCT_INFO
350
B180
  3
ACAD_COLOR
350
B15E
  3
ACAD_DETAILVIEWSTYLE
350
B177
  3
ACAD_GROUP
350
D
  3
ACAD_LAYOUT
350
A2C4
  3
ACAD_MATERIAL
350
B12C
  3
ACAD_MLEADERSTYLE
350
B173
  3
ACAD_MLINESTYLE
350
1B
  3
ACAD_PLOTSETTINGS
350
A2C5
  3
ACAD_PLOTSTYLENAME
350
A2C2
  3
ACAD_SCALELIST
350
B161
  3
ACAD_SECTIONVIEWSTYLE
350
B175
  3
ACAD_TABLESTYLE
350
B15F
  3
ACAD_VISUALSTYLE
350
B145
  3
ACDB_RECOMPOSE_DATA
350
B1A0
  3
ACDBVARIABLEDICTIONARY
350
36
  3
CONTENTDICTIONARY
350
23
  3
DWGPROPS
350
B1A1
  0
DICTIONARY
  5
B181
330
E
100
AcDbDictionary
280
     1
281
     1
  3
ADSK_XREC_LAYER_RECONCILED
360
B182
  0
DICTIONARY
  5
B183
330
33
100
AcDbDictionary
280
     1
281
     1
  3
ADSK_XREC_LAYER_RECONCILED
360
B184
  0
DICTIONARY
  5
B185
330
43
100
AcDbDictionary
280
     1
281
     1
  3
ADSK_XREC_LAYER_RECONCILED
360
B186
  0
DICTIONARY
  5
B187
330
59
100
AcDbDictionary
280
     1
281
     1
  3
ADSK_XREC_LAYER_RECONCILED
360
B188
  0
DICTIONARY
  5
B189
330
5AF
100
AcDbDictionary
280
     1
281
     1
  3
ADSK_XREC_LAYER_RECONCILED
360
B18A
  0
DICTIONARY
  5
B18B
330
185F
100
AcDbDictionary
280
     1
281
     1
  3
ADSK_XREC_LAYER_RECONCILED
360
B18C
  0
DICTIONARY
  5
B18D
330
2DBD
100
AcDbDictionary
280
     1
281
     1
  3
ADSK_XREC_LAYER_RECONCILED
360
B18E
  0
DICTIONARY
  5
B18F
330
A388
100
AcDbDictionary
280
     1
281
     1
  3
ADSK_XREC_LAYER_RECONCILED
360
B190
  0
DICTIONARY
  5
B191
330
A46E
100
AcDbDictionary
280
     1
281
     1
  3
ADSK_XREC_LAYER_RECONCILED
360
B192
  0
DICTIONARY
  5
B193
330
A6D9
100
AcDbDictionary
280
     1
281
     1
  3
ADSK_XREC_LAYER_RECONCILED
360
B194
  0
DICTIONARY
  5
B1A2
330
32
100
AcDbDictionary
280
     1
281
     1
  3
ACAD_XREC_ROUNDTRIP
360
B1A3
  0
DICTIONARY
  5
B1A4
330
35
100
AcDbDictionary
280
     1
281
     1
  3
ACAD_XREC_ROUNDTRIP
360
B1A5
  0
XRECORD
  5
B180
102
{ACAD_REACTORS
330
C
102
}
330
C
100
AcDbXrecord
280
     1
300
ACDLT
300
2013
300
ACDLT_F_S
  0
DICTIONARY
  5
B15E
102
{ACAD_REACTORS
330
C
102
}
330
C
100
AcDbDictionary
281
     1
  0
DICTIONARY
  5
B177
102
{ACAD_REACTORS
330
C
102
}
330
C
100
AcDbDictionary
281
     1
  3
Metric50
350
B178
  0
DICTIONARY
  5
D
102
{ACAD_REACTORS
330
C
102
}
330
C
100
AcDbDictionary
281
     1
  0
DICTIONARY
  5
A2C4
102
{ACAD_REACTORS
330
C
102
}
330
C
100
AcDbDictionary
281
     1
  3
Layout1
350
A2C7
  3
Model
350
A2C6
  0
DICTIONARY
  5
B12C
102
{ACAD_REACTORS
330
C
102
}
330
C
100
AcDbDictionary
281
     1
  3
ByBlock
350
B135
  3
ByLayer
350
B12D
  3
Global
350
B13D
  0
DICTIONARY
  5
B173
102
{ACAD_REACTORS
330
C
102
}
330
C
100
AcDbDictionary
281
     1
  3
Standard
350
B174
  0
DICTIONARY
  5
1B
102
{ACAD_REACTORS
330
C
102
}
330
C
100
AcDbDictionary
281
     1
  3
STANDARD
350
1C
  0
DICTIONARY
  5
A2C5
102
{ACAD_REACTORS
330
C
102
}
330
C
100
AcDbDictionary
281
     1
  0
ACDBDICTIONARYWDFLT
  5
A2C2
102
{ACAD_REACTORS
330
C
102
}
330
C
100
AcDbDictionary
281
     1
  3
Normal
350
A2C3
100
AcDbDictionaryWithDefault
340
A2C3
  0
DICTIONARY
  5
B161
102
{ACAD_REACTORS
330
C
102
}
330
C
100
AcDbDictionary
281
     1
  3
A0
350
B162
  3
A1
350
B163
  3
A2
350
B164
  3
A3
350
B165
  3
A4
350
B166
  3
A5
350
B167
  3
A6
350
B168
  3
A7
350
B169
  3
A8
350
B16A
  3
A9
350
B16B
  3
B0
350
B16C
  3
B1
350
B16D
  3
B2
350
B16E
  3
B3
350
B16F
  3
B4
350
B170
  3
B5
350
B171
  3
B6
350
B172
  0
DICTIONARY
  5
B175
102
{ACAD_REACTORS
330
C
102
}
330
C
100
AcDbDictionary
281
     1
  3
Metric50
350
B176
  0
DICTIONARY
  5
B15F
102
{ACAD_REACTORS
330
C
102
}
330
C
100
AcDbDictionary
281
     1
  3
Standard
350
B160
  0
DICTIONARY
  5
B145
102
{ACAD_REACTORS
330
C
102
}
330
C
100
AcDbDictionary
281
     1
  3
2dWireframe
350
B14B
  3
Basic
350
B14A
  3
Brighten
350
B151
  3
ColorChange
350
B155
  3
Conceptual
350
B14E
  3
Dim
350
B150
  3
EdgeColorOff
350
B15D
  3
Facepattern
350
B154
  3
Flat
350
B146
  3
FlatWithEdges
350
B147
  3
Gouraud
350
B148
  3
GouraudWithEdges
350
B149
  3
Hidden
350
B14D
  3
JitterOff
350
B15B
  3
Linepattern
350
B153
  3
OverhangOff
350
B15C
  3
Realistic
350
B14F
  3
Shaded
350
B15A
  3
Shaded with edges
350
B159
  3
Shades of Gray
350
B156
  3
Sketchy
350
B157
  3
Thicken
350
B152
  3
Wireframe
350
B14C
  3
X-Ray
350
B158
  0
XRECORD
  5
B1A0
102
{ACAD_REACTORS
330
C
102
}
330
C
100
AcDbXrecord
280
     1
 90
        1
330
B160
  0
DICTIONARY
  5
36
102
{ACAD_REACTORS
330
C
102
}
330
C
100
AcDbDictionary
281
     1
  3
CANNOSCALE
350
B199
  3
CMLEADERSTYLE
350
B196
  3
CTABLESTYLE
350
B195
  3
CVIEWDETAILSTYLE
350
B197
  3
CVIEWSECTIONSTYLE
350
B198
  3
DIMADEC
350
37
  3
DIMASSOC
350
B19B
  3
INDEXCTL
350
B19A
  3
SORTENTS
350
10E
  3
XCLIPFRAME
350
B19C
  0
DICTIONARY
  5
23
102
{ACAD_REACTORS
330
C
102
}
330
C
100
AcDbDictionary
281
     1
  0
XRECORD
  5
B1A1
102
{ACAD_REACTORS
330
C
102
}
330
C
100
AcDbXrecord
280
     1
  1
DWGPROPS COOKIE
  2

  3

  4

  6

  7

  8
demom
  9

300
=
301
=
302
=
303
=
304
=
305
=
306
=
307
=
308
=
309
=
 40
0.2600360648148148
 41
2451513.764827315
 42
2457730.48384132
  1

 90
        0
  0
XRECORD
  5
B182
102
{ACAD_REACTORS
330
B181
102
}
330
B181
100
AcDbXrecord
280
     1
290
     1
  0
XRECORD
  5
B184
102
{ACAD_REACTORS
330
B183
102
}
330
B183
100
AcDbXrecord
280
     1
290
     1
  0
XRECORD
  5
B186
102
{ACAD_REACTORS
330
B185
102
}
330
B185
100
AcDbXrecord
280
     1
290
     1
  0
XRECORD
  5
B188
102
{ACAD_REACTORS
330
B187
102
}
330
B187
100
AcDbXrecord
280
     1
290
     1
  0
XRECORD
  5
B18A
102
{ACAD_REACTORS
330
B189
102
}
330
B189
100
AcDbXrecord
280
     1
290
     1
  0
XRECORD
  5
B18C
102
{ACAD_REACTORS
330
B18B
102
}
330
B18B
100
AcDbXrecord
280
     1
290
     1
  0
XRECORD
  5
B18E
102
{ACAD_REACTORS
330
B18D
102
}
330
B18D
100
AcDbXrecord
280
     1
290
     1
  0
XRECORD
  5
B190
102
{ACAD_REACTORS
330
B18F
102
}
330
B18F
100
AcDbXrecord
280
     1
290
     1
  0
XRECORD
  5
B192
102
{ACAD_REACTORS
330
B191
102
}
330
B191
100
AcDbXrecord
280
     1
290
     1
  0
XRECORD
  5
B194
102
{ACAD_REACTORS
330
B193
102
}
330
B193
100
AcDbXrecord
280
     1
290
     1
  0
XRECORD
  5
B1A3
102
{ACAD_REACTORS
330
B1A2
102
}
330
B1A2
100
AcDbXrecord
280
     1
102
SHADEPLOT
 70
     0
  0
XRECORD
  5
B1A5
102
{ACAD_REACTORS
330
B1A4
102
}
330
B1A4
100
AcDbXrecord
280
     1
102
SHADEPLOT
 70
     0
  0
ACDBDETAILVIEWSTYLE
  5
B178
102
{ACAD_REACTORS
330
B177
102
}
330
B177
100
AcDbModelDocViewStyle
 70
     0
  3
Metric50
290
     0
100
AcDbDetailViewStyle
 70
     0
 71
     0
 90
        3
 71
     1
340
F
 40
5.0
340
0
 40
5.0
300

 40
0.0
280
     1
 71
     2
340
14
 90
       25
 71
     3
340
F
 40
5.0
 90
        0
 40
15.0
 90
        1
300
%<\AcVar ViewDetailId>% (%<\AcVar ViewScale \f "%sn">%)
 71
     4
340
14
 90
       25
340
14
 90
       25
280
     0
  0
LAYOUT
  5
A2C7
102
{ACAD_XDICTIONARY
360
B1A8
102
}
102
{ACAD_REACTORS
330
A2C4
102
}
330
A2C4
100
AcDbPlotSettings
  1

  2
EPSON Stylus COLOR 1520
  4

  6

 40
0.0
 41
0.0
 42
0.0
 43
0.0
 44
0.0
 45
0.0
 46
0.0
 47
0.0
 48
0.0
 49
0.0
140
0.0
141
0.0
142
1.0
143
1.0
 70
   688
 72
     0
 73
     0
 74
     5
  7
aclt.ctb
 75
    16
147
1.0
148
0.0
149
0.0
100
AcDbLayout
  1
Layout1
 70
     1
 71
     1
 10
0.0
 20
0.0
 11
11.0
 21
8.5
 12
0.0
 22
0.0
 32
0.0
 14
0.0
 24
0.0
 34
0.0
 15
11.0
 25
8.5
 35
0.0
146
0.0
 13
0.0
 23
0.0
 33
0.0
 16
1.0
 26
0.0
 36
0.0
 17
0.0
 27
1.0
 37
0.0
 76
     0
330
15
331
35
  0
LAYOUT
  5
A2C6
102
{ACAD_XDICTIONARY
360
B1A6
102
}
102
{ACAD_REACTORS
330
A2C4
102
}
330
A2C4
100
AcDbPlotSettings
  1

  2
HP LaserJet 4100 PCL 6
  4
A4
  6

 40
4.233333110809326
 41
4.910679340362548
 42
4.910659790039062
 43
4.23333740234375
 44
209.9733276367187
 45
296.9259948730469
 46
0.27
 47
9.22
 48
568.455106347372
 49
-2172.627871729547
140
1169.31381472806
141
-1364.580649053193
142
1.0
143
3.0
 70
 11940
 72
     1
 73
     0
 74
     4
  7
aclt.ctb
 75
     0
147
0.3333333333333333
148
-568.455106347372
149
2172.627871729547
100
AcDbLayout
  1
Model
 70
     1
 71
     0
 10
0.0
 20
0.0
 11
12.0
 21
9.0
 12
0.0
 22
0.0
 32
0.0
 14
0.0
 24
0.0
 34
0.0
 15
0.0
 25
0.0
 35
0.0
146
0.0
 13
0.0
 23
0.0
 33
0.0
 16
1.0
 26
0.0
 36
0.0
 17
0.0
 27
1.0
 37
0.0
 76
     0
330
18
331
B12A
  0
MATERIAL
  5
B135
102
{ACAD_XDICTIONARY
360
B136
102
}
102
{ACAD_REACTORS
330
B12C
102
}
330
B12C
100
AcDbMaterial
  1
ByBlock
 72
     0
 43
0.0208333333333333
 43
0.0
 43
0.0
 43
0.0
 43
0.0
 43
0.0208333333333333
 43
0.0
 43
0.0
 43
0.0
 43
0.0
 43
1.0
 43
0.0
 43
0.0
 43
0.0
 43
0.0
 43
1.0
 77
     0
 47
0.0208333333333333
 47
0.0
 47
0.0
 47
0.0
 47
0.0
 47
0.0208333333333333
 47
0.0
 47
0.0
 47
0.0
 47
0.0
 47
1.0
 47
0.0
 47
0.0
 47
0.0
 47
0.0
 47
1.0
171
     0
 49
0.0208333333333333
 49
0.0
 49
0.0
 49
0.0
 49
0.0
 49
0.0208333333333333
 49
0.0
 49
0.0
 49
0.0
 49
0.0
 49
1.0
 49
0.0
 49
0.0
 49
0.0
 49
0.0
 49
1.0
175
     0
142
0.0208333333333333
142
0.0
142
0.0
142
0.0
142
0.0
142
0.0208333333333333
142
0.0
142
0.0
142
0.0
142
0.0
142
1.0
142
0.0
142
0.0
142
0.0
142
0.0
142
1.0
179
     0
144
0.0208333333333333
144
0.0
144
0.0
144
0.0
144
0.0
144
0.0208333333333333
144
0.0
144
0.0
144
0.0
144
0.0
144
1.0
144
0.0
144
0.0
144
0.0
144
0.0
144
1.0
147
0.0208333333333333
147
0.0
147
0.0
147
0.0
147
0.0
147
0.0208333333333333
147
0.0
147
0.0
147
0.0
147
0.0
147
1.0
147
0.0
147
0.0
147
0.0
147
0.0
147
1.0
  0
MATERIAL
  5
B12D
102
{ACAD_XDICTIONARY
360
B12E
102
}
102
{ACAD_REACTORS
330
B12C
102
}
330
B12C
100
AcDbMaterial
  1
ByLayer
 72
     0
 43
0.0208333333333333
 43
0.0
 43
0.0
 43
0.0
 43
0.0
 43
0.0208333333333333
 43
0.0
 43
0.0
 43
0.0
 43
0.0
 43
1.0
 43
0.0
 43
0.0
 43
0.0
 43
0.0
 43
1.0
 77
     0
 47
0.0208333333333333
 47
0.0
 47
0.0
 47
0.0
 47
0.0
 47
0.0208333333333333
 47
0.0
 47
0.0
 47
0.0
 47
0.0
 47
1.0
 47
0.0
 47
0.0
 47
0.0
 47
0.0
 47
1.0
171
     0
 49
0.0208333333333333
 49
0.0
 49
0.0
 49
0.0
 49
0.0
 49
0.0208333333333333
 49
0.0
 49
0.0
 49
0.0
 49
0.0
 49
1.0
 49
0.0
 49
0.0
 49
0.0
 49
0.0
 49
1.0
175
     0
142
0.0208333333333333
142
0.0
142
0.0
142
0.0
142
0.0
142
0.0208333333333333
142
0.0
142
0.0
142
0.0
142
0.0
142
1.0
142
0.0
142
0.0
142
0.0
142
0.0
142
1.0
179
     0
144
0.0208333333333333
144
0.0
144
0.0
144
0.0
144
0.0
144
0.0208333333333333
144
0.0
144
0.0
144
0.0
144
0.0
144
1.0
144
0.0
144
0.0
144
0.0
144
0.0
144
1.0
147
0.0208333333333333
147
0.0
147
0.0
147
0.0
147
0.0
147
0.0208333333333333
147
0.0
147
0.0
147
0.0
147
0.0
147
1.0
147
0.0
147
0.0
147
0.0
147
0.0
147
1.0
  0
MATERIAL
  5
B13D
102
{ACAD_XDICTIONARY
360
B13E
102
}
102
{ACAD_REACTORS
330
B12C
102
}
330
B12C
100
AcDbMaterial
  1
Global
 72
     0
 43
0.0208333333333333
 43
0.0
 43
0.0
 43
0.0
 43
0.0
 43
0.0208333333333333
 43
0.0
 43
0.0
 43
0.0
 43
0.0
 43
1.0
 43
0.0
 43
0.0
 43
0.0
 43
0.0
 43
1.0
 77
     0
 47
0.0208333333333333
 47
0.0
 47
0.0
 47
0.0
 47
0.0
 47
0.0208333333333333
 47
0.0
 47
0.0
 47
0.0
 47
0.0
 47
1.0
 47
0.0
 47
0.0
 47
0.0
 47
0.0
 47
1.0
171
     0
 49
0.0208333333333333
 49
0.0
 49
0.0
 49
0.0
 49
0.0
 49
0.0208333333333333
 49
0.0
 49
0.0
 49
0.0
 49
0.0
 49
1.0
 49
0.0
 49
0.0
 49
0.0
 49
0.0
 49
1.0
175
     0
142
0.0208333333333333
142
0.0
142
0.0
142
0.0
142
0.0
142
0.0208333333333333
142
0.0
142
0.0
142
0.0
142
0.0
142
1.0
142
0.0
142
0.0
142
0.0
142
0.0
142
1.0
179
     0
144
0.0208333333333333
144
0.0
144
0.0
144
0.0
144
0.0
144
0.0208333333333333
144
0.0
144
0.0
144
0.0
144
0.0
144
1.0
144
0.0
144
0.0
144
0.0
144
0.0
144
1.0
147
0.0208333333333333
147
0.0
147
0.0
147
0.0
147
0.0
147
0.0208333333333333
147
0.0
147
0.0
147
0.0
147
0.0
147
1.0
147
0.0
147
0.0
147
0.0
147
0.0
147
1.0
  0
MLEADERSTYLE
  5
B174
102
{ACAD_XDICTIONARY
360
B1DF
102
}
102
{ACAD_REACTORS
330
B173
102
}
330
B173
100
AcDbMLeaderStyle
170
     2
171
     1
172
     0
 90
        2
 40
0.0
 41
0.0
173
     1
 91
-1056964608
340
12
 92
       -2
290
     1
 42
2.0
291
     1
 43
0.36
  3
Standard
 44
4.0
300

342
F
174
     1
178
     6
175
     1
176
     0
 93
-1056964608
 45
4.0
292
     0
297
     0
 46
4.0
 94
-1056964608
 47
1.0
 49
1.0
140
1.0
293
     1
141
0.0
294
     1
177
     0
142
1.0
295
     0
296
     0
143
0.125
1001
ACAD_MLEADERVER
1070
     2
  0
MLINESTYLE
  5
1C
102
{ACAD_REACTORS
330
1B
102
}
330
1B
100
AcDbMlineStyle
  2
STANDARD
 70
     0
  3

 62
   256
 51
90.0
 52
90.0
 71
     2
 49
0.5
 62
   256
  6
BYLAYER
 49
-0.5
 62
   256
  6
BYLAYER
  0
ACDBPLACEHOLDER
  5
A2C3
102
{ACAD_REACTORS
330
A2C2
102
}
330
A2C2
  0
SCALE
  5
B162
102
{ACAD_REACTORS
330
B161
102
}
330
B161
100
AcDbScale
 70
     0
300
1:1
140
1.0
141
1.0
290
     1
  0
SCALE
  5
B163
102
{ACAD_REACTORS
330
B161
102
}
330
B161
100
AcDbScale
 70
     0
300
1:2
140
1.0
141
2.0
290
     0
  0
SCALE
  5
B164
102
{ACAD_REACTORS
330
B161
102
}
330
B161
100
AcDbScale
 70
     0
300
1:4
140
1.0
141
4.0
290
     0
  0
SCALE
  5
B165
102
{ACAD_REACTORS
330
B161
102
}
330
B161
100
AcDbScale
 70
     0
300
1:5
140
1.0
141
5.0
290
     0
  0
SCALE
  5
B166
102
{ACAD_REACTORS
330
B161
102
}
330
B161
100
AcDbScale
 70
     0
300
1:8
140
1.0
141
8.0
290
     0
  0
SCALE
  5
B167
102
{ACAD_REACTORS
330
B161
102
}
330
B161
100
AcDbScale
 70
     0
300
1:10
140
1.0
141
10.0
290
     0
  0
SCALE
  5
B168
102
{ACAD_REACTORS
330
B161
102
}
330
B161
100
AcDbScale
 70
     0
300
1:16
140
1.0
141
16.0
290
     0
  0
SCALE
  5
B169
102
{ACAD_REACTORS
330
B161
102
}
330
B161
100
AcDbScale
 70
     0
300
1:20
140
1.0
141
20.0
290
     0
  0
SCALE
  5
B16A
102
{ACAD_REACTORS
330
B161
102
}
330
B161
100
AcDbScale
 70
     0
300
1:30
140
1.0
141
30.0
290
     0
  0
SCALE
  5
B16B
102
{ACAD_REACTORS
330
B161
102
}
330
B161
100
AcDbScale
 70
     0
300
1:40
140
1.0
141
40.0
290
     0
  0
SCALE
  5
B16C
102
{ACAD_REACTORS
330
B161
102
}
330
B161
100
AcDbScale
 70
     0
300
1:50
140
1.0
141
50.0
290
     0
  0
SCALE
  5
B16D
102
{ACAD_REACTORS
330
B161
102
}
330
B161
100
AcDbScale
 70
     0
300
1:100
140
1.0
141
100.0
290
     0
  0
SCALE
  5
B16E
102
{ACAD_REACTORS
330
B161
102
}
330
B161
100
AcDbScale
 70
     0
300
2:1
140
2.0
141
1.0
290
     0
  0
SCALE
  5
B16F
102
{ACAD_REACTORS
330
B161
102
}
330
B161
100
AcDbScale
 70
     0
300
4:1
140
4.0
141
1.0
290
     0
  0
SCALE
  5
B170
102
{ACAD_REACTORS
330
B161
102
}
330
B161
100
AcDbScale
 70
     0
300
8:1
140
8.0
141
1.0
290
     0
  0
SCALE
  5
B171
102
{ACAD_REACTORS
330
B161
102
}
330
B161
100
AcDbScale
 70
     0
300
10:1
140
10.0
141
1.0
290
     0
  0
SCALE
  5
B172
102
{ACAD_REACTORS
330
B161
102
}
330
B161
100
AcDbScale
 70
     0
300
100:1
140
100.0
141
1.0
290
     0
  0
ACDBSECTIONVIEWSTYLE
  5
B176
102
{ACAD_REACTORS
330
B175
102
}
330
B175
100
AcDbModelDocViewStyle
 70
     0
  3
Metric50
290
     0
100
AcDbSectionViewStyle
 70
     0
 71
     0
 90
      102
 71
     1
340
F
 40
5.0
340
0
340
0
 40
5.0
300
I, O, Q, S, X, Z
 40
10.0
 90
        0
 40
2.5
 90
        0
 71
     2
340
14
 90
       25
340
14
 90
       50
 40
5.0
 40
2.5
 40
5.0
 71
     3
340
F
 40
5.0
 90
        0
 40
15.0
 90
        1
300
%<\AcVar ViewSectionStartId>%-%<\AcVar ViewSectionEndId>% (%<\AcVar ViewScale \f "%sn">%)
 71
     4
300
ANSI31
 40
1.0
 90
        0
290
     0
290
     0
 90
        6
 40
0.0
 40
1.570796326794896
 40
0.2617993877991494
 40
1.308996938995747
 40
-0.2617993877991494
 40
1.832595714594046
  0
TABLESTYLE
  5
B160
102
{ACAD_XDICTIONARY
360
B19E
102
}
102
{ACAD_REACTORS
330
B15F
102
}
330
B15F
100
AcDbTableStyle
  3
Standard
 70
     0
 71
     0
 40
1.5
 41
1.5
280
     0
281
     0
  7
STANDARD
140
4.5
170
     2
 62
     0
 63
     7
283
     0
274
    -2
284
     1
 64
     0
275
    -2
285
     1
 65
     0
276
    -2
286
     1
 66
     0
277
    -2
287
     1
 67
     0
278
    -2
288
     1
 68
     0
279
    -2
289
     1
 69
     0
  7
STANDARD
140
6.0
170
     5
 62
     0
 63
     7
283
     0
274
    -2
284
     1
 64
     0
275
    -2
285
     1
 65
     0
276
    -2
286
     1
 66
     0
277
    -2
287
     1
 67
     0
278
    -2
288
     1
 68
     0
279
    -2
289
     1
 69
     0
  7
STANDARD
140
4.5
170
     5
 62
     0
 63
     7
283
     0
274
    -2
284
     1
 64
     0
275
    -2
285
     1
 65
     0
276
    -2
286
     1
 66
     0
277
    -2
287
     1
 67
     0
278
    -2
288
     1
 68
     0
279
    -2
289
     1
 69
     0
  0
VISUALSTYLE
  5
B14B
102
{ACAD_XDICTIONARY
360
B1B7
102
}
102
{ACAD_REACTORS
330
B145
102
}
330
B145
100
AcDbVisualStyle
  2
2dWireframe
 70
     4
 71
     0
 72
     2
 73
     0
 90
        0
 40
-0.6
 41
-30.0
 62
     5
 63
     7
 74
     1
 91
        4
 64
     7
 65
   257
 75
     1
175
     1
 42
1.0
 92
        0
 66
   257
 43
1.0
 76
     1
 77
     6
 78
     2
 67
     7
 79
     5
170
     0
171
     0
290
     0
174
     0
 93
        1
 44
0.0
173
     0
291
     0
 45
0.0
1001
ACAD
1000
AcDbSavedByObjectVersion
1070
     0
  0
VISUALSTYLE
  5
B14A
102
{ACAD_XDICTIONARY
360
B1B5
102
}
102
{ACAD_REACTORS
330
B145
102
}
330
B145
100
AcDbVisualStyle
  2
Basic
 70
     7
 71
     1
 72
     0
 73
     1
 90
        0
 40
-0.6
 41
-30.0
 62
     5
 63
     7
 74
     0
 91
        4
 64
     7
 65
   257
 75
     1
175
     1
 42
1.0
 92
        8
 66
     7
 43
1.0
 76
     1
 77
     6
 78
     2
 67
     7
 79
     5
170
     0
171
     0
290
     0
174
     0
 93
        1
 44
0.0
173
     0
291
     1
 45
0.0
1001
ACAD
1000
AcDbSavedByObjectVersion
1070
     0
  0
VISUALSTYLE
  5
B151
102
{ACAD_XDICTIONARY
360
B1C3
102
}
102
{ACAD_REACTORS
330
B145
102
}
330
B145
100
AcDbVisualStyle
  2
Brighten
 70
    12
 71
     2
 72
     2
 73
     0
 90
        0
 40
-0.6
 41
-30.0
 62
     5
 63
     7
 74
     1
 91
        4
 64
     7
 65
   257
 75
     1
175
     1
 42
1.0
 92
        8
 66
     7
 43
1.0
 76
     1
 77
     6
 78
     2
 67
     7
 79
     5
170
     0
171
     0
290
     0
174
     0
 93
        1
 44
50.0
173
     0
291
     1
 45
0.0
1001
ACAD
1000
AcDbSavedByObjectVersion
1070
     0
  0
VISUALSTYLE
  5
B155
102
{ACAD_XDICTIONARY
360
B1CB
102
}
102
{ACAD_REACTORS
330
B145
102
}
330
B145
100
AcDbVisualStyle
  2
ColorChange
 70
    16
 71
     2
 72
     2
 73
     3
 90
        0
 40
-0.6
 41
-30.0
 62
     5
 63
     8
 74
     1
 91
        4
 64
     7
 65
   257
 75
     1
175
     1
 42
1.0
 92
        8
 66
     8
 43
1.0
 76
     1
 77
     6
 78
     2
 67
     7
 79
     5
170
     0
171
     0
290
     0
174
     0
 93
        1
 44
0.0
173
     0
291
     1
 45
0.0
1001
ACAD
1000
AcDbSavedByObjectVersion
1070
     0
  0
VISUALSTYLE
  5
B14E
102
{ACAD_XDICTIONARY
360
B1BD
102
}
102
{ACAD_REACTORS
330
B145
102
}
330
B145
100
AcDbVisualStyle
  2
Conceptual
 70
     9
 71
     3
 72
     2
 73
     0
 90
        0
 40
-0.6
 41
-30.0
 62
     5
 63
     7
 74
     2
 91
        2
 64
     7
 65
   257
 75
     1
175
     1
 42
179.0
 92
        8
 66
     7
 43
1.0
 76
     1
 77
     6
 78
     2
 67
     7
 79
     3
170
     0
171
     0
290
     0
174
     0
 93
        1
 44
0.0
173
     0
291
     0
 45
0.0
1001
ACAD
1000
AcDbSavedByObjectVersion
1070
     0
  0
VISUALSTYLE
  5
B150
102
{ACAD_XDICTIONARY
360
B1C1
102
}
102
{ACAD_REACTORS
330
B145
102
}
330
B145
100
AcDbVisualStyle
  2
Dim
 70
    11
 71
     2
 72
     2
 73
     0
 90
        0
 40
-0.6
 41
-30.0
 62
     5
 63
     7
 74
     1
 91
        4
 64
     7
 65
   257
 75
     1
175
     1
 42
1.0
 92
        8
 66
     7
 43
1.0
 76
     1
 77
     6
 78
     2
 67
     7
 79
     5
170
     0
171
     0
290
     0
174
     0
 93
        1
 44
-50.0
173
     0
291
     1
 45
0.0
1001
ACAD
1000
AcDbSavedByObjectVersion
1070
     0
  0
VISUALSTYLE
  5
B15D
102
{ACAD_XDICTIONARY
360
B1DB
102
}
102
{ACAD_REACTORS
330
B145
102
}
330
B145
100
AcDbVisualStyle
  2
EdgeColorOff
 70
    22
 71
     2
 72
     2
 73
     0
 90
        0
 40
-0.6
 41
-30.0
 62
     5
 63
     7
 74
     1
 91
        4
 64
     7
 65
   257
 75
     1
175
     1
 42
1.0
 92
        8
 66
     7
 43
1.0
 76
     1
 77
     6
 78
     2
 67
     7
 79
     5
170
     0
171
     0
290
     0
174
     0
 93
        1
 44
0.0
173
     0
291
     1
 45
0.0
1001
ACAD
1000
AcDbSavedByObjectVersion
1070
     0
  0
VISUALSTYLE
  5
B154
102
{ACAD_XDICTIONARY
360
B1C9
102
}
102
{ACAD_REACTORS
330
B145
102
}
330
B145
100
AcDbVisualStyle
  2
Facepattern
 70
    15
 71
     2
 72
     2
 73
     0
 90
        0
 40
-0.6
 41
-30.0
 62
     5
 63
     7
 74
     1
 91
        4
 64
     7
 65
   257
 75
     1
175
     1
 42
1.0
 92
        8
 66
     7
 43
1.0
 76
     1
 77
     6
 78
     2
 67
     7
 79
     5
170
     0
171
     0
290
     0
174
     0
 93
        1
 44
0.0
173
     0
291
     1
 45
0.0
1001
ACAD
1000
AcDbSavedByObjectVersion
1070
     0
  0
VISUALSTYLE
  5
B146
102
{ACAD_XDICTIONARY
360
B1AD
102
}
102
{ACAD_REACTORS
330
B145
102
}
330
B145
100
AcDbVisualStyle
  2
Flat
 70
     0
 71
     2
 72
     1
 73
     1
 90
        2
 40
-0.6
 41
30.0
 62
     5
 63
     7
 74
     0
 91
        0
 64
     7
 65
   257
 75
     1
175
     1
 42
1.0
 92
        8
 66
     7
 43
1.0
 76
     1
 77
     6
 78
     2
 67
     7
 79
     5
170
     0
171
     0
290
     0
174
     0
 93
       13
 44
0.0
173
     0
291
     1
 45
0.0
1001
ACAD
1000
AcDbSavedByObjectVersion
1070
     0
  0
VISUALSTYLE
  5
B147
102
{ACAD_XDICTIONARY
360
B1AF
102
}
102
{ACAD_REACTORS
330
B145
102
}
330
B145
100
AcDbVisualStyle
  2
FlatWithEdges
 70
     1
 71
     2
 72
     1
 73
     1
 90
        2
 40
-0.6
 41
30.0
 62
     5
 63
     7
 74
     1
 91
        0
 64
     7
 65
   257
 75
     1
175
     1
 42
1.0
 92
        0
 66
   257
 43
1.0
 76
     1
 77
     6
 78
     2
 67
     7
 79
     5
170
     0
171
     0
290
     0
174
     0
 93
       13
 44
0.0
173
     0
291
     1
 45
0.0
1001
ACAD
1000
AcDbSavedByObjectVersion
1070
     0
  0
VISUALSTYLE
  5
B148
102
{ACAD_XDICTIONARY
360
B1B1
102
}
102
{ACAD_REACTORS
330
B145
102
}
330
B145
100
AcDbVisualStyle
  2
Gouraud
 70
     2
 71
     2
 72
     2
 73
     1
 90
        2
 40
-0.6
 41
30.0
 62
     5
 63
     7
 74
     0
 91
        0
 64
     7
 65
   257
 75
     1
175
     1
 42
1.0
 92
        0
 66
     7
 43
1.0
 76
     1
 77
     6
 78
     2
 67
     7
 79
     5
170
     0
171
     0
290
     0
174
     0
 93
       13
 44
0.0
173
     0
291
     1
 45
0.0
1001
ACAD
1000
AcDbSavedByObjectVersion
1070
     0
  0
VISUALSTYLE
  5
B149
102
{ACAD_XDICTIONARY
360
B1B3
102
}
102
{ACAD_REACTORS
330
B145
102
}
330
B145
100
AcDbVisualStyle
  2
GouraudWithEdges
 70
     3
 71
     2
 72
     2
 73
     1
 90
        2
 40
-0.6
 41
30.0
 62
     5
 63
     7
 74
     1
 91
        0
 64
     7
 65
   257
 75
     1
175
     1
 42
1.0
 92
        0
 66
   257
 43
1.0
 76
     1
 77
     6
 78
     2
 67
     7
 79
     5
170
     0
171
     0
290
     0
174
     0
 93
       13
 44
0.0
173
     0
291
     1
 45
0.0
1001
ACAD
1000
AcDbSavedByObjectVersion
1070
     0
  0
VISUALSTYLE
  5
B14D
102
{ACAD_XDICTIONARY
360
B1BB
102
}
102
{ACAD_REACTORS
330
B145
102
}
330
B145
100
AcDbVisualStyle
  2
Hidden
 70
     6
 71
     1
 72
     2
 73
     2
 90
        0
 40
-0.6
 41
-30.0
 62
     5
 63
     7
 74
     2
 91
        2
 64
     7
 65
   257
 75
     2
175
     1
 42
40.0
 92
        0
 66
   257
 43
1.0
 76
     1
 77
     6
 78
     2
 67
     7
 79
     3
170
     0
171
     0
290
     0
174
     0
 93
        1
 44
0.0
173
     0
291
     0
 45
0.0
1001
ACAD
1000
AcDbSavedByObjectVersion
1070
     0
  0
VISUALSTYLE
  5
B15B
102
{ACAD_XDICTIONARY
360
B1D7
102
}
102
{ACAD_REACTORS
330
B145
102
}
330
B145
100
AcDbVisualStyle
  2
JitterOff
 70
    20
 71
     2
 72
     2
 73
     0
 90
        0
 40
-0.6
 41
-30.0
 62
     5
 63
     7
 74
     1
 91
        4
 64
     7
 65
   257
 75
     1
175
     1
 42
1.0
 92
       10
 66
     7
 43
1.0
 76
     1
 77
     6
 78
     2
 67
     7
 79
     5
170
     0
171
     0
290
     0
174
     0
 93
        1
 44
0.0
173
     0
291
     1
 45
0.0
1001
ACAD
1000
AcDbSavedByObjectVersion
1070
     0
  0
VISUALSTYLE
  5
B153
102
{ACAD_XDICTIONARY
360
B1C7
102
}
102
{ACAD_REACTORS
330
B145
102
}
330
B145
100
AcDbVisualStyle
  2
Linepattern
 70
    14
 71
     2
 72
     2
 73
     0
 90
        0
 40
-0.6
 41
-30.0
 62
     5
 63
     7
 74
     1
 91
        4
 64
     7
 65
   257
 75
     7
175
     7
 42
1.0
 92
        8
 66
     7
 43
1.0
 76
     1
 77
     6
 78
     2
 67
     7
 79
     5
170
     0
171
     0
290
     0
174
     0
 93
        1
 44
0.0
173
     0
291
     1
 45
0.0
1001
ACAD
1000
AcDbSavedByObjectVersion
1070
     0
  0
VISUALSTYLE
  5
B15C
102
{ACAD_XDICTIONARY
360
B1D9
102
}
102
{ACAD_REACTORS
330
B145
102
}
330
B145
100
AcDbVisualStyle
  2
OverhangOff
 70
    21
 71
     2
 72
     2
 73
     0
 90
        0
 40
-0.6
 41
-30.0
 62
     5
 63
     7
 74
     1
 91
        4
 64
     7
 65
   257
 75
     1
175
     1
 42
1.0
 92
        9
 66
     7
 43
1.0
 76
     1
 77
     6
 78
     2
 67
     7
 79
     5
170
     0
171
     0
290
     0
174
     0
 93
        1
 44
0.0
173
     0
291
     1
 45
0.0
1001
ACAD
1000
AcDbSavedByObjectVersion
1070
     0
  0
VISUALSTYLE
  5
B14F
102
{ACAD_XDICTIONARY
360
B1BF
102
}
102
{ACAD_REACTORS
330
B145
102
}
330
B145
100
AcDbVisualStyle
  2
Realistic
 70
     8
 71
     2
 72
     3
 73
     0
 90
        2
 40
-0.6
 41
30.0
 62
     5
 63
     7
 74
     0
 91
        0
 64
     7
 65
   257
 75
     1
175
     1
 42
1.0
 92
        8
 66
   257
 43
1.0
 76
     1
 77
     6
 78
     2
 67
     7
 79
     3
170
     0
171
     0
290
     0
174
     0
 93
       13
 44
0.0
173
     0
291
     0
 45
0.0
1001
ACAD
1000
AcDbSavedByObjectVersion
1070
     0
  0
VISUALSTYLE
  5
B15A
102
{ACAD_XDICTIONARY
360
B1D5
102
}
102
{ACAD_REACTORS
330
B145
102
}
330
B145
100
AcDbVisualStyle
  2
Shaded
 70
    27
 71
     2
 72
     2
 73
     1
 90
        2
 40
-0.6
 41
30.0
 62
     5
 63
     7
 74
     0
 91
        4
 64
     7
 65
   257
 75
     1
175
     1
 42
1.0
 92
        8
 66
   257
 43
1.0
 76
     1
 77
     6
 78
     2
 67
     8
 79
     3
170
     0
171
     0
290
     0
174
     0
 93
        5
 44
0.0
173
     0
291
     0
 45
0.0
1001
ACAD
1000
AcDbSavedByObjectVersion
1070
     0
  0
VISUALSTYLE
  5
B159
102
{ACAD_XDICTIONARY
360
B1D3
102
}
102
{ACAD_REACTORS
330
B145
102
}
330
B145
100
AcDbVisualStyle
  2
Shaded with edges
 70
    26
 71
     2
 72
     2
 73
     1
 90
        2
 40
-0.6
 41
30.0
 62
     5
 63
     7
 74
     1
 91
       10
 64
     7
 65
   257
 75
     2
175
     1
 42
1.0
 92
        8
 66
   257
 43
1.0
 76
     1
 77
     6
 78
     2
 67
     7
 79
     3
170
     0
171
     0
290
     0
174
     0
 93
        5
 44
0.0
173
     0
291
     0
 45
0.0
1001
ACAD
1000
AcDbSavedByObjectVersion
1070
     0
  0
VISUALSTYLE
  5
B156
102
{ACAD_XDICTIONARY
360
B1CD
102
}
102
{ACAD_REACTORS
330
B145
102
}
330
B145
100
AcDbVisualStyle
  2
Shades of Gray
 70
    23
 71
     2
 72
     2
 73
     3
 90
        0
 40
-0.6
 41
-30.0
 62
     5
 63
     7
 74
     2
 91
        2
 64
     7
 65
     7
 75
     1
175
     1
 42
40.0
 92
        8
 66
     7
 43
1.0
 76
     1
 77
     6
 78
     2
 67
     7
 79
     3
170
     0
171
     0
290
     0
174
     0
 93
        1
 44
0.0
173
     0
291
     0
 45
0.0
1001
ACAD
1000
AcDbSavedByObjectVersion
1070
     0
  0
VISUALSTYLE
  5
B157
102
{ACAD_XDICTIONARY
360
B1CF
102
}
102
{ACAD_REACTORS
330
B145
102
}
330
B145
100
AcDbVisualStyle
  2
Sketchy
 70
    24
 71
     1
 72
     2
 73
     2
 90
        0
 40
-0.6
 41
-30.0
 62
     5
 63
     7
 74
     2
 91
        2
 64
     7
 65
     7
 75
     1
175
     1
 42
40.0
 92
       11
 66
     7
 43
1.0
 76
     1
 77
     6
 78
     2
 67
     7
 79
     6
170
     0
171
     0
290
     0
174
     0
 93
        1
 44
0.0
173
     0
291
     0
 45
0.0
1001
ACAD
1000
AcDbSavedByObjectVersion
1070
     0
  0
VISUALSTYLE
  5
B152
102
{ACAD_XDICTIONARY
360
B1C5
102
}
102
{ACAD_REACTORS
330
B145
102
}
330
B145
100
AcDbVisualStyle
  2
Thicken
 70
    13
 71
     2
 72
     2
 73
     0
 90
        0
 40
-0.6
 41
-30.0
 62
     5
 63
     7
 74
     1
 91
        4
 64
     7
 65
   257
 75
     1
175
     1
 42
1.0
 92
       12
 66
     7
 43
1.0
 76
     1
 77
     6
 78
     2
 67
     7
 79
     5
170
     0
171
     0
290
     0
174
     0
 93
        1
 44
0.0
173
     0
291
     1
 45
0.0
1001
ACAD
1000
AcDbSavedByObjectVersion
1070
     0
  0
VISUALSTYLE
  5
B14C
102
{ACAD_XDICTIONARY
360
B1B9
102
}
102
{ACAD_REACTORS
330
B145
102
}
330
B145
100
AcDbVisualStyle
  2
Wireframe
 70
     5
 71
     0
 72
     2
 73
     0
 90
        0
 40
-0.6
 41
-30.0
 62
     5
 63
     7
 74
     1
 91
        4
 64
     7
 65
   257
 75
     1
175
     1
 42
1.0
 92
        0
 66
   257
 43
1.0
 76
     1
 77
     6
 78
     2
 67
     7
 79
     3
170
     0
171
     0
290
     0
174
     0
 93
        1
 44
0.0
173
     0
291
     0
 45
0.0
1001
ACAD
1000
AcDbSavedByObjectVersion
1070
     0
  0
VISUALSTYLE
  5
B158
102
{ACAD_XDICTIONARY
360
B1D1
102
}
102
{ACAD_REACTORS
330
B145
102
}
330
B145
100
AcDbVisualStyle
  2
X-Ray
 70
    25
 71
     2
 72
     2
 73
     1
 90
        1
 40
0.5
 41
-30.0
 62
     5
 63
     7
 74
     1
 91
        0
 64
     7
 65
   257
 75
     1
175
     1
 42
1.0
 92
        8
 66
     7
 43
1.0
 76
     1
 77
     6
 78
     2
 67
     7
 79
     3
170
     0
171
     0
290
     0
174
     0
 93
       13
 44
0.0
173
     0
291
     0
 45
0.0
1001
ACAD
1000
AcDbSavedByObjectVersion
1070
     0
  0
DICTIONARYVAR
  5
B199
102
{ACAD_REACTORS
330
36
102
}
330
36
100
DictionaryVariables
280
     0
  1
1:1
  0
DICTIONARYVAR
  5
B196
102
{ACAD_REACTORS
330
36
102
}
330
36
100
DictionaryVariables
280
     0
  1
STANDARD
  0
DICTIONARYVAR
  5
B195
102
{ACAD_REACTORS
330
36
102
}
330
36
100
DictionaryVariables
280
     0
  1
STANDARD
  0
DICTIONARYVAR
  5
B197
102
{ACAD_REACTORS
330
36
102
}
330
36
100
DictionaryVariables
280
     0
  1
Metric50
  0
DICTIONARYVAR
  5
B198
102
{ACAD_REACTORS
330
36
102
}
330
36
100
DictionaryVariables
280
     0
  1
Metric50
  0
DICTIONARYVAR
  5
37
102
{ACAD_REACTORS
330
36
102
}
330
36
100
DictionaryVariables
280
     0
  1
0
  0
DICTIONARYVAR
  5
B19B
102
{ACAD_REACTORS
330
36
102
}
330
36
100
DictionaryVariables
280
     0
  1
1
  0
DICTIONARYVAR
  5
B19A
102
{ACAD_REACTORS
330
36
102
}
330
36
100
DictionaryVariables
280
     0
  1
0
  0
DICTIONARYVAR
  5
10E
102
{ACAD_REACTORS
330
36
102
}
330
36
100
DictionaryVariables
280
     0
  1
96
  0
DICTIONARYVAR
  5
B19C
102
{ACAD_REACTORS
330
36
102
}
330
36
100
DictionaryVariables
280
     0
  1
2
  0
DICTIONARY
  5
B1A8
330
A2C7
100
AcDbDictionary
280
     1
281
     1
  3
ACAD_XREC_ROUNDTRIP
360
B1A9
  0
DICTIONARY
  5
B1A6
330
A2C6
100
AcDbDictionary
280
     1
281
     1
  3
ACAD_XREC_ROUNDTRIP
360
B1A7
  0
DICTIONARY
  5
B136
330
B135
100
AcDbDictionary
280
     1
281
     1
  3
ACAD_XREC_ROUNDTRIP
360
B1AB
  3
BUMPTILE
360
B138
  3
DIFFUSETILE
360
B137
  3
OPACITYTILE
360
B13B
  3
REFLECTIONTILE
360
B13A
  3
REFRACTIONTILE
360
B13C
  3
SPECULARTILE
360
B139
  0
DICTIONARY
  5
B12E
330
B12D
100
AcDbDictionary
280
     1
281
     1
  3
ACAD_XREC_ROUNDTRIP
360
B1AA
  3
BUMPTILE
360
B130
  3
DIFFUSETILE
360
B12F
  3
OPACITYTILE
360
B133
  3
REFLECTIONTILE
360
B132
  3
REFRACTIONTILE
360
B134
  3
SPECULARTILE
360
B131
  0
DICTIONARY
  5
B13E
330
B13D
100
AcDbDictionary
280
     1
281
     1
  3
ACAD_XREC_ROUNDTRIP
360
B1AC
  3
BUMPTILE
360
B140
  3
DIFFUSETILE
360
B13F
  3
OPACITYTILE
360
B143
  3
REFLECTIONTILE
360
B142
  3
REFRACTIONTILE
360
B144
  3
SPECULARTILE
360
B141
  0
DICTIONARY
  5
B1DF
330
B174
100
AcDbDictionary
280
     1
281
     1
  3
ACAD_XREC_ROUNDTRIP
360
B1E0
  0
DICTIONARY
  5
B19E
330
B160
100
AcDbDictionary
280
     1
281
     1
  3
ACAD_ROUNDTRIP_2008_TABLESTYLE_CELLSTYLEMAP
360
B19F
  3
ACAD_XREC_ROUNDTRIP
360
B1DD
  0
DICTIONARY
  5
B1B7
330
B14B
100
AcDbDictionary
280
     1
281
     1
  3
ACAD_XREC_ROUNDTRIP
360
B1B8
  0
DICTIONARY
  5
B1B5
330
B14A
100
AcDbDictionary
280
     1
281
     1
  3
ACAD_XREC_ROUNDTRIP
360
B1B6
  0
DICTIONARY
  5
B1C3
330
B151
100
AcDbDictionary
280
     1
281
     1
  3
ACAD_XREC_ROUNDTRIP
360
B1C4
  0
DICTIONARY
  5
B1CB
330
B155
100
AcDbDictionary
280
     1
281
     1
  3
ACAD_XREC_ROUNDTRIP
360
B1CC
  0
DICTIONARY
  5
B1BD
330
B14E
100
AcDbDictionary
280
     1
281
     1
  3
ACAD_XREC_ROUNDTRIP
360
B1BE
  0
DICTIONARY
  5
B1C1
330
B150
100
AcDbDictionary
280
     1
281
     1
  3
ACAD_XREC_ROUNDTRIP
360
B1C2
  0
DICTIONARY
  5
B1DB
330
B15D
100
AcDbDictionary
280
     1
281
     1
  3
ACAD_XREC_ROUNDTRIP
360
B1DC
  0
DICTIONARY
  5
B1C9
330
B154
100
AcDbDictionary
280
     1
281
     1
  3
ACAD_XREC_ROUNDTRIP
360
B1CA
  0
DICTIONARY
  5
B1AD
330
B146
100
AcDbDictionary
280
     1
281
     1
  3
ACAD_XREC_ROUNDTRIP
360
B1AE
  0
DICTIONARY
  5
B1AF
330
B147
100
AcDbDictionary
280
     1
281
     1
  3
ACAD_XREC_ROUNDTRIP
360
B1B0
  0
DICTIONARY
  5
B1B1
330
B148
100
AcDbDictionary
280
     1
281
     1
  3
ACAD_XREC_ROUNDTRIP
360
B1B2
  0
DICTIONARY
  5
B1B3
330
B149
100
AcDbDictionary
280
     1
281
     1
  3
ACAD_XREC_ROUNDTRIP
360
B1B4
  0
DICTIONARY
  5
B1BB
330
B14D
100
AcDbDictionary
280
     1
281
     1
  3
ACAD_XREC_ROUNDTRIP
360
B1BC
  0
DICTIONARY
  5
B1D7
330
B15B
100
AcDbDictionary
280
     1
281
     1
  3
ACAD_XREC_ROUNDTRIP
360
B1D8
  0
DICTIONARY
  5
B1C7
330
B153
100
AcDbDictionary
280
     1
281
     1
  3
ACAD_XREC_ROUNDTRIP
360
B1C8
  0
DICTIONARY
  5
B1D9
330
B15C
100
AcDbDictionary
280
     1
281
     1
  3
ACAD_XREC_ROUNDTRIP
360
B1DA
  0
DICTIONARY
  5
B1BF
330
B14F
100
AcDbDictionary
280
     1
281
     1
  3
ACAD_XREC_ROUNDTRIP
360
B1C0
  0
DICTIONARY
  5
B1D5
330
B15A
100
AcDbDictionary
280
     1
281
     1
  3
ACAD_XREC_ROUNDTRIP
360
B1D6
  0
DICTIONARY
  5
B1D3
330
B159
100
AcDbDictionary
280
     1
281
     1
  3
ACAD_XREC_ROUNDTRIP
360
B1D4
  0
DICTIONARY
  5
B1CD
330
B156
100
AcDbDictionary
280
     1
281
     1
  3
ACAD_XREC_ROUNDTRIP
360
B1CE
  0
DICTIONARY
  5
B1CF
330
B157
100
AcDbDictionary
280
     1
281
     1
  3
ACAD_XREC_ROUNDTRIP
360
B1D0
  0
DICTIONARY
  5
B1C5
330
B152
100
AcDbDictionary
280
     1
281
     1
  3
ACAD_XREC_ROUNDTRIP
360
B1C6
  0
DICTIONARY
  5
B1B9
330
B14C
100
AcDbDictionary
280
     1
281
     1
  3
ACAD_XREC_ROUNDTRIP
360
B1BA
  0
DICTIONARY
  5
B1D1
330
B158
100
AcDbDictionary
280
     1
281
     1
  3
ACAD_XREC_ROUNDTRIP
360
B1D2
  0
XRECORD
  5
B1A9
102
{ACAD_REACTORS
330
B1A8
102
}
330
B1A8
100
AcDbXrecord
280
     1
102
SHADEPLOT
 70
     0
102
SHADEPLOTRESLEVEL
 70
     2
102
SHADEPLOTCUSTOMDPI
 70
   300
  0
XRECORD
  5
B1A7
102
{ACAD_REACTORS
330
B1A6
102
}
330
B1A6
100
AcDbXrecord
280
     1
102
SHADEPLOT
 70
     0
102
SHADEPLOTRESLEVEL
 70
     2
102
SHADEPLOTCUSTOMDPI
 70
   300
  0
XRECORD
  5
B1AB
102
{ACAD_REACTORS
330
B136
102
}
330
B136
100
AcDbXrecord
280
     1
102
MATERIAL
148
0.0
149
0.0
149
0.0
 93
        0
 94
      127
282
     0
 72
     0
 77
     0
171
     0
175
     0
179
     0
273
     0
  0
XRECORD
  5
B138
102
{ACAD_REACTORS
330
B136
102
}
330
B136
100
AcDbXrecord
280
     1
270
     1
271
     1
  0
XRECORD
  5
B137
102
{ACAD_REACTORS
330
B136
102
}
330
B136
100
AcDbXrecord
280
     1
270
     1
271
     1
  0
XRECORD
  5
B13B
102
{ACAD_REACTORS
330
B136
102
}
330
B136
100
AcDbXrecord
280
     1
270
     1
271
     1
  0
XRECORD
  5
B13A
102
{ACAD_REACTORS
330
B136
102
}
330
B136
100
AcDbXrecord
280
     1
270
     1
271
     1
  0
XRECORD
  5
B13C
102
{ACAD_REACTORS
330
B136
102
}
330
B136
100
AcDbXrecord
280
     1
270
     1
271
     1
  0
XRECORD
  5
B139
102
{ACAD_REACTORS
330
B136
102
}
330
B136
100
AcDbXrecord
280
     1
270
     1
271
     1
  0
XRECORD
  5
B1AA
102
{ACAD_REACTORS
330
B12E
102
}
330
B12E
100
AcDbXrecord
280
     1
102
MATERIAL
148
0.0
149
0.0
149
0.0
 93
        0
 94
      127
282
     0
 72
     0
 77
     0
171
     0
175
     0
179
     0
273
     0
  0
XRECORD
  5
B130
102
{ACAD_REACTORS
330
B12E
102
}
330
B12E
100
AcDbXrecord
280
     1
270
     1
271
     1
  0
XRECORD
  5
B12F
102
{ACAD_REACTORS
330
B12E
102
}
330
B12E
100
AcDbXrecord
280
     1
270
     1
271
     1
  0
XRECORD
  5
B133
102
{ACAD_REACTORS
330
B12E
102
}
330
B12E
100
AcDbXrecord
280
     1
270
     1
271
     1
  0
XRECORD
  5
B132
102
{ACAD_REACTORS
330
B12E
102
}
330
B12E
100
AcDbXrecord
280
     1
270
     1
271
     1
  0
XRECORD
  5
B134
102
{ACAD_REACTORS
330
B12E
102
}
330
B12E
100
AcDbXrecord
280
     1
270
     1
271
     1
  0
XRECORD
  5
B131
102
{ACAD_REACTORS
330
B12E
102
}
330
B12E
100
AcDbXrecord
280
     1
270
     1
271
     1
  0
XRECORD
  5
B1AC
102
{ACAD_REACTORS
330
B13E
102
}
330
B13E
100
AcDbXrecord
280
     1
102
MATERIAL
148
0.0
149
0.0
149
0.0
 93
        0
 94
      127
282
     0
 72
     0
 77
     0
171
     0
175
     0
179
     0
273
     0
  0
XRECORD
  5
B140
102
{ACAD_REACTORS
330
B13E
102
}
330
B13E
100
AcDbXrecord
280
     1
270
     1
271
     1
  0
XRECORD
  5
B13F
102
{ACAD_REACTORS
330
B13E
102
}
330
B13E
100
AcDbXrecord
280
     1
270
     1
271
     1
  0
XRECORD
  5
B143
102
{ACAD_REACTORS
330
B13E
102
}
330
B13E
100
AcDbXrecord
280
     1
270
     1
271
     1
  0
XRECORD
  5
B142
102
{ACAD_REACTORS
330
B13E
102
}
330
B13E
100
AcDbXrecord
280
     1
270
     1
271
     1
  0
XRECORD
  5
B144
102
{ACAD_REACTORS
330
B13E
102
}
330
B13E
100
AcDbXrecord
280
     1
270
     1
271
     1
  0
XRECORD
  5
B141
102
{ACAD_REACTORS
330
B13E
102
}
330
B13E
100
AcDbXrecord
280
     1
270
     1
271
     1
  0
XRECORD
  5
B1E0
102
{ACAD_REACTORS
330
B1DF
102
}
330
B1DF
100
AcDbXrecord
280
     1
102
ACAD_ROUNDTRIP_2012_MLEADER_STYLE
298
     1
  0
CELLSTYLEMAP
  5
B19F
102
{ACAD_REACTORS
330
B19E
102
}
330
B19E
100
AcDbCellStyleMap
 90
        3
300
CELLSTYLE
  1
TABLEFORMAT_BEGIN
 90
        5
170
     1
 91
        0
 92
    32768
 62
   257
 93
        1
300
CONTENTFORMAT
  1
CONTENTFORMAT_BEGIN
 90
        0
 91
        0
 92
      512
 93
        0
300

 40
0.0
140
1.0
 94
        5
 62
     0
340
F
144
6.0
309
CONTENTFORMAT_END
171
     1
301
MARGIN
  1
CELLMARGIN_BEGIN
 40
1.5
 40
1.5
 40
1.5
 40
1.5
 40
4.5
 40
4.5
309
CELLMARGIN_END
 94
        6
 95
        1
302
GRIDFORMAT
  1
GRIDFORMAT_BEGIN
 90
        0
 91
        1
 62
     0
 92
       -2
340
0
 93
        0
 40
1.125
309
GRIDFORMAT_END
 95
        2
302
GRIDFORMAT
  1
GRIDFORMAT_BEGIN
 90
        0
 91
        1
 62
     0
 92
       -2
340
0
 93
        0
 40
1.125
309
GRIDFORMAT_END
 95
        4
302
GRIDFORMAT
  1
GRIDFORMAT_BEGIN
 90
        0
 91
        1
 62
     0
 92
       -2
340
0
 93
        0
 40
1.125
309
GRIDFORMAT_END
 95
        8
302
GRIDFORMAT
  1
GRIDFORMAT_BEGIN
 90
        0
 91
        1
 62
     0
 92
       -2
340
0
 93
        0
 40
1.125
309
GRIDFORMAT_END
 95
       16
302
GRIDFORMAT
  1
GRIDFORMAT_BEGIN
 90
        0
 91
        1
 62
     0
 92
       -2
340
0
 93
        0
 40
1.125
309
GRIDFORMAT_END
 95
       32
302
GRIDFORMAT
  1
GRIDFORMAT_BEGIN
 90
        0
 91
        1
 62
     0
 92
       -2
340
0
 93
        0
 40
1.125
309
GRIDFORMAT_END
309
TABLEFORMAT_END
  1
CELLSTYLE_BEGIN
 90
        1
 91
        1
300
_TITLE
309
CELLSTYLE_END
300
CELLSTYLE
  1
TABLEFORMAT_BEGIN
 90
        5
170
     1
 91
        0
 92
        0
 62
   257
 93
        1
300
CONTENTFORMAT
  1
CONTENTFORMAT_BEGIN
 90
        0
 91
        0
 92
      512
 93
        0
300

 40
0.0
140
1.0
 94
        5
 62
     0
340
F
144
4.5
309
CONTENTFORMAT_END
171
     1
301
MARGIN
  1
CELLMARGIN_BEGIN
 40
1.5
 40
1.5
 40
1.5
 40
1.5
 40
4.5
 40
4.5
309
CELLMARGIN_END
 94
        6
 95
        1
302
GRIDFORMAT
  1
GRIDFORMAT_BEGIN
 90
        0
 91
        1
 62
     0
 92
       -2
340
0
 93
        0
 40
1.125
309
GRIDFORMAT_END
 95
        2
302
GRIDFORMAT
  1
GRIDFORMAT_BEGIN
 90
        0
 91
        1
 62
     0
 92
       -2
340
0
 93
        0
 40
1.125
309
GRIDFORMAT_END
 95
        4
302
GRIDFORMAT
  1
GRIDFORMAT_BEGIN
 90
        0
 91
        1
 62
     0
 92
       -2
340
0
 93
        0
 40
1.125
309
GRIDFORMAT_END
 95
        8
302
GRIDFORMAT
  1
GRIDFORMAT_BEGIN
 90
        0
 91
        1
 62
     0
 92
       -2
340
0
 93
        0
 40
1.125
309
GRIDFORMAT_END
 95
       16
302
GRIDFORMAT
  1
GRIDFORMAT_BEGIN
 90
        0
 91
        1
 62
     0
 92
       -2
340
0
 93
        0
 40
1.125
309
GRIDFORMAT_END
 95
       32
302
GRIDFORMAT
  1
GRIDFORMAT_BEGIN
 90
        0
 91
        1
 62
     0
 92
       -2
340
0
 93
        0
 40
1.125
309
GRIDFORMAT_END
309
TABLEFORMAT_END
  1
CELLSTYLE_BEGIN
 90
        2
 91
        1
300
_HEADER
309
CELLSTYLE_END
300
CELLSTYLE
  1
TABLEFORMAT_BEGIN
 90
        5
170
     1
 91
        0
 92
        0
 62
   257
 93
        1
300
CONTENTFORMAT
  1
CONTENTFORMAT_BEGIN
 90
        0
 91
        0
 92
      512
 93
        0
300

 40
0.0
140
1.0
 94
        2
 62
     0
340
F
144
4.5
309
CONTENTFORMAT_END
171
     1
301
MARGIN
  1
CELLMARGIN_BEGIN
 40
1.5
 40
1.5
 40
1.5
 40
1.5
 40
4.5
 40
4.5
309
CELLMARGIN_END
 94
        6
 95
        1
302
GRIDFORMAT
  1
GRIDFORMAT_BEGIN
 90
        0
 91
        1
 62
     0
 92
       -2
340
0
 93
        0
 40
1.125
309
GRIDFORMAT_END
 95
        2
302
GRIDFORMAT
  1
GRIDFORMAT_BEGIN
 90
        0
 91
        1
 62
     0
 92
       -2
340
0
 93
        0
 40
1.125
309
GRIDFORMAT_END
 95
        4
302
GRIDFORMAT
  1
GRIDFORMAT_BEGIN
 90
        0
 91
        1
 62
     0
 92
       -2
340
0
 93
        0
 40
1.125
309
GRIDFORMAT_END
 95
        8
302
GRIDFORMAT
  1
GRIDFORMAT_BEGIN
 90
        0
 91
        1
 62
     0
 92
       -2
340
0
 93
        0
 40
1.125
309
GRIDFORMAT_END
 95
       16
302
GRIDFORMAT
  1
GRIDFORMAT_BEGIN
 90
        0
 91
        1
 62
     0
 92
       -2
340
0
 93
        0
 40
1.125
309
GRIDFORMAT_END
 95
       32
302
GRIDFORMAT
  1
GRIDFORMAT_BEGIN
 90
        0
 91
        1
 62
     0
 92
       -2
340
0
 93
        0
 40
1.125
309
GRIDFORMAT_END
309
TABLEFORMAT_END
  1
CELLSTYLE_BEGIN
 90
        3
 91
        2
300
_DATA
309
CELLSTYLE_END
  0
XRECORD
  5
B1DD
102
{ACAD_REACTORS
330
B19E
102
}
330
B19E
100
AcDbXrecord
280
     1
102
ACAD_ROUNDTRIP_PRE2007_TABLESTYLE
 90
      512
 91
        0
  1

 92
      512
 93
        0
  2

 94
      512
 95
        0
  3

  0
XRECORD
  5
B1B8
102
{ACAD_REACTORS
330
B1B7
102
}
330
B1B7
100
AcDbXrecord
280
     1
102
RTVSPost2010Prop28
280
     1
102
RTVSPost2010PropOp28
 70
     1
102
RTVSPost2010Prop29
280
     1
102
RTVSPost2010PropOp29
 70
     1
102
RTVSPost2010Prop30
280
     0
102
RTVSPost2010PropOp30
 70
     1
102
RTVSPost2010Prop31
280
     0
102
RTVSPost2010PropOp31
 70
     1
102
RTVSPost2010Prop32
280
     0
102
RTVSPost2010PropOp32
 70
     1
102
RTVSPost2010Prop33
280
     0
102
RTVSPost2010PropOp33
 70
     1
102
RTVSPost2010Prop34
280
     0
102
RTVSPost2010PropOp34
 70
     1
102
RTVSPost2010Prop35
280
     0
102
RTVSPost2010PropOp35
 70
     1
102
RTVSPost2010Prop36
280
     0
102
RTVSPost2010PropOp36
 70
     1
102
RTVSPost2010Prop37
 90
       50
102
RTVSPost2010PropOp37
 70
     1
102
RTVSPost2010Prop38
140
0.0
102
RTVSPost2010PropOp38
 70
     1
102
RTVSPost2010Prop39
140
1.0
102
RTVSPost2010PropOp39
 70
     1
102
RTVSPost2010Prop40
 90
        0
102
RTVSPost2010PropOp40
 70
     1
102
RTVSPost2010Prop41ColorIndex
 90
       18
102
RTVSPost2010Prop41ColorRGB
 90
        0
102
RTVSPost2010PropOp41
 70
     1
102
RTVSPost2010Prop42
 90
       50
102
RTVSPost2010PropOp42
 70
     1
102
RTVSPost2010Prop43
 90
        3
102
RTVSPost2010PropOp43
 70
     1
102
RTVSPost2010Prop44ColorIndex
 90
        5
102
RTVSPost2010Prop44ColorRGB
 90
      255
102
RTVSPost2010PropOp44
 70
     1
102
RTVSPost2010Prop45
280
     0
102
RTVSPost2010PropOp45
 70
     1
102
RTVSPost2010Prop46
 90
       50
102
RTVSPost2010PropOp46
 70
     1
102
RTVSPost2010Prop47
 90
       50
102
RTVSPost2010PropOp47
 70
     1
102
RTVSPost2010Prop48
 90
       50
102
RTVSPost2010PropOp48
 70
     1
102
RTVSPost2010Prop49
280
     0
102
RTVSPost2010PropOp49
 70
     1
102
RTVSPost2010Prop50
 90
       50
102
RTVSPost2010PropOp50
 70
     1
102
RTVSPost2010Prop51ColorIndex
 90
      256
102
RTVSPost2010Prop51ColorRGB
 90
-16777216
102
RTVSPost2010PropOp51
 70
     0
102
RTVSPost2010Prop52
140
1.0
102
RTVSPost2010PropOp52
 70
     0
102
RTVSPost2010Prop53
 90
        2
102
RTVSPost2010PropOp53
 70
     1
102
RTVSPost2010Prop54
  1
strokes_ogs.tif
102
RTVSPost2010PropOp54
 70
     1
102
RTVSPost2010Prop55
280
     0
102
RTVSPost2010PropOp55
 70
     1
102
RTVSPost2010Prop56
140
1.0
102
RTVSPost2010PropOp56
 70
     1
102
RTVSPost2010Prop57
140
1.0
102
RTVSPost2010PropOp57
 70
     1
102
RTVSPropertyOp0
 70
     1
102
RTVSPropertyOp1
 70
     1
102
RTVSPropertyOp2
 70
     1
102
RTVSPropertyOp3
 70
     1
102
RTVSPropertyOp4
 70
     1
102
RTVSPropertyOp5
 70
     1
102
RTVSPropertyOp6
 70
     1
102
RTVSPropertyOp7
 70
     1
102
RTVSPropertyOp8
 70
     1
102
RTVSPropertyOp9
 70
     1
102
RTVSPropertyOp10
 70
     1
102
RTVSPropertyOp11
 70
     1
102
RTVSPropertyOp12
 70
     1
102
RTVSPropertyOp13
 70
     1
102
RTVSPropertyOp14
 70
     1
102
RTVSPropertyOp15
 70
     1
102
RTVSPropertyOp16
 70
     1
102
RTVSPropertyOp17
 70
     1
102
RTVSPropertyOp18
 70
     1
102
RTVSPropertyOp19
 70
     1
102
RTVSPropertyOp20
 70
     1
102
RTVSPropertyOp21
 70
     1
102
RTVSPropertyOp22
 70
     1
102
RTVSPropertyOp23
 70
     1
102
RTVSPropertyOp24
 70
     1
102
RTVSPropertyOp25
 70
     1
102
RTVSPropertyOp26
 70
     1
102
RTVSPropertyOp27
 70
     1
102
RTVSPropertyOp28
 70
     1
102
RTVSPropertyOp29
 70
     1
102
RTVSPropertyOp30
 70
     1
102
RTVSPropertyOp31
 70
     1
102
RTVSPropertyOp32
 70
     1
102
RTVSPropertyOp33
 70
     1
102
RTVSPropertyOp34
 70
     1
102
RTVSPropertyOp35
 70
     1
102
RTVSPropertyOp36
 70
     1
102
RTVSPropertyOp37
 70
     1
102
RTVSPropertyOp38
 70
     1
102
RTVSPropertyOp39
 70
     1
102
RTVSPropertyOp40
 70
     1
102
RTVSPropertyOp41
 70
     1
102
RTVSPropertyOp42
 70
     1
102
RTVSPropertyOp43
 70
     1
102
RTVSPropertyOp44
 70
     1
102
RTVSPropertyOp45
 70
     1
102
RTVSPropertyOp46
 70
     1
102
RTVSPropertyOp47
 70
     1
102
RTVSPropertyOp48
 70
     1
102
RTVSPropertyOp49
 70
     1
102
RTVSPropertyOp50
 70
     1
102
RTVSPropertyOp51
 70
     0
102
RTVSPropertyOp52
 70
     0
102
RTVSPropertyOp53
 70
     1
102
RTVSPropertyOp54
 70
     1
102
RTVSPropertyOp55
 70
     1
102
RTVSPropertyOp56
 70
     1
102
RTVSPropertyOp57
 70
     1
102
RTVSPropertyOp58
 70
     1
102
RTVSPropertyOp59
 70
     1
102
RTVSPropertyOp60
 70
     1
102
RTVSPropertyOp61
 70
     1
102
RTVSPropertyOp62
 70
     1
  0
XRECORD
  5
B1B6
102
{ACAD_REACTORS
330
B1B5
102
}
330
B1B5
100
AcDbXrecord
280
     1
102
RTVSPost2010Prop28
280
     0
102
RTVSPost2010PropOp28
 70
     1
102
RTVSPost2010Prop29
280
     1
102
RTVSPost2010PropOp29
 70
     1
102
RTVSPost2010Prop30
280
     1
102
RTVSPost2010PropOp30
 70
     1
102
RTVSPost2010Prop31
280
     0
102
RTVSPost2010PropOp31
 70
     1
102
RTVSPost2010Prop32
280
     0
102
RTVSPost2010PropOp32
 70
     1
102
RTVSPost2010Prop33
280
     0
102
RTVSPost2010PropOp33
 70
     1
102
RTVSPost2010Prop34
280
     0
102
RTVSPost2010PropOp34
 70
     1
102
RTVSPost2010Prop35
280
     0
102
RTVSPost2010PropOp35
 70
     1
102
RTVSPost2010Prop36
280
     0
102
RTVSPost2010PropOp36
 70
     1
102
RTVSPost2010Prop37
 90
       50
102
RTVSPost2010PropOp37
 70
     1
102
RTVSPost2010Prop38
140
0.0
102
RTVSPost2010PropOp38
 70
     1
102
RTVSPost2010Prop39
140
1.0
102
RTVSPost2010PropOp39
 70
     1
102
RTVSPost2010Prop40
 90
        0
102
RTVSPost2010PropOp40
 70
     1
102
RTVSPost2010Prop41ColorIndex
 90
       18
102
RTVSPost2010Prop41ColorRGB
 90
        0
102
RTVSPost2010PropOp41
 70
     1
102
RTVSPost2010Prop42
 90
       50
102
RTVSPost2010PropOp42
 70
     1
102
RTVSPost2010Prop43
 90
        3
102
RTVSPost2010PropOp43
 70
     1
102
RTVSPost2010Prop44ColorIndex
 90
        5
102
RTVSPost2010Prop44ColorRGB
 90
      255
102
RTVSPost2010PropOp44
 70
     1
102
RTVSPost2010Prop45
280
     0
102
RTVSPost2010PropOp45
 70
     1
102
RTVSPost2010Prop46
 90
       50
102
RTVSPost2010PropOp46
 70
     1
102
RTVSPost2010Prop47
 90
       50
102
RTVSPost2010PropOp47
 70
     1
102
RTVSPost2010Prop48
 90
       50
102
RTVSPost2010PropOp48
 70
     1
102
RTVSPost2010Prop49
280
     0
102
RTVSPost2010PropOp49
 70
     1
102
RTVSPost2010Prop50
 90
       50
102
RTVSPost2010PropOp50
 70
     1
102
RTVSPost2010Prop51ColorIndex
 90
      256
102
RTVSPost2010Prop51ColorRGB
 90
-16777216
102
RTVSPost2010PropOp51
 70
     0
102
RTVSPost2010Prop52
140
1.0
102
RTVSPost2010PropOp52
 70
     0
102
RTVSPost2010Prop53
 90
        2
102
RTVSPost2010PropOp53
 70
     1
102
RTVSPost2010Prop54
  1
strokes_ogs.tif
102
RTVSPost2010PropOp54
 70
     1
102
RTVSPost2010Prop55
280
     0
102
RTVSPost2010PropOp55
 70
     1
102
RTVSPost2010Prop56
140
1.0
102
RTVSPost2010PropOp56
 70
     1
102
RTVSPost2010Prop57
140
1.0
102
RTVSPost2010PropOp57
 70
     1
102
RTVSPropertyOp0
 70
     1
102
RTVSPropertyOp1
 70
     1
102
RTVSPropertyOp2
 70
     1
102
RTVSPropertyOp3
 70
     1
102
RTVSPropertyOp4
 70
     1
102
RTVSPropertyOp5
 70
     1
102
RTVSPropertyOp6
 70
     1
102
RTVSPropertyOp7
 70
     1
102
RTVSPropertyOp8
 70
     1
102
RTVSPropertyOp9
 70
     1
102
RTVSPropertyOp10
 70
     1
102
RTVSPropertyOp11
 70
     1
102
RTVSPropertyOp12
 70
     1
102
RTVSPropertyOp13
 70
     1
102
RTVSPropertyOp14
 70
     1
102
RTVSPropertyOp15
 70
     1
102
RTVSPropertyOp16
 70
     1
102
RTVSPropertyOp17
 70
     1
102
RTVSPropertyOp18
 70
     1
102
RTVSPropertyOp19
 70
     1
102
RTVSPropertyOp20
 70
     1
102
RTVSPropertyOp21
 70
     1
102
RTVSPropertyOp22
 70
     1
102
RTVSPropertyOp23
 70
     1
102
RTVSPropertyOp24
 70
     1
102
RTVSPropertyOp25
 70
     1
102
RTVSPropertyOp26
 70
     1
102
RTVSPropertyOp27
 70
     1
102
RTVSPropertyOp28
 70
     1
102
RTVSPropertyOp29
 70
     1
102
RTVSPropertyOp30
 70
     1
102
RTVSPropertyOp31
 70
     1
102
RTVSPropertyOp32
 70
     1
102
RTVSPropertyOp33
 70
     1
102
RTVSPropertyOp34
 70
     1
102
RTVSPropertyOp35
 70
     1
102
RTVSPropertyOp36
 70
     1
102
RTVSPropertyOp37
 70
     1
102
RTVSPropertyOp38
 70
     1
102
RTVSPropertyOp39
 70
     1
102
RTVSPropertyOp40
 70
     1
102
RTVSPropertyOp41
 70
     1
102
RTVSPropertyOp42
 70
     1
102
RTVSPropertyOp43
 70
     1
102
RTVSPropertyOp44
 70
     1
102
RTVSPropertyOp45
 70
     1
102
RTVSPropertyOp46
 70
     1
102
RTVSPropertyOp47
 70
     1
102
RTVSPropertyOp48
 70
     1
102
RTVSPropertyOp49
 70
     1
102
RTVSPropertyOp50
 70
     1
102
RTVSPropertyOp51
 70
     0
102
RTVSPropertyOp52
 70
     0
102
RTVSPropertyOp53
 70
     1
102
RTVSPropertyOp54
 70
     1
102
RTVSPropertyOp55
 70
     1
102
RTVSPropertyOp56
 70
     1
102
RTVSPropertyOp57
 70
     1
102
RTVSPropertyOp58
 70
     1
102
RTVSPropertyOp59
 70
     1
102
RTVSPropertyOp60
 70
     1
102
RTVSPropertyOp61
 70
     1
102
RTVSPropertyOp62
 70
     1
  0
XRECORD
  5
B1C4
102
{ACAD_REACTORS
330
B1C3
102
}
330
B1C3
100
AcDbXrecord
280
     1
102
RTVSPost2010Prop28
280
     0
102
RTVSPost2010PropOp28
 70
     1
102
RTVSPost2010Prop29
280
     1
102
RTVSPost2010PropOp29
 70
     1
102
RTVSPost2010Prop30
280
     1
102
RTVSPost2010PropOp30
 70
     1
102
RTVSPost2010Prop31
280
     0
102
RTVSPost2010PropOp31
 70
     1
102
RTVSPost2010Prop32
280
     0
102
RTVSPost2010PropOp32
 70
     1
102
RTVSPost2010Prop33
280
     0
102
RTVSPost2010PropOp33
 70
     1
102
RTVSPost2010Prop34
280
     0
102
RTVSPost2010PropOp34
 70
     1
102
RTVSPost2010Prop35
280
     0
102
RTVSPost2010PropOp35
 70
     1
102
RTVSPost2010Prop36
280
     0
102
RTVSPost2010PropOp36
 70
     1
102
RTVSPost2010Prop37
 90
       50
102
RTVSPost2010PropOp37
 70
     1
102
RTVSPost2010Prop38
140
0.0
102
RTVSPost2010PropOp38
 70
     1
102
RTVSPost2010Prop39
140
1.0
102
RTVSPost2010PropOp39
 70
     1
102
RTVSPost2010Prop40
 90
        0
102
RTVSPost2010PropOp40
 70
     1
102
RTVSPost2010Prop41ColorIndex
 90
       18
102
RTVSPost2010Prop41ColorRGB
 90
        0
102
RTVSPost2010PropOp41
 70
     1
102
RTVSPost2010Prop42
 90
       50
102
RTVSPost2010PropOp42
 70
     1
102
RTVSPost2010Prop43
 90
        3
102
RTVSPost2010PropOp43
 70
     1
102
RTVSPost2010Prop44ColorIndex
 90
        5
102
RTVSPost2010Prop44ColorRGB
 90
      255
102
RTVSPost2010PropOp44
 70
     1
102
RTVSPost2010Prop45
280
     0
102
RTVSPost2010PropOp45
 70
     1
102
RTVSPost2010Prop46
 90
       50
102
RTVSPost2010PropOp46
 70
     1
102
RTVSPost2010Prop47
 90
       50
102
RTVSPost2010PropOp47
 70
     1
102
RTVSPost2010Prop48
 90
       50
102
RTVSPost2010PropOp48
 70
     1
102
RTVSPost2010Prop49
280
     0
102
RTVSPost2010PropOp49
 70
     1
102
RTVSPost2010Prop50
 90
       50
102
RTVSPost2010PropOp50
 70
     1
102
RTVSPost2010Prop51ColorIndex
 90
      256
102
RTVSPost2010Prop51ColorRGB
 90
-16777216
102
RTVSPost2010PropOp51
 70
     0
102
RTVSPost2010Prop52
140
1.0
102
RTVSPost2010PropOp52
 70
     0
102
RTVSPost2010Prop53
 90
        2
102
RTVSPost2010PropOp53
 70
     1
102
RTVSPost2010Prop54
  1
strokes_ogs.tif
102
RTVSPost2010PropOp54
 70
     1
102
RTVSPost2010Prop55
280
     0
102
RTVSPost2010PropOp55
 70
     1
102
RTVSPost2010Prop56
140
1.0
102
RTVSPost2010PropOp56
 70
     1
102
RTVSPost2010Prop57
140
1.0
102
RTVSPost2010PropOp57
 70
     1
102
RTVSPropertyOp0
 70
     1
102
RTVSPropertyOp1
 70
     1
102
RTVSPropertyOp2
 70
     1
102
RTVSPropertyOp3
 70
     1
102
RTVSPropertyOp4
 70
     1
102
RTVSPropertyOp5
 70
     1
102
RTVSPropertyOp6
 70
     1
102
RTVSPropertyOp7
 70
     1
102
RTVSPropertyOp8
 70
     1
102
RTVSPropertyOp9
 70
     1
102
RTVSPropertyOp10
 70
     1
102
RTVSPropertyOp11
 70
     1
102
RTVSPropertyOp12
 70
     1
102
RTVSPropertyOp13
 70
     1
102
RTVSPropertyOp14
 70
     1
102
RTVSPropertyOp15
 70
     1
102
RTVSPropertyOp16
 70
     1
102
RTVSPropertyOp17
 70
     1
102
RTVSPropertyOp18
 70
     1
102
RTVSPropertyOp19
 70
     1
102
RTVSPropertyOp20
 70
     1
102
RTVSPropertyOp21
 70
     1
102
RTVSPropertyOp22
 70
     1
102
RTVSPropertyOp23
 70
     1
102
RTVSPropertyOp24
 70
     1
102
RTVSPropertyOp25
 70
     1
102
RTVSPropertyOp26
 70
     1
102
RTVSPropertyOp27
 70
     1
102
RTVSPropertyOp28
 70
     1
102
RTVSPropertyOp29
 70
     1
102
RTVSPropertyOp30
 70
     1
102
RTVSPropertyOp31
 70
     1
102
RTVSPropertyOp32
 70
     1
102
RTVSPropertyOp33
 70
     1
102
RTVSPropertyOp34
 70
     1
102
RTVSPropertyOp35
 70
     1
102
RTVSPropertyOp36
 70
     1
102
RTVSPropertyOp37
 70
     1
102
RTVSPropertyOp38
 70
     1
102
RTVSPropertyOp39
 70
     1
102
RTVSPropertyOp40
 70
     1
102
RTVSPropertyOp41
 70
     1
102
RTVSPropertyOp42
 70
     1
102
RTVSPropertyOp43
 70
     1
102
RTVSPropertyOp44
 70
     1
102
RTVSPropertyOp45
 70
     1
102
RTVSPropertyOp46
 70
     1
102
RTVSPropertyOp47
 70
     1
102
RTVSPropertyOp48
 70
     1
102
RTVSPropertyOp49
 70
     1
102
RTVSPropertyOp50
 70
     1
102
RTVSPropertyOp51
 70
     0
102
RTVSPropertyOp52
 70
     0
102
RTVSPropertyOp53
 70
     1
102
RTVSPropertyOp54
 70
     1
102
RTVSPropertyOp55
 70
     1
102
RTVSPropertyOp56
 70
     1
102
RTVSPropertyOp57
 70
     1
102
RTVSPropertyOp58
 70
     1
102
RTVSPropertyOp59
 70
     1
102
RTVSPropertyOp60
 70
     1
102
RTVSPropertyOp61
 70
     1
102
RTVSPropertyOp62
 70
     1
  0
XRECORD
  5
B1CC
102
{ACAD_REACTORS
330
B1CB
102
}
330
B1CB
100
AcDbXrecord
280
     1
102
RTVSPost2010Prop28
280
     0
102
RTVSPost2010PropOp28
 70
     1
102
RTVSPost2010Prop29
280
     1
102
RTVSPost2010PropOp29
 70
     1
102
RTVSPost2010Prop30
280
     1
102
RTVSPost2010PropOp30
 70
     1
102
RTVSPost2010Prop31
280
     0
102
RTVSPost2010PropOp31
 70
     1
102
RTVSPost2010Prop32
280
     0
102
RTVSPost2010PropOp32
 70
     1
102
RTVSPost2010Prop33
280
     0
102
RTVSPost2010PropOp33
 70
     1
102
RTVSPost2010Prop34
280
     0
102
RTVSPost2010PropOp34
 70
     1
102
RTVSPost2010Prop35
280
     0
102
RTVSPost2010PropOp35
 70
     1
102
RTVSPost2010Prop36
280
     0
102
RTVSPost2010PropOp36
 70
     1
102
RTVSPost2010Prop37
 90
       50
102
RTVSPost2010PropOp37
 70
     1
102
RTVSPost2010Prop38
140
0.0
102
RTVSPost2010PropOp38
 70
     1
102
RTVSPost2010Prop39
140
1.0
102
RTVSPost2010PropOp39
 70
     1
102
RTVSPost2010Prop40
 90
        0
102
RTVSPost2010PropOp40
 70
     1
102
RTVSPost2010Prop41ColorIndex
 90
       18
102
RTVSPost2010Prop41ColorRGB
 90
        0
102
RTVSPost2010PropOp41
 70
     1
102
RTVSPost2010Prop42
 90
       50
102
RTVSPost2010PropOp42
 70
     1
102
RTVSPost2010Prop43
 90
        3
102
RTVSPost2010PropOp43
 70
     1
102
RTVSPost2010Prop44ColorIndex
 90
        5
102
RTVSPost2010Prop44ColorRGB
 90
      255
102
RTVSPost2010PropOp44
 70
     1
102
RTVSPost2010Prop45
280
     0
102
RTVSPost2010PropOp45
 70
     1
102
RTVSPost2010Prop46
 90
       50
102
RTVSPost2010PropOp46
 70
     1
102
RTVSPost2010Prop47
 90
       50
102
RTVSPost2010PropOp47
 70
     1
102
RTVSPost2010Prop48
 90
       50
102
RTVSPost2010PropOp48
 70
     1
102
RTVSPost2010Prop49
280
     0
102
RTVSPost2010PropOp49
 70
     1
102
RTVSPost2010Prop50
 90
       50
102
RTVSPost2010PropOp50
 70
     1
102
RTVSPost2010Prop51ColorIndex
 90
      256
102
RTVSPost2010Prop51ColorRGB
 90
-16777216
102
RTVSPost2010PropOp51
 70
     0
102
RTVSPost2010Prop52
140
1.0
102
RTVSPost2010PropOp52
 70
     0
102
RTVSPost2010Prop53
 90
        2
102
RTVSPost2010PropOp53
 70
     1
102
RTVSPost2010Prop54
  1
strokes_ogs.tif
102
RTVSPost2010PropOp54
 70
     1
102
RTVSPost2010Prop55
280
     0
102
RTVSPost2010PropOp55
 70
     1
102
RTVSPost2010Prop56
140
1.0
102
RTVSPost2010PropOp56
 70
     1
102
RTVSPost2010Prop57
140
1.0
102
RTVSPost2010PropOp57
 70
     1
102
RTVSPropertyOp0
 70
     1
102
RTVSPropertyOp1
 70
     1
102
RTVSPropertyOp2
 70
     1
102
RTVSPropertyOp3
 70
     1
102
RTVSPropertyOp4
 70
     1
102
RTVSPropertyOp5
 70
     1
102
RTVSPropertyOp6
 70
     1
102
RTVSPropertyOp7
 70
     1
102
RTVSPropertyOp8
 70
     1
102
RTVSPropertyOp9
 70
     1
102
RTVSPropertyOp10
 70
     1
102
RTVSPropertyOp11
 70
     1
102
RTVSPropertyOp12
 70
     1
102
RTVSPropertyOp13
 70
     1
102
RTVSPropertyOp14
 70
     1
102
RTVSPropertyOp15
 70
     1
102
RTVSPropertyOp16
 70
     1
102
RTVSPropertyOp17
 70
     1
102
RTVSPropertyOp18
 70
     1
102
RTVSPropertyOp19
 70
     1
102
RTVSPropertyOp20
 70
     1
102
RTVSPropertyOp21
 70
     1
102
RTVSPropertyOp22
 70
     1
102
RTVSPropertyOp23
 70
     1
102
RTVSPropertyOp24
 70
     1
102
RTVSPropertyOp25
 70
     1
102
RTVSPropertyOp26
 70
     1
102
RTVSPropertyOp27
 70
     1
102
RTVSPropertyOp28
 70
     1
102
RTVSPropertyOp29
 70
     1
102
RTVSPropertyOp30
 70
     1
102
RTVSPropertyOp31
 70
     1
102
RTVSPropertyOp32
 70
     1
102
RTVSPropertyOp33
 70
     1
102
RTVSPropertyOp34
 70
     1
102
RTVSPropertyOp35
 70
     1
102
RTVSPropertyOp36
 70
     1
102
RTVSPropertyOp37
 70
     1
102
RTVSPropertyOp38
 70
     1
102
RTVSPropertyOp39
 70
     1
102
RTVSPropertyOp40
 70
     1
102
RTVSPropertyOp41
 70
     1
102
RTVSPropertyOp42
 70
     1
102
RTVSPropertyOp43
 70
     1
102
RTVSPropertyOp44
 70
     1
102
RTVSPropertyOp45
 70
     1
102
RTVSPropertyOp46
 70
     1
102
RTVSPropertyOp47
 70
     1
102
RTVSPropertyOp48
 70
     1
102
RTVSPropertyOp49
 70
     1
102
RTVSPropertyOp50
 70
     1
102
RTVSPropertyOp51
 70
     0
102
RTVSPropertyOp52
 70
     0
102
RTVSPropertyOp53
 70
     1
102
RTVSPropertyOp54
 70
     1
102
RTVSPropertyOp55
 70
     1
102
RTVSPropertyOp56
 70
     1
102
RTVSPropertyOp57
 70
     1
102
RTVSPropertyOp58
 70
     1
102
RTVSPropertyOp59
 70
     1
102
RTVSPropertyOp60
 70
     1
102
RTVSPropertyOp61
 70
     1
102
RTVSPropertyOp62
 70
     1
  0
XRECORD
  5
B1BE
102
{ACAD_REACTORS
330
B1BD
102
}
330
B1BD
100
AcDbXrecord
280
     1
102
RTVSPost2010Prop28
280
     0
102
RTVSPost2010PropOp28
 70
     1
102
RTVSPost2010Prop29
280
     1
102
RTVSPost2010PropOp29
 70
     1
102
RTVSPost2010Prop30
280
     1
102
RTVSPost2010PropOp30
 70
     1
102
RTVSPost2010Prop31
280
     0
102
RTVSPost2010PropOp31
 70
     1
102
RTVSPost2010Prop32
280
     0
102
RTVSPost2010PropOp32
 70
     1
102
RTVSPost2010Prop33
280
     0
102
RTVSPost2010PropOp33
 70
     1
102
RTVSPost2010Prop34
280
     0
102
RTVSPost2010PropOp34
 70
     1
102
RTVSPost2010Prop35
280
     0
102
RTVSPost2010PropOp35
 70
     1
102
RTVSPost2010Prop36
280
     0
102
RTVSPost2010PropOp36
 70
     1
102
RTVSPost2010Prop37
 90
       50
102
RTVSPost2010PropOp37
 70
     1
102
RTVSPost2010Prop38
140
0.0
102
RTVSPost2010PropOp38
 70
     1
102
RTVSPost2010Prop39
140
1.0
102
RTVSPost2010PropOp39
 70
     1
102
RTVSPost2010Prop40
 90
        0
102
RTVSPost2010PropOp40
 70
     1
102
RTVSPost2010Prop41ColorIndex
 90
       18
102
RTVSPost2010Prop41ColorRGB
 90
        0
102
RTVSPost2010PropOp41
 70
     1
102
RTVSPost2010Prop42
 90
       50
102
RTVSPost2010PropOp42
 70
     1
102
RTVSPost2010Prop43
 90
        3
102
RTVSPost2010PropOp43
 70
     1
102
RTVSPost2010Prop44ColorIndex
 90
        5
102
RTVSPost2010Prop44ColorRGB
 90
      255
102
RTVSPost2010PropOp44
 70
     1
102
RTVSPost2010Prop45
280
     0
102
RTVSPost2010PropOp45
 70
     1
102
RTVSPost2010Prop46
 90
       50
102
RTVSPost2010PropOp46
 70
     1
102
RTVSPost2010Prop47
 90
       50
102
RTVSPost2010PropOp47
 70
     1
102
RTVSPost2010Prop48
 90
       50
102
RTVSPost2010PropOp48
 70
     1
102
RTVSPost2010Prop49
280
     0
102
RTVSPost2010PropOp49
 70
     1
102
RTVSPost2010Prop50
 90
       50
102
RTVSPost2010PropOp50
 70
     1
102
RTVSPost2010Prop51ColorIndex
 90
      256
102
RTVSPost2010Prop51ColorRGB
 90
-16777216
102
RTVSPost2010PropOp51
 70
     0
102
RTVSPost2010Prop52
140
1.0
102
RTVSPost2010PropOp52
 70
     0
102
RTVSPost2010Prop53
 90
        2
102
RTVSPost2010PropOp53
 70
     1
102
RTVSPost2010Prop54
  1
strokes_ogs.tif
102
RTVSPost2010PropOp54
 70
     1
102
RTVSPost2010Prop55
280
     0
102
RTVSPost2010PropOp55
 70
     1
102
RTVSPost2010Prop56
140
1.0
102
RTVSPost2010PropOp56
 70
     1
102
RTVSPost2010Prop57
140
1.0
102
RTVSPost2010PropOp57
 70
     1
102
RTVSPropertyOp0
 70
     1
102
RTVSPropertyOp1
 70
     1
102
RTVSPropertyOp2
 70
     1
102
RTVSPropertyOp3
 70
     1
102
RTVSPropertyOp4
 70
     1
102
RTVSPropertyOp5
 70
     1
102
RTVSPropertyOp6
 70
     1
102
RTVSPropertyOp7
 70
     1
102
RTVSPropertyOp8
 70
     1
102
RTVSPropertyOp9
 70
     1
102
RTVSPropertyOp10
 70
     1
102
RTVSPropertyOp11
 70
     1
102
RTVSPropertyOp12
 70
     1
102
RTVSPropertyOp13
 70
     1
102
RTVSPropertyOp14
 70
     1
102
RTVSPropertyOp15
 70
     1
102
RTVSPropertyOp16
 70
     1
102
RTVSPropertyOp17
 70
     1
102
RTVSPropertyOp18
 70
     1
102
RTVSPropertyOp19
 70
     1
102
RTVSPropertyOp20
 70
     1
102
RTVSPropertyOp21
 70
     1
102
RTVSPropertyOp22
 70
     1
102
RTVSPropertyOp23
 70
     1
102
RTVSPropertyOp24
 70
     1
102
RTVSPropertyOp25
 70
     1
102
RTVSPropertyOp26
 70
     1
102
RTVSPropertyOp27
 70
     1
102
RTVSPropertyOp28
 70
     1
102
RTVSPropertyOp29
 70
     1
102
RTVSPropertyOp30
 70
     1
102
RTVSPropertyOp31
 70
     1
102
RTVSPropertyOp32
 70
     1
102
RTVSPropertyOp33
 70
     1
102
RTVSPropertyOp34
 70
     1
102
RTVSPropertyOp35
 70
     1
102
RTVSPropertyOp36
 70
     1
102
RTVSPropertyOp37
 70
     1
102
RTVSPropertyOp38
 70
     1
102
RTVSPropertyOp39
 70
     1
102
RTVSPropertyOp40
 70
     1
102
RTVSPropertyOp41
 70
     1
102
RTVSPropertyOp42
 70
     1
102
RTVSPropertyOp43
 70
     1
102
RTVSPropertyOp44
 70
     1
102
RTVSPropertyOp45
 70
     1
102
RTVSPropertyOp46
 70
     1
102
RTVSPropertyOp47
 70
     1
102
RTVSPropertyOp48
 70
     1
102
RTVSPropertyOp49
 70
     1
102
RTVSPropertyOp50
 70
     1
102
RTVSPropertyOp51
 70
     0
102
RTVSPropertyOp52
 70
     0
102
RTVSPropertyOp53
 70
     1
102
RTVSPropertyOp54
 70
     1
102
RTVSPropertyOp55
 70
     1
102
RTVSPropertyOp56
 70
     1
102
RTVSPropertyOp57
 70
     1
102
RTVSPropertyOp58
 70
     1
102
RTVSPropertyOp59
 70
     1
102
RTVSPropertyOp60
 70
     1
102
RTVSPropertyOp61
 70
     1
102
RTVSPropertyOp62
 70
     1
  0
XRECORD
  5
B1C2
102
{ACAD_REACTORS
330
B1C1
102
}
330
B1C1
100
AcDbXrecord
280
     1
102
RTVSPost2010Prop28
280
     0
102
RTVSPost2010PropOp28
 70
     1
102
RTVSPost2010Prop29
280
     1
102
RTVSPost2010PropOp29
 70
     1
102
RTVSPost2010Prop30
280
     1
102
RTVSPost2010PropOp30
 70
     1
102
RTVSPost2010Prop31
280
     0
102
RTVSPost2010PropOp31
 70
     1
102
RTVSPost2010Prop32
280
     0
102
RTVSPost2010PropOp32
 70
     1
102
RTVSPost2010Prop33
280
     0
102
RTVSPost2010PropOp33
 70
     1
102
RTVSPost2010Prop34
280
     0
102
RTVSPost2010PropOp34
 70
     1
102
RTVSPost2010Prop35
280
     0
102
RTVSPost2010PropOp35
 70
     1
102
RTVSPost2010Prop36
280
     0
102
RTVSPost2010PropOp36
 70
     1
102
RTVSPost2010Prop37
 90
       50
102
RTVSPost2010PropOp37
 70
     1
102
RTVSPost2010Prop38
140
0.0
102
RTVSPost2010PropOp38
 70
     1
102
RTVSPost2010Prop39
140
1.0
102
RTVSPost2010PropOp39
 70
     1
102
RTVSPost2010Prop40
 90
        0
102
RTVSPost2010PropOp40
 70
     1
102
RTVSPost2010Prop41ColorIndex
 90
       18
102
RTVSPost2010Prop41ColorRGB
 90
        0
102
RTVSPost2010PropOp41
 70
     1
102
RTVSPost2010Prop42
 90
       50
102
RTVSPost2010PropOp42
 70
     1
102
RTVSPost2010Prop43
 90
        3
102
RTVSPost2010PropOp43
 70
     1
102
RTVSPost2010Prop44ColorIndex
 90
        5
102
RTVSPost2010Prop44ColorRGB
 90
      255
102
RTVSPost2010PropOp44
 70
     1
102
RTVSPost2010Prop45
280
     0
102
RTVSPost2010PropOp45
 70
     1
102
RTVSPost2010Prop46
 90
       50
102
RTVSPost2010PropOp46
 70
     1
102
RTVSPost2010Prop47
 90
       50
102
RTVSPost2010PropOp47
 70
     1
102
RTVSPost2010Prop48
 90
       50
102
RTVSPost2010PropOp48
 70
     1
102
RTVSPost2010Prop49
280
     0
102
RTVSPost2010PropOp49
 70
     1
102
RTVSPost2010Prop50
 90
       50
102
RTVSPost2010PropOp50
 70
     1
102
RTVSPost2010Prop51ColorIndex
 90
      256
102
RTVSPost2010Prop51ColorRGB
 90
-16777216
102
RTVSPost2010PropOp51
 70
     0
102
RTVSPost2010Prop52
140
1.0
102
RTVSPost2010PropOp52
 70
     0
102
RTVSPost2010Prop53
 90
        2
102
RTVSPost2010PropOp53
 70
     1
102
RTVSPost2010Prop54
  1
strokes_ogs.tif
102
RTVSPost2010PropOp54
 70
     1
102
RTVSPost2010Prop55
280
     0
102
RTVSPost2010PropOp55
 70
     1
102
RTVSPost2010Prop56
140
1.0
102
RTVSPost2010PropOp56
 70
     1
102
RTVSPost2010Prop57
140
1.0
102
RTVSPost2010PropOp57
 70
     1
102
RTVSPropertyOp0
 70
     1
102
RTVSPropertyOp1
 70
     1
102
RTVSPropertyOp2
 70
     1
102
RTVSPropertyOp3
 70
     1
102
RTVSPropertyOp4
 70
     1
102
RTVSPropertyOp5
 70
     1
102
RTVSPropertyOp6
 70
     1
102
RTVSPropertyOp7
 70
     1
102
RTVSPropertyOp8
 70
     1
102
RTVSPropertyOp9
 70
     1
102
RTVSPropertyOp10
 70
     1
102
RTVSPropertyOp11
 70
     1
102
RTVSPropertyOp12
 70
     1
102
RTVSPropertyOp13
 70
     1
102
RTVSPropertyOp14
 70
     1
102
RTVSPropertyOp15
 70
     1
102
RTVSPropertyOp16
 70
     1
102
RTVSPropertyOp17
 70
     1
102
RTVSPropertyOp18
 70
     1
102
RTVSPropertyOp19
 70
     1
102
RTVSPropertyOp20
 70
     1
102
RTVSPropertyOp21
 70
     1
102
RTVSPropertyOp22
 70
     1
102
RTVSPropertyOp23
 70
     1
102
RTVSPropertyOp24
 70
     1
102
RTVSPropertyOp25
 70
     1
102
RTVSPropertyOp26
 70
     1
102
RTVSPropertyOp27
 70
     1
102
RTVSPropertyOp28
 70
     1
102
RTVSPropertyOp29
 70
     1
102
RTVSPropertyOp30
 70
     1
102
RTVSPropertyOp31
 70
     1
102
RTVSPropertyOp32
 70
     1
102
RTVSPropertyOp33
 70
     1
102
RTVSPropertyOp34
 70
     1
102
RTVSPropertyOp35
 70
     1
102
RTVSPropertyOp36
 70
     1
102
RTVSPropertyOp37
 70
     1
102
RTVSPropertyOp38
 70
     1
102
RTVSPropertyOp39
 70
     1
102
RTVSPropertyOp40
 70
     1
102
RTVSPropertyOp41
 70
     1
102
RTVSPropertyOp42
 70
     1
102
RTVSPropertyOp43
 70
     1
102
RTVSPropertyOp44
 70
     1
102
RTVSPropertyOp45
 70
     1
102
RTVSPropertyOp46
 70
     1
102
RTVSPropertyOp47
 70
     1
102
RTVSPropertyOp48
 70
     1
102
RTVSPropertyOp49
 70
     1
102
RTVSPropertyOp50
 70
     1
102
RTVSPropertyOp51
 70
     0
102
RTVSPropertyOp52
 70
     0
102
RTVSPropertyOp53
 70
     1
102
RTVSPropertyOp54
 70
     1
102
RTVSPropertyOp55
 70
     1
102
RTVSPropertyOp56
 70
     1
102
RTVSPropertyOp57
 70
     1
102
RTVSPropertyOp58
 70
     1
102
RTVSPropertyOp59
 70
     1
102
RTVSPropertyOp60
 70
     1
102
RTVSPropertyOp61
 70
     1
102
RTVSPropertyOp62
 70
     1
  0
XRECORD
  5
B1DC
102
{ACAD_REACTORS
330
B1DB
102
}
330
B1DB
100
AcDbXrecord
280
     1
102
RTVSPost2010Prop28
280
     0
102
RTVSPost2010PropOp28
 70
     0
102
RTVSPost2010Prop29
280
     1
102
RTVSPost2010PropOp29
 70
     0
102
RTVSPost2010Prop30
280
     1
102
RTVSPost2010PropOp30
 70
     0
102
RTVSPost2010Prop31
280
     0
102
RTVSPost2010PropOp31
 70
     0
102
RTVSPost2010Prop32
280
     0
102
RTVSPost2010PropOp32
 70
     0
102
RTVSPost2010Prop33
280
     0
102
RTVSPost2010PropOp33
 70
     0
102
RTVSPost2010Prop34
280
     0
102
RTVSPost2010PropOp34
 70
     0
102
RTVSPost2010Prop35
280
     0
102
RTVSPost2010PropOp35
 70
     0
102
RTVSPost2010Prop36
280
     0
102
RTVSPost2010PropOp36
 70
     0
102
RTVSPost2010Prop37
 90
       50
102
RTVSPost2010PropOp37
 70
     0
102
RTVSPost2010Prop38
140
0.0
102
RTVSPost2010PropOp38
 70
     0
102
RTVSPost2010Prop39
140
1.0
102
RTVSPost2010PropOp39
 70
     0
102
RTVSPost2010Prop40
 90
        0
102
RTVSPost2010PropOp40
 70
     0
102
RTVSPost2010Prop41ColorIndex
 90
       18
102
RTVSPost2010Prop41ColorRGB
 90
        0
102
RTVSPost2010PropOp41
 70
     0
102
RTVSPost2010Prop42
 90
       50
102
RTVSPost2010PropOp42
 70
     0
102
RTVSPost2010Prop43
 90
        3
102
RTVSPost2010PropOp43
 70
     0
102
RTVSPost2010Prop44ColorIndex
 90
        5
102
RTVSPost2010Prop44ColorRGB
 90
      255
102
RTVSPost2010PropOp44
 70
     0
102
RTVSPost2010Prop45
280
     0
102
RTVSPost2010PropOp45
 70
     0
102
RTVSPost2010Prop46
 90
       50
102
RTVSPost2010PropOp46
 70
     0
102
RTVSPost2010Prop47
 90
       50
102
RTVSPost2010PropOp47
 70
     0
102
RTVSPost2010Prop48
 90
       50
102
RTVSPost2010PropOp48
 70
     0
102
RTVSPost2010Prop49
280
     0
102
RTVSPost2010PropOp49
 70
     0
102
RTVSPost2010Prop50
 90
       50
102
RTVSPost2010PropOp50
 70
     0
102
RTVSPost2010Prop51ColorIndex
 90
      256
102
RTVSPost2010Prop51ColorRGB
 90
-16777216
102
RTVSPost2010PropOp51
 70
     0
102
RTVSPost2010Prop52
140
1.0
102
RTVSPost2010PropOp52
 70
     0
102
RTVSPost2010Prop53
 90
        2
102
RTVSPost2010PropOp53
 70
     0
102
RTVSPost2010Prop54
  1
strokes_ogs.tif
102
RTVSPost2010PropOp54
 70
     0
102
RTVSPost2010Prop55
280
     0
102
RTVSPost2010PropOp55
 70
     0
102
RTVSPost2010Prop56
140
1.0
102
RTVSPost2010PropOp56
 70
     0
102
RTVSPost2010Prop57
140
1.0
102
RTVSPost2010PropOp57
 70
     0
102
RTVSPropertyOp0
 70
     0
102
RTVSPropertyOp1
 70
     0
102
RTVSPropertyOp2
 70
     0
102
RTVSPropertyOp3
 70
     0
102
RTVSPropertyOp4
 70
     0
102
RTVSPropertyOp5
 70
     0
102
RTVSPropertyOp6
 70
     0
102
RTVSPropertyOp7
 70
     0
102
RTVSPropertyOp8
 70
     0
102
RTVSPropertyOp9
 70
     0
102
RTVSPropertyOp10
 70
     0
102
RTVSPropertyOp11
 70
     0
102
RTVSPropertyOp12
 70
     0
102
RTVSPropertyOp13
 70
     0
102
RTVSPropertyOp14
 70
     2
102
RTVSPropertyOp15
 70
     0
102
RTVSPropertyOp16
 70
     0
102
RTVSPropertyOp17
 70
     0
102
RTVSPropertyOp18
 70
     0
102
RTVSPropertyOp19
 70
     0
102
RTVSPropertyOp20
 70
     0
102
RTVSPropertyOp21
 70
     0
102
RTVSPropertyOp22
 70
     0
102
RTVSPropertyOp23
 70
     0
102
RTVSPropertyOp24
 70
     0
102
RTVSPropertyOp25
 70
     0
102
RTVSPropertyOp26
 70
     0
102
RTVSPropertyOp27
 70
     0
102
RTVSPropertyOp28
 70
     0
102
RTVSPropertyOp29
 70
     0
102
RTVSPropertyOp30
 70
     0
102
RTVSPropertyOp31
 70
     0
102
RTVSPropertyOp32
 70
     0
102
RTVSPropertyOp33
 70
     0
102
RTVSPropertyOp34
 70
     0
102
RTVSPropertyOp35
 70
     0
102
RTVSPropertyOp36
 70
     0
102
RTVSPropertyOp37
 70
     0
102
RTVSPropertyOp38
 70
     0
102
RTVSPropertyOp39
 70
     0
102
RTVSPropertyOp40
 70
     0
102
RTVSPropertyOp41
 70
     0
102
RTVSPropertyOp42
 70
     0
102
RTVSPropertyOp43
 70
     0
102
RTVSPropertyOp44
 70
     0
102
RTVSPropertyOp45
 70
     0
102
RTVSPropertyOp46
 70
     0
102
RTVSPropertyOp47
 70
     0
102
RTVSPropertyOp48
 70
     0
102
RTVSPropertyOp49
 70
     0
102
RTVSPropertyOp50
 70
     0
102
RTVSPropertyOp51
 70
     0
102
RTVSPropertyOp52
 70
     0
102
RTVSPropertyOp53
 70
     0
102
RTVSPropertyOp54
 70
     0
102
RTVSPropertyOp55
 70
     0
102
RTVSPropertyOp56
 70
     0
102
RTVSPropertyOp57
 70
     0
102
RTVSPropertyOp58
 70
     0
102
RTVSPropertyOp59
 70
     0
102
RTVSPropertyOp60
 70
     0
102
RTVSPropertyOp61
 70
     0
102
RTVSPropertyOp62
 70
     0
  0
XRECORD
  5
B1CA
102
{ACAD_REACTORS
330
B1C9
102
}
330
B1C9
100
AcDbXrecord
280
     1
102
RTVSPost2010Prop28
280
     0
102
RTVSPost2010PropOp28
 70
     1
102
RTVSPost2010Prop29
280
     1
102
RTVSPost2010PropOp29
 70
     1
102
RTVSPost2010Prop30
280
     1
102
RTVSPost2010PropOp30
 70
     1
102
RTVSPost2010Prop31
280
     0
102
RTVSPost2010PropOp31
 70
     1
102
RTVSPost2010Prop32
280
     0
102
RTVSPost2010PropOp32
 70
     1
102
RTVSPost2010Prop33
280
     0
102
RTVSPost2010PropOp33
 70
     1
102
RTVSPost2010Prop34
280
     0
102
RTVSPost2010PropOp34
 70
     1
102
RTVSPost2010Prop35
280
     0
102
RTVSPost2010PropOp35
 70
     1
102
RTVSPost2010Prop36
280
     0
102
RTVSPost2010PropOp36
 70
     1
102
RTVSPost2010Prop37
 90
       50
102
RTVSPost2010PropOp37
 70
     1
102
RTVSPost2010Prop38
140
0.0
102
RTVSPost2010PropOp38
 70
     1
102
RTVSPost2010Prop39
140
1.0
102
RTVSPost2010PropOp39
 70
     1
102
RTVSPost2010Prop40
 90
        0
102
RTVSPost2010PropOp40
 70
     1
102
RTVSPost2010Prop41ColorIndex
 90
       18
102
RTVSPost2010Prop41ColorRGB
 90
        0
102
RTVSPost2010PropOp41
 70
     1
102
RTVSPost2010Prop42
 90
       50
102
RTVSPost2010PropOp42
 70
     1
102
RTVSPost2010Prop43
 90
        3
102
RTVSPost2010PropOp43
 70
     1
102
RTVSPost2010Prop44ColorIndex
 90
        5
102
RTVSPost2010Prop44ColorRGB
 90
      255
102
RTVSPost2010PropOp44
 70
     1
102
RTVSPost2010Prop45
280
     0
102
RTVSPost2010PropOp45
 70
     1
102
RTVSPost2010Prop46
 90
       50
102
RTVSPost2010PropOp46
 70
     1
102
RTVSPost2010Prop47
 90
       50
102
RTVSPost2010PropOp47
 70
     1
102
RTVSPost2010Prop48
 90
       50
102
RTVSPost2010PropOp48
 70
     1
102
RTVSPost2010Prop49
280
     0
102
RTVSPost2010PropOp49
 70
     1
102
RTVSPost2010Prop50
 90
       50
102
RTVSPost2010PropOp50
 70
     1
102
RTVSPost2010Prop51ColorIndex
 90
      256
102
RTVSPost2010Prop51ColorRGB
 90
-16777216
102
RTVSPost2010PropOp51
 70
     0
102
RTVSPost2010Prop52
140
1.0
102
RTVSPost2010PropOp52
 70
     0
102
RTVSPost2010Prop53
 90
        2
102
RTVSPost2010PropOp53
 70
     1
102
RTVSPost2010Prop54
  1
strokes_ogs.tif
102
RTVSPost2010PropOp54
 70
     1
102
RTVSPost2010Prop55
280
     0
102
RTVSPost2010PropOp55
 70
     1
102
RTVSPost2010Prop56
140
1.0
102
RTVSPost2010PropOp56
 70
     1
102
RTVSPost2010Prop57
140
1.0
102
RTVSPost2010PropOp57
 70
     1
102
RTVSPropertyOp0
 70
     1
102
RTVSPropertyOp1
 70
     1
102
RTVSPropertyOp2
 70
     1
102
RTVSPropertyOp3
 70
     1
102
RTVSPropertyOp4
 70
     1
102
RTVSPropertyOp5
 70
     1
102
RTVSPropertyOp6
 70
     1
102
RTVSPropertyOp7
 70
     1
102
RTVSPropertyOp8
 70
     1
102
RTVSPropertyOp9
 70
     1
102
RTVSPropertyOp10
 70
     1
102
RTVSPropertyOp11
 70
     1
102
RTVSPropertyOp12
 70
     1
102
RTVSPropertyOp13
 70
     1
102
RTVSPropertyOp14
 70
     1
102
RTVSPropertyOp15
 70
     1
102
RTVSPropertyOp16
 70
     1
102
RTVSPropertyOp17
 70
     1
102
RTVSPropertyOp18
 70
     1
102
RTVSPropertyOp19
 70
     1
102
RTVSPropertyOp20
 70
     1
102
RTVSPropertyOp21
 70
     1
102
RTVSPropertyOp22
 70
     1
102
RTVSPropertyOp23
 70
     1
102
RTVSPropertyOp24
 70
     1
102
RTVSPropertyOp25
 70
     1
102
RTVSPropertyOp26
 70
     1
102
RTVSPropertyOp27
 70
     1
102
RTVSPropertyOp28
 70
     1
102
RTVSPropertyOp29
 70
     1
102
RTVSPropertyOp30
 70
     1
102
RTVSPropertyOp31
 70
     1
102
RTVSPropertyOp32
 70
     1
102
RTVSPropertyOp33
 70
     1
102
RTVSPropertyOp34
 70
     1
102
RTVSPropertyOp35
 70
     1
102
RTVSPropertyOp36
 70
     1
102
RTVSPropertyOp37
 70
     1
102
RTVSPropertyOp38
 70
     1
102
RTVSPropertyOp39
 70
     1
102
RTVSPropertyOp40
 70
     1
102
RTVSPropertyOp41
 70
     1
102
RTVSPropertyOp42
 70
     1
102
RTVSPropertyOp43
 70
     1
102
RTVSPropertyOp44
 70
     1
102
RTVSPropertyOp45
 70
     1
102
RTVSPropertyOp46
 70
     1
102
RTVSPropertyOp47
 70
     1
102
RTVSPropertyOp48
 70
     1
102
RTVSPropertyOp49
 70
     1
102
RTVSPropertyOp50
 70
     1
102
RTVSPropertyOp51
 70
     0
102
RTVSPropertyOp52
 70
     0
102
RTVSPropertyOp53
 70
     1
102
RTVSPropertyOp54
 70
     1
102
RTVSPropertyOp55
 70
     1
102
RTVSPropertyOp56
 70
     1
102
RTVSPropertyOp57
 70
     1
102
RTVSPropertyOp58
 70
     1
102
RTVSPropertyOp59
 70
     1
102
RTVSPropertyOp60
 70
     1
102
RTVSPropertyOp61
 70
     1
102
RTVSPropertyOp62
 70
     1
  0
XRECORD
  5
B1AE
102
{ACAD_REACTORS
330
B1AD
102
}
330
B1AD
100
AcDbXrecord
280
     1
102
RTVSPost2010Prop28
280
     0
102
RTVSPost2010PropOp28
 70
     1
102
RTVSPost2010Prop29
280
     1
102
RTVSPost2010PropOp29
 70
     1
102
RTVSPost2010Prop30
280
     1
102
RTVSPost2010PropOp30
 70
     1
102
RTVSPost2010Prop31
280
     0
102
RTVSPost2010PropOp31
 70
     1
102
RTVSPost2010Prop32
280
     0
102
RTVSPost2010PropOp32
 70
     1
102
RTVSPost2010Prop33
280
     0
102
RTVSPost2010PropOp33
 70
     1
102
RTVSPost2010Prop34
280
     0
102
RTVSPost2010PropOp34
 70
     1
102
RTVSPost2010Prop35
280
     0
102
RTVSPost2010PropOp35
 70
     1
102
RTVSPost2010Prop36
280
     0
102
RTVSPost2010PropOp36
 70
     1
102
RTVSPost2010Prop37
 90
       50
102
RTVSPost2010PropOp37
 70
     1
102
RTVSPost2010Prop38
140
0.0
102
RTVSPost2010PropOp38
 70
     1
102
RTVSPost2010Prop39
140
1.0
102
RTVSPost2010PropOp39
 70
     1
102
RTVSPost2010Prop40
 90
        0
102
RTVSPost2010PropOp40
 70
     1
102
RTVSPost2010Prop41ColorIndex
 90
       18
102
RTVSPost2010Prop41ColorRGB
 90
        0
102
RTVSPost2010PropOp41
 70
     1
102
RTVSPost2010Prop42
 90
       50
102
RTVSPost2010PropOp42
 70
     1
102
RTVSPost2010Prop43
 90
        3
102
RTVSPost2010PropOp43
 70
     1
102
RTVSPost2010Prop44ColorIndex
 90
        5
102
RTVSPost2010Prop44ColorRGB
 90
      255
102
RTVSPost2010PropOp44
 70
     1
102
RTVSPost2010Prop45
280
     0
102
RTVSPost2010PropOp45
 70
     1
102
RTVSPost2010Prop46
 90
       50
102
RTVSPost2010PropOp46
 70
     1
102
RTVSPost2010Prop47
 90
       50
102
RTVSPost2010PropOp47
 70
     1
102
RTVSPost2010Prop48
 90
       50
102
RTVSPost2010PropOp48
 70
     1
102
RTVSPost2010Prop49
280
     0
102
RTVSPost2010PropOp49
 70
     1
102
RTVSPost2010Prop50
 90
       50
102
RTVSPost2010PropOp50
 70
     1
102
RTVSPost2010Prop51ColorIndex
 90
      256
102
RTVSPost2010Prop51ColorRGB
 90
-16777216
102
RTVSPost2010PropOp51
 70
     0
102
RTVSPost2010Prop52
140
1.0
102
RTVSPost2010PropOp52
 70
     0
102
RTVSPost2010Prop53
 90
        2
102
RTVSPost2010PropOp53
 70
     1
102
RTVSPost2010Prop54
  1
strokes_ogs.tif
102
RTVSPost2010PropOp54
 70
     1
102
RTVSPost2010Prop55
280
     0
102
RTVSPost2010PropOp55
 70
     1
102
RTVSPost2010Prop56
140
1.0
102
RTVSPost2010PropOp56
 70
     1
102
RTVSPost2010Prop57
140
1.0
102
RTVSPost2010PropOp57
 70
     1
102
RTVSPropertyOp0
 70
     1
102
RTVSPropertyOp1
 70
     1
102
RTVSPropertyOp2
 70
     1
102
RTVSPropertyOp3
 70
     1
102
RTVSPropertyOp4
 70
     1
102
RTVSPropertyOp5
 70
     1
102
RTVSPropertyOp6
 70
     1
102
RTVSPropertyOp7
 70
     1
102
RTVSPropertyOp8
 70
     1
102
RTVSPropertyOp9
 70
     1
102
RTVSPropertyOp10
 70
     1
102
RTVSPropertyOp11
 70
     1
102
RTVSPropertyOp12
 70
     1
102
RTVSPropertyOp13
 70
     1
102
RTVSPropertyOp14
 70
     1
102
RTVSPropertyOp15
 70
     1
102
RTVSPropertyOp16
 70
     1
102
RTVSPropertyOp17
 70
     1
102
RTVSPropertyOp18
 70
     1
102
RTVSPropertyOp19
 70
     1
102
RTVSPropertyOp20
 70
     1
102
RTVSPropertyOp21
 70
     1
102
RTVSPropertyOp22
 70
     1
102
RTVSPropertyOp23
 70
     1
102
RTVSPropertyOp24
 70
     1
102
RTVSPropertyOp25
 70
     1
102
RTVSPropertyOp26
 70
     1
102
RTVSPropertyOp27
 70
     1
102
RTVSPropertyOp28
 70
     1
102
RTVSPropertyOp29
 70
     1
102
RTVSPropertyOp30
 70
     1
102
RTVSPropertyOp31
 70
     1
102
RTVSPropertyOp32
 70
     1
102
RTVSPropertyOp33
 70
     1
102
RTVSPropertyOp34
 70
     1
102
RTVSPropertyOp35
 70
     1
102
RTVSPropertyOp36
 70
     1
102
RTVSPropertyOp37
 70
     1
102
RTVSPropertyOp38
 70
     1
102
RTVSPropertyOp39
 70
     1
102
RTVSPropertyOp40
 70
     1
102
RTVSPropertyOp41
 70
     1
102
RTVSPropertyOp42
 70
     1
102
RTVSPropertyOp43
 70
     1
102
RTVSPropertyOp44
 70
     1
102
RTVSPropertyOp45
 70
     1
102
RTVSPropertyOp46
 70
     1
102
RTVSPropertyOp47
 70
     1
102
RTVSPropertyOp48
 70
     1
102
RTVSPropertyOp49
 70
     1
102
RTVSPropertyOp50
 70
     1
102
RTVSPropertyOp51
 70
     0
102
RTVSPropertyOp52
 70
     0
102
RTVSPropertyOp53
 70
     1
102
RTVSPropertyOp54
 70
     1
102
RTVSPropertyOp55
 70
     1
102
RTVSPropertyOp56
 70
     1
102
RTVSPropertyOp57
 70
     1
102
RTVSPropertyOp58
 70
     1
102
RTVSPropertyOp59
 70
     1
102
RTVSPropertyOp60
 70
     1
102
RTVSPropertyOp61
 70
     1
102
RTVSPropertyOp62
 70
     1
  0
XRECORD
  5
B1B0
102
{ACAD_REACTORS
330
B1AF
102
}
330
B1AF
100
AcDbXrecord
280
     1
102
RTVSPost2010Prop28
280
     0
102
RTVSPost2010PropOp28
 70
     1
102
RTVSPost2010Prop29
280
     1
102
RTVSPost2010PropOp29
 70
     1
102
RTVSPost2010Prop30
280
     1
102
RTVSPost2010PropOp30
 70
     1
102
RTVSPost2010Prop31
280
     0
102
RTVSPost2010PropOp31
 70
     1
102
RTVSPost2010Prop32
280
     0
102
RTVSPost2010PropOp32
 70
     1
102
RTVSPost2010Prop33
280
     0
102
RTVSPost2010PropOp33
 70
     1
102
RTVSPost2010Prop34
280
     0
102
RTVSPost2010PropOp34
 70
     1
102
RTVSPost2010Prop35
280
     0
102
RTVSPost2010PropOp35
 70
     1
102
RTVSPost2010Prop36
280
     0
102
RTVSPost2010PropOp36
 70
     1
102
RTVSPost2010Prop37
 90
       50
102
RTVSPost2010PropOp37
 70
     1
102
RTVSPost2010Prop38
140
0.0
102
RTVSPost2010PropOp38
 70
     1
102
RTVSPost2010Prop39
140
1.0
102
RTVSPost2010PropOp39
 70
     1
102
RTVSPost2010Prop40
 90
        0
102
RTVSPost2010PropOp40
 70
     1
102
RTVSPost2010Prop41ColorIndex
 90
       18
102
RTVSPost2010Prop41ColorRGB
 90
        0
102
RTVSPost2010PropOp41
 70
     1
102
RTVSPost2010Prop42
 90
       50
102
RTVSPost2010PropOp42
 70
     1
102
RTVSPost2010Prop43
 90
        3
102
RTVSPost2010PropOp43
 70
     1
102
RTVSPost2010Prop44ColorIndex
 90
        5
102
RTVSPost2010Prop44ColorRGB
 90
      255
102
RTVSPost2010PropOp44
 70
     1
102
RTVSPost2010Prop45
280
     0
102
RTVSPost2010PropOp45
 70
     1
102
RTVSPost2010Prop46
 90
       50
102
RTVSPost2010PropOp46
 70
     1
102
RTVSPost2010Prop47
 90
       50
102
RTVSPost2010PropOp47
 70
     1
102
RTVSPost2010Prop48
 90
       50
102
RTVSPost2010PropOp48
 70
     1
102
RTVSPost2010Prop49
280
     0
102
RTVSPost2010PropOp49
 70
     1
102
RTVSPost2010Prop50
 90
       50
102
RTVSPost2010PropOp50
 70
     1
102
RTVSPost2010Prop51ColorIndex
 90
      256
102
RTVSPost2010Prop51ColorRGB
 90
-16777216
102
RTVSPost2010PropOp51
 70
     0
102
RTVSPost2010Prop52
140
1.0
102
RTVSPost2010PropOp52
 70
     0
102
RTVSPost2010Prop53
 90
        2
102
RTVSPost2010PropOp53
 70
     1
102
RTVSPost2010Prop54
  1
strokes_ogs.tif
102
RTVSPost2010PropOp54
 70
     1
102
RTVSPost2010Prop55
280
     0
102
RTVSPost2010PropOp55
 70
     1
102
RTVSPost2010Prop56
140
1.0
102
RTVSPost2010PropOp56
 70
     1
102
RTVSPost2010Prop57
140
1.0
102
RTVSPost2010PropOp57
 70
     1
102
RTVSPropertyOp0
 70
     1
102
RTVSPropertyOp1
 70
     1
102
RTVSPropertyOp2
 70
     1
102
RTVSPropertyOp3
 70
     1
102
RTVSPropertyOp4
 70
     1
102
RTVSPropertyOp5
 70
     1
102
RTVSPropertyOp6
 70
     1
102
RTVSPropertyOp7
 70
     1
102
RTVSPropertyOp8
 70
     1
102
RTVSPropertyOp9
 70
     1
102
RTVSPropertyOp10
 70
     1
102
RTVSPropertyOp11
 70
     1
102
RTVSPropertyOp12
 70
     1
102
RTVSPropertyOp13
 70
     1
102
RTVSPropertyOp14
 70
     1
102
RTVSPropertyOp15
 70
     1
102
RTVSPropertyOp16
 70
     1
102
RTVSPropertyOp17
 70
     1
102
RTVSPropertyOp18
 70
     1
102
RTVSPropertyOp19
 70
     1
102
RTVSPropertyOp20
 70
     1
102
RTVSPropertyOp21
 70
     1
102
RTVSPropertyOp22
 70
     1
102
RTVSPropertyOp23
 70
     1
102
RTVSPropertyOp24
 70
     1
102
RTVSPropertyOp25
 70
     1
102
RTVSPropertyOp26
 70
     1
102
RTVSPropertyOp27
 70
     1
102
RTVSPropertyOp28
 70
     1
102
RTVSPropertyOp29
 70
     1
102
RTVSPropertyOp30
 70
     1
102
RTVSPropertyOp31
 70
     1
102
RTVSPropertyOp32
 70
     1
102
RTVSPropertyOp33
 70
     1
102
RTVSPropertyOp34
 70
     1
102
RTVSPropertyOp35
 70
     1
102
RTVSPropertyOp36
 70
     1
102
RTVSPropertyOp37
 70
     1
102
RTVSPropertyOp38
 70
     1
102
RTVSPropertyOp39
 70
     1
102
RTVSPropertyOp40
 70
     1
102
RTVSPropertyOp41
 70
     1
102
RTVSPropertyOp42
 70
     1
102
RTVSPropertyOp43
 70
     1
102
RTVSPropertyOp44
 70
     1
102
RTVSPropertyOp45
 70
     1
102
RTVSPropertyOp46
 70
     1
102
RTVSPropertyOp47
 70
     1
102
RTVSPropertyOp48
 70
     1
102
RTVSPropertyOp49
 70
     1
102
RTVSPropertyOp50
 70
     1
102
RTVSPropertyOp51
 70
     0
102
RTVSPropertyOp52
 70
     0
102
RTVSPropertyOp53
 70
     1
102
RTVSPropertyOp54
 70
     1
102
RTVSPropertyOp55
 70
     1
102
RTVSPropertyOp56
 70
     1
102
RTVSPropertyOp57
 70
     1
102
RTVSPropertyOp58
 70
     1
102
RTVSPropertyOp59
 70
     1
102
RTVSPropertyOp60
 70
     1
102
RTVSPropertyOp61
 70
     1
102
RTVSPropertyOp62
 70
     1
  0
XRECORD
  5
B1B2
102
{ACAD_REACTORS
330
B1B1
102
}
330
B1B1
100
AcDbXrecord
280
     1
102
RTVSPost2010Prop28
280
     0
102
RTVSPost2010PropOp28
 70
     1
102
RTVSPost2010Prop29
280
     1
102
RTVSPost2010PropOp29
 70
     1
102
RTVSPost2010Prop30
280
     1
102
RTVSPost2010PropOp30
 70
     1
102
RTVSPost2010Prop31
280
     0
102
RTVSPost2010PropOp31
 70
     1
102
RTVSPost2010Prop32
280
     0
102
RTVSPost2010PropOp32
 70
     1
102
RTVSPost2010Prop33
280
     0
102
RTVSPost2010PropOp33
 70
     1
102
RTVSPost2010Prop34
280
     0
102
RTVSPost2010PropOp34
 70
     1
102
RTVSPost2010Prop35
280
     0
102
RTVSPost2010PropOp35
 70
     1
102
RTVSPost2010Prop36
280
     0
102
RTVSPost2010PropOp36
 70
     1
102
RTVSPost2010Prop37
 90
       50
102
RTVSPost2010PropOp37
 70
     1
102
RTVSPost2010Prop38
140
0.0
102
RTVSPost2010PropOp38
 70
     1
102
RTVSPost2010Prop39
140
1.0
102
RTVSPost2010PropOp39
 70
     1
102
RTVSPost2010Prop40
 90
        0
102
RTVSPost2010PropOp40
 70
     1
102
RTVSPost2010Prop41ColorIndex
 90
       18
102
RTVSPost2010Prop41ColorRGB
 90
        0
102
RTVSPost2010PropOp41
 70
     1
102
RTVSPost2010Prop42
 90
       50
102
RTVSPost2010PropOp42
 70
     1
102
RTVSPost2010Prop43
 90
        3
102
RTVSPost2010PropOp43
 70
     1
102
RTVSPost2010Prop44ColorIndex
 90
        5
102
RTVSPost2010Prop44ColorRGB
 90
      255
102
RTVSPost2010PropOp44
 70
     1
102
RTVSPost2010Prop45
280
     0
102
RTVSPost2010PropOp45
 70
     1
102
RTVSPost2010Prop46
 90
       50
102
RTVSPost2010PropOp46
 70
     1
102
RTVSPost2010Prop47
 90
       50
102
RTVSPost2010PropOp47
 70
     1
102
RTVSPost2010Prop48
 90
       50
102
RTVSPost2010PropOp48
 70
     1
102
RTVSPost2010Prop49
280
     0
102
RTVSPost2010PropOp49
 70
     1
102
RTVSPost2010Prop50
 90
       50
102
RTVSPost2010PropOp50
 70
     1
102
RTVSPost2010Prop51ColorIndex
 90
      256
102
RTVSPost2010Prop51ColorRGB
 90
-16777216
102
RTVSPost2010PropOp51
 70
     0
102
RTVSPost2010Prop52
140
1.0
102
RTVSPost2010PropOp52
 70
     0
102
RTVSPost2010Prop53
 90
        2
102
RTVSPost2010PropOp53
 70
     1
102
RTVSPost2010Prop54
  1
strokes_ogs.tif
102
RTVSPost2010PropOp54
 70
     1
102
RTVSPost2010Prop55
280
     0
102
RTVSPost2010PropOp55
 70
     1
102
RTVSPost2010Prop56
140
1.0
102
RTVSPost2010PropOp56
 70
     1
102
RTVSPost2010Prop57
140
1.0
102
RTVSPost2010PropOp57
 70
     1
102
RTVSPropertyOp0
 70
     1
102
RTVSPropertyOp1
 70
     1
102
RTVSPropertyOp2
 70
     1
102
RTVSPropertyOp3
 70
     1
102
RTVSPropertyOp4
 70
     1
102
RTVSPropertyOp5
 70
     1
102
RTVSPropertyOp6
 70
     1
102
RTVSPropertyOp7
 70
     1
102
RTVSPropertyOp8
 70
     1
102
RTVSPropertyOp9
 70
     1
102
RTVSPropertyOp10
 70
     1
102
RTVSPropertyOp11
 70
     1
102
RTVSPropertyOp12
 70
     1
102
RTVSPropertyOp13
 70
     1
102
RTVSPropertyOp14
 70
     1
102
RTVSPropertyOp15
 70
     1
102
RTVSPropertyOp16
 70
     1
102
RTVSPropertyOp17
 70
     1
102
RTVSPropertyOp18
 70
     1
102
RTVSPropertyOp19
 70
     1
102
RTVSPropertyOp20
 70
     1
102
RTVSPropertyOp21
 70
     1
102
RTVSPropertyOp22
 70
     1
102
RTVSPropertyOp23
 70
     1
102
RTVSPropertyOp24
 70
     1
102
RTVSPropertyOp25
 70
     1
102
RTVSPropertyOp26
 70
     1
102
RTVSPropertyOp27
 70
     1
102
RTVSPropertyOp28
 70
     1
102
RTVSPropertyOp29
 70
     1
102
RTVSPropertyOp30
 70
     1
102
RTVSPropertyOp31
 70
     1
102
RTVSPropertyOp32
 70
     1
102
RTVSPropertyOp33
 70
     1
102
RTVSPropertyOp34
 70
     1
102
RTVSPropertyOp35
 70
     1
102
RTVSPropertyOp36
 70
     1
102
RTVSPropertyOp37
 70
     1
102
RTVSPropertyOp38
 70
     1
102
RTVSPropertyOp39
 70
     1
102
RTVSPropertyOp40
 70
     1
102
RTVSPropertyOp41
 70
     1
102
RTVSPropertyOp42
 70
     1
102
RTVSPropertyOp43
 70
     1
102
RTVSPropertyOp44
 70
     1
102
RTVSPropertyOp45
 70
     1
102
RTVSPropertyOp46
 70
     1
102
RTVSPropertyOp47
 70
     1
102
RTVSPropertyOp48
 70
     1
102
RTVSPropertyOp49
 70
     1
102
RTVSPropertyOp50
 70
     1
102
RTVSPropertyOp51
 70
     0
102
RTVSPropertyOp52
 70
     0
102
RTVSPropertyOp53
 70
     1
102
RTVSPropertyOp54
 70
     1
102
RTVSPropertyOp55
 70
     1
102
RTVSPropertyOp56
 70
     1
102
RTVSPropertyOp57
 70
     1
102
RTVSPropertyOp58
 70
     1
102
RTVSPropertyOp59
 70
     1
102
RTVSPropertyOp60
 70
     1
102
RTVSPropertyOp61
 70
     1
102
RTVSPropertyOp62
 70
     1
  0
XRECORD
  5
B1B4
102
{ACAD_REACTORS
330
B1B3
102
}
330
B1B3
100
AcDbXrecord
280
     1
102
RTVSPost2010Prop28
280
     0
102
RTVSPost2010PropOp28
 70
     1
102
RTVSPost2010Prop29
280
     1
102
RTVSPost2010PropOp29
 70
     1
102
RTVSPost2010Prop30
280
     1
102
RTVSPost2010PropOp30
 70
     1
102
RTVSPost2010Prop31
280
     0
102
RTVSPost2010PropOp31
 70
     1
102
RTVSPost2010Prop32
280
     0
102
RTVSPost2010PropOp32
 70
     1
102
RTVSPost2010Prop33
280
     0
102
RTVSPost2010PropOp33
 70
     1
102
RTVSPost2010Prop34
280
     0
102
RTVSPost2010PropOp34
 70
     1
102
RTVSPost2010Prop35
280
     0
102
RTVSPost2010PropOp35
 70
     1
102
RTVSPost2010Prop36
280
     0
102
RTVSPost2010PropOp36
 70
     1
102
RTVSPost2010Prop37
 90
       50
102
RTVSPost2010PropOp37
 70
     1
102
RTVSPost2010Prop38
140
0.0
102
RTVSPost2010PropOp38
 70
     1
102
RTVSPost2010Prop39
140
1.0
102
RTVSPost2010PropOp39
 70
     1
102
RTVSPost2010Prop40
 90
        0
102
RTVSPost2010PropOp40
 70
     1
102
RTVSPost2010Prop41ColorIndex
 90
       18
102
RTVSPost2010Prop41ColorRGB
 90
        0
102
RTVSPost2010PropOp41
 70
     1
102
RTVSPost2010Prop42
 90
       50
102
RTVSPost2010PropOp42
 70
     1
102
RTVSPost2010Prop43
 90
        3
102
RTVSPost2010PropOp43
 70
     1
102
RTVSPost2010Prop44ColorIndex
 90
        5
102
RTVSPost2010Prop44ColorRGB
 90
      255
102
RTVSPost2010PropOp44
 70
     1
102
RTVSPost2010Prop45
280
     0
102
RTVSPost2010PropOp45
 70
     1
102
RTVSPost2010Prop46
 90
       50
102
RTVSPost2010PropOp46
 70
     1
102
RTVSPost2010Prop47
 90
       50
102
RTVSPost2010PropOp47
 70
     1
102
RTVSPost2010Prop48
 90
       50
102
RTVSPost2010PropOp48
 70
     1
102
RTVSPost2010Prop49
280
     0
102
RTVSPost2010PropOp49
 70
     1
102
RTVSPost2010Prop50
 90
       50
102
RTVSPost2010PropOp50
 70
     1
102
RTVSPost2010Prop51ColorIndex
 90
      256
102
RTVSPost2010Prop51ColorRGB
 90
-16777216
102
RTVSPost2010PropOp51
 70
     0
102
RTVSPost2010Prop52
140
1.0
102
RTVSPost2010PropOp52
 70
     0
102
RTVSPost2010Prop53
 90
        2
102
RTVSPost2010PropOp53
 70
     1
102
RTVSPost2010Prop54
  1
strokes_ogs.tif
102
RTVSPost2010PropOp54
 70
     1
102
RTVSPost2010Prop55
280
     0
102
RTVSPost2010PropOp55
 70
     1
102
RTVSPost2010Prop56
140
1.0
102
RTVSPost2010PropOp56
 70
     1
102
RTVSPost2010Prop57
140
1.0
102
RTVSPost2010PropOp57
 70
     1
102
RTVSPropertyOp0
 70
     1
102
RTVSPropertyOp1
 70
     1
102
RTVSPropertyOp2
 70
     1
102
RTVSPropertyOp3
 70
     1
102
RTVSPropertyOp4
 70
     1
102
RTVSPropertyOp5
 70
     1
102
RTVSPropertyOp6
 70
     1
102
RTVSPropertyOp7
 70
     1
102
RTVSPropertyOp8
 70
     1
102
RTVSPropertyOp9
 70
     1
102
RTVSPropertyOp10
 70
     1
102
RTVSPropertyOp11
 70
     1
102
RTVSPropertyOp12
 70
     1
102
RTVSPropertyOp13
 70
     1
102
RTVSPropertyOp14
 70
     1
102
RTVSPropertyOp15
 70
     1
102
RTVSPropertyOp16
 70
     1
102
RTVSPropertyOp17
 70
     1
102
RTVSPropertyOp18
 70
     1
102
RTVSPropertyOp19
 70
     1
102
RTVSPropertyOp20
 70
     1
102
RTVSPropertyOp21
 70
     1
102
RTVSPropertyOp22
 70
     1
102
RTVSPropertyOp23
 70
     1
102
RTVSPropertyOp24
 70
     1
102
RTVSPropertyOp25
 70
     1
102
RTVSPropertyOp26
 70
     1
102
RTVSPropertyOp27
 70
     1
102
RTVSPropertyOp28
 70
     1
102
RTVSPropertyOp29
 70
     1
102
RTVSPropertyOp30
 70
     1
102
RTVSPropertyOp31
 70
     1
102
RTVSPropertyOp32
 70
     1
102
RTVSPropertyOp33
 70
     1
102
RTVSPropertyOp34
 70
     1
102
RTVSPropertyOp35
 70
     1
102
RTVSPropertyOp36
 70
     1
102
RTVSPropertyOp37
 70
     1
102
RTVSPropertyOp38
 70
     1
102
RTVSPropertyOp39
 70
     1
102
RTVSPropertyOp40
 70
     1
102
RTVSPropertyOp41
 70
     1
102
RTVSPropertyOp42
 70
     1
102
RTVSPropertyOp43
 70
     1
102
RTVSPropertyOp44
 70
     1
102
RTVSPropertyOp45
 70
     1
102
RTVSPropertyOp46
 70
     1
102
RTVSPropertyOp47
 70
     1
102
RTVSPropertyOp48
 70
     1
102
RTVSPropertyOp49
 70
     1
102
RTVSPropertyOp50
 70
     1
102
RTVSPropertyOp51
 70
     0
102
RTVSPropertyOp52
 70
     0
102
RTVSPropertyOp53
 70
     1
102
RTVSPropertyOp54
 70
     1
102
RTVSPropertyOp55
 70
     1
102
RTVSPropertyOp56
 70
     1
102
RTVSPropertyOp57
 70
     1
102
RTVSPropertyOp58
 70
     1
102
RTVSPropertyOp59
 70
     1
102
RTVSPropertyOp60
 70
     1
102
RTVSPropertyOp61
 70
     1
102
RTVSPropertyOp62
 70
     1
  0
XRECORD
  5
B1BC
102
{ACAD_REACTORS
330
B1BB
102
}
330
B1BB
100
AcDbXrecord
280
     1
102
RTVSPost2010Prop28
280
     0
102
RTVSPost2010PropOp28
 70
     1
102
RTVSPost2010Prop29
280
     1
102
RTVSPost2010PropOp29
 70
     1
102
RTVSPost2010Prop30
280
     1
102
RTVSPost2010PropOp30
 70
     1
102
RTVSPost2010Prop31
280
     0
102
RTVSPost2010PropOp31
 70
     1
102
RTVSPost2010Prop32
280
     0
102
RTVSPost2010PropOp32
 70
     1
102
RTVSPost2010Prop33
280
     0
102
RTVSPost2010PropOp33
 70
     1
102
RTVSPost2010Prop34
280
     0
102
RTVSPost2010PropOp34
 70
     1
102
RTVSPost2010Prop35
280
     0
102
RTVSPost2010PropOp35
 70
     1
102
RTVSPost2010Prop36
280
     0
102
RTVSPost2010PropOp36
 70
     1
102
RTVSPost2010Prop37
 90
       50
102
RTVSPost2010PropOp37
 70
     1
102
RTVSPost2010Prop38
140
0.0
102
RTVSPost2010PropOp38
 70
     1
102
RTVSPost2010Prop39
140
1.0
102
RTVSPost2010PropOp39
 70
     1
102
RTVSPost2010Prop40
 90
        0
102
RTVSPost2010PropOp40
 70
     1
102
RTVSPost2010Prop41ColorIndex
 90
       18
102
RTVSPost2010Prop41ColorRGB
 90
        0
102
RTVSPost2010PropOp41
 70
     1
102
RTVSPost2010Prop42
 90
       50
102
RTVSPost2010PropOp42
 70
     1
102
RTVSPost2010Prop43
 90
        3
102
RTVSPost2010PropOp43
 70
     1
102
RTVSPost2010Prop44ColorIndex
 90
        5
102
RTVSPost2010Prop44ColorRGB
 90
      255
102
RTVSPost2010PropOp44
 70
     1
102
RTVSPost2010Prop45
280
     0
102
RTVSPost2010PropOp45
 70
     1
102
RTVSPost2010Prop46
 90
       50
102
RTVSPost2010PropOp46
 70
     1
102
RTVSPost2010Prop47
 90
       50
102
RTVSPost2010PropOp47
 70
     1
102
RTVSPost2010Prop48
 90
       50
102
RTVSPost2010PropOp48
 70
     1
102
RTVSPost2010Prop49
280
     0
102
RTVSPost2010PropOp49
 70
     1
102
RTVSPost2010Prop50
 90
       50
102
RTVSPost2010PropOp50
 70
     1
102
RTVSPost2010Prop51ColorIndex
 90
      256
102
RTVSPost2010Prop51ColorRGB
 90
-16777216
102
RTVSPost2010PropOp51
 70
     0
102
RTVSPost2010Prop52
140
1.0
102
RTVSPost2010PropOp52
 70
     0
102
RTVSPost2010Prop53
 90
        2
102
RTVSPost2010PropOp53
 70
     1
102
RTVSPost2010Prop54
  1
strokes_ogs.tif
102
RTVSPost2010PropOp54
 70
     1
102
RTVSPost2010Prop55
280
     0
102
RTVSPost2010PropOp55
 70
     1
102
RTVSPost2010Prop56
140
1.0
102
RTVSPost2010PropOp56
 70
     1
102
RTVSPost2010Prop57
140
1.0
102
RTVSPost2010PropOp57
 70
     1
102
RTVSPropertyOp0
 70
     1
102
RTVSPropertyOp1
 70
     1
102
RTVSPropertyOp2
 70
     1
102
RTVSPropertyOp3
 70
     1
102
RTVSPropertyOp4
 70
     1
102
RTVSPropertyOp5
 70
     1
102
RTVSPropertyOp6
 70
     1
102
RTVSPropertyOp7
 70
     1
102
RTVSPropertyOp8
 70
     1
102
RTVSPropertyOp9
 70
     1
102
RTVSPropertyOp10
 70
     1
102
RTVSPropertyOp11
 70
     1
102
RTVSPropertyOp12
 70
     1
102
RTVSPropertyOp13
 70
     1
102
RTVSPropertyOp14
 70
     1
102
RTVSPropertyOp15
 70
     1
102
RTVSPropertyOp16
 70
     1
102
RTVSPropertyOp17
 70
     1
102
RTVSPropertyOp18
 70
     1
102
RTVSPropertyOp19
 70
     1
102
RTVSPropertyOp20
 70
     1
102
RTVSPropertyOp21
 70
     1
102
RTVSPropertyOp22
 70
     1
102
RTVSPropertyOp23
 70
     1
102
RTVSPropertyOp24
 70
     1
102
RTVSPropertyOp25
 70
     1
102
RTVSPropertyOp26
 70
     1
102
RTVSPropertyOp27
 70
     1
102
RTVSPropertyOp28
 70
     1
102
RTVSPropertyOp29
 70
     1
102
RTVSPropertyOp30
 70
     1
102
RTVSPropertyOp31
 70
     1
102
RTVSPropertyOp32
 70
     1
102
RTVSPropertyOp33
 70
     1
102
RTVSPropertyOp34
 70
     1
102
RTVSPropertyOp35
 70
     1
102
RTVSPropertyOp36
 70
     1
102
RTVSPropertyOp37
 70
     1
102
RTVSPropertyOp38
 70
     1
102
RTVSPropertyOp39
 70
     1
102
RTVSPropertyOp40
 70
     1
102
RTVSPropertyOp41
 70
     1
102
RTVSPropertyOp42
 70
     1
102
RTVSPropertyOp43
 70
     1
102
RTVSPropertyOp44
 70
     1
102
RTVSPropertyOp45
 70
     1
102
RTVSPropertyOp46
 70
     1
102
RTVSPropertyOp47
 70
     1
102
RTVSPropertyOp48
 70
     1
102
RTVSPropertyOp49
 70
     1
102
RTVSPropertyOp50
 70
     1
102
RTVSPropertyOp51
 70
     0
102
RTVSPropertyOp52
 70
     0
102
RTVSPropertyOp53
 70
     1
102
RTVSPropertyOp54
 70
     1
102
RTVSPropertyOp55
 70
     1
102
RTVSPropertyOp56
 70
     1
102
RTVSPropertyOp57
 70
     1
102
RTVSPropertyOp58
 70
     1
102
RTVSPropertyOp59
 70
     1
102
RTVSPropertyOp60
 70
     1
102
RTVSPropertyOp61
 70
     1
102
RTVSPropertyOp62
 70
     1
  0
XRECORD
  5
B1D8
102
{ACAD_REACTORS
330
B1D7
102
}
330
B1D7
100
AcDbXrecord
280
     1
102
RTVSPost2010Prop28
280
     0
102
RTVSPost2010PropOp28
 70
     0
102
RTVSPost2010Prop29
280
     1
102
RTVSPost2010PropOp29
 70
     0
102
RTVSPost2010Prop30
280
     1
102
RTVSPost2010PropOp30
 70
     0
102
RTVSPost2010Prop31
280
     0
102
RTVSPost2010PropOp31
 70
     0
102
RTVSPost2010Prop32
280
     0
102
RTVSPost2010PropOp32
 70
     0
102
RTVSPost2010Prop33
280
     0
102
RTVSPost2010PropOp33
 70
     0
102
RTVSPost2010Prop34
280
     0
102
RTVSPost2010PropOp34
 70
     0
102
RTVSPost2010Prop35
280
     0
102
RTVSPost2010PropOp35
 70
     0
102
RTVSPost2010Prop36
280
     0
102
RTVSPost2010PropOp36
 70
     0
102
RTVSPost2010Prop37
 90
       50
102
RTVSPost2010PropOp37
 70
     0
102
RTVSPost2010Prop38
140
0.0
102
RTVSPost2010PropOp38
 70
     0
102
RTVSPost2010Prop39
140
1.0
102
RTVSPost2010PropOp39
 70
     0
102
RTVSPost2010Prop40
 90
        0
102
RTVSPost2010PropOp40
 70
     0
102
RTVSPost2010Prop41ColorIndex
 90
       18
102
RTVSPost2010Prop41ColorRGB
 90
        0
102
RTVSPost2010PropOp41
 70
     0
102
RTVSPost2010Prop42
 90
       50
102
RTVSPost2010PropOp42
 70
     0
102
RTVSPost2010Prop43
 90
        3
102
RTVSPost2010PropOp43
 70
     0
102
RTVSPost2010Prop44ColorIndex
 90
        5
102
RTVSPost2010Prop44ColorRGB
 90
      255
102
RTVSPost2010PropOp44
 70
     0
102
RTVSPost2010Prop45
280
     0
102
RTVSPost2010PropOp45
 70
     0
102
RTVSPost2010Prop46
 90
       50
102
RTVSPost2010PropOp46
 70
     0
102
RTVSPost2010Prop47
 90
       50
102
RTVSPost2010PropOp47
 70
     0
102
RTVSPost2010Prop48
 90
       50
102
RTVSPost2010PropOp48
 70
     0
102
RTVSPost2010Prop49
280
     0
102
RTVSPost2010PropOp49
 70
     0
102
RTVSPost2010Prop50
 90
       50
102
RTVSPost2010PropOp50
 70
     0
102
RTVSPost2010Prop51ColorIndex
 90
      256
102
RTVSPost2010Prop51ColorRGB
 90
-16777216
102
RTVSPost2010PropOp51
 70
     0
102
RTVSPost2010Prop52
140
1.0
102
RTVSPost2010PropOp52
 70
     0
102
RTVSPost2010Prop53
 90
        2
102
RTVSPost2010PropOp53
 70
     0
102
RTVSPost2010Prop54
  1
strokes_ogs.tif
102
RTVSPost2010PropOp54
 70
     0
102
RTVSPost2010Prop55
280
     0
102
RTVSPost2010PropOp55
 70
     0
102
RTVSPost2010Prop56
140
1.0
102
RTVSPost2010PropOp56
 70
     0
102
RTVSPost2010Prop57
140
1.0
102
RTVSPost2010PropOp57
 70
     0
102
RTVSPropertyOp0
 70
     0
102
RTVSPropertyOp1
 70
     0
102
RTVSPropertyOp2
 70
     0
102
RTVSPropertyOp3
 70
     0
102
RTVSPropertyOp4
 70
     0
102
RTVSPropertyOp5
 70
     0
102
RTVSPropertyOp6
 70
     0
102
RTVSPropertyOp7
 70
     0
102
RTVSPropertyOp8
 70
     0
102
RTVSPropertyOp9
 70
     0
102
RTVSPropertyOp10
 70
     0
102
RTVSPropertyOp11
 70
     0
102
RTVSPropertyOp12
 70
     0
102
RTVSPropertyOp13
 70
     0
102
RTVSPropertyOp14
 70
     2
102
RTVSPropertyOp15
 70
     0
102
RTVSPropertyOp16
 70
     0
102
RTVSPropertyOp17
 70
     0
102
RTVSPropertyOp18
 70
     0
102
RTVSPropertyOp19
 70
     0
102
RTVSPropertyOp20
 70
     0
102
RTVSPropertyOp21
 70
     0
102
RTVSPropertyOp22
 70
     0
102
RTVSPropertyOp23
 70
     0
102
RTVSPropertyOp24
 70
     0
102
RTVSPropertyOp25
 70
     0
102
RTVSPropertyOp26
 70
     0
102
RTVSPropertyOp27
 70
     0
102
RTVSPropertyOp28
 70
     0
102
RTVSPropertyOp29
 70
     0
102
RTVSPropertyOp30
 70
     0
102
RTVSPropertyOp31
 70
     0
102
RTVSPropertyOp32
 70
     0
102
RTVSPropertyOp33
 70
     0
102
RTVSPropertyOp34
 70
     0
102
RTVSPropertyOp35
 70
     0
102
RTVSPropertyOp36
 70
     0
102
RTVSPropertyOp37
 70
     0
102
RTVSPropertyOp38
 70
     0
102
RTVSPropertyOp39
 70
     0
102
RTVSPropertyOp40
 70
     0
102
RTVSPropertyOp41
 70
     0
102
RTVSPropertyOp42
 70
     0
102
RTVSPropertyOp43
 70
     0
102
RTVSPropertyOp44
 70
     0
102
RTVSPropertyOp45
 70
     0
102
RTVSPropertyOp46
 70
     0
102
RTVSPropertyOp47
 70
     0
102
RTVSPropertyOp48
 70
     0
102
RTVSPropertyOp49
 70
     0
102
RTVSPropertyOp50
 70
     0
102
RTVSPropertyOp51
 70
     0
102
RTVSPropertyOp52
 70
     0
102
RTVSPropertyOp53
 70
     0
102
RTVSPropertyOp54
 70
     0
102
RTVSPropertyOp55
 70
     0
102
RTVSPropertyOp56
 70
     0
102
RTVSPropertyOp57
 70
     0
102
RTVSPropertyOp58
 70
     0
102
RTVSPropertyOp59
 70
     0
102
RTVSPropertyOp60
 70
     0
102
RTVSPropertyOp61
 70
     0
102
RTVSPropertyOp62
 70
     0
  0
XRECORD
  5
B1C8
102
{ACAD_REACTORS
330
B1C7
102
}
330
B1C7
100
AcDbXrecord
280
     1
102
RTVSPost2010Prop28
280
     0
102
RTVSPost2010PropOp28
 70
     1
102
RTVSPost2010Prop29
280
     1
102
RTVSPost2010PropOp29
 70
     1
102
RTVSPost2010Prop30
280
     1
102
RTVSPost2010PropOp30
 70
     1
102
RTVSPost2010Prop31
280
     0
102
RTVSPost2010PropOp31
 70
     1
102
RTVSPost2010Prop32
280
     0
102
RTVSPost2010PropOp32
 70
     1
102
RTVSPost2010Prop33
280
     0
102
RTVSPost2010PropOp33
 70
     1
102
RTVSPost2010Prop34
280
     0
102
RTVSPost2010PropOp34
 70
     1
102
RTVSPost2010Prop35
280
     0
102
RTVSPost2010PropOp35
 70
     1
102
RTVSPost2010Prop36
280
     0
102
RTVSPost2010PropOp36
 70
     1
102
RTVSPost2010Prop37
 90
       50
102
RTVSPost2010PropOp37
 70
     1
102
RTVSPost2010Prop38
140
0.0
102
RTVSPost2010PropOp38
 70
     1
102
RTVSPost2010Prop39
140
1.0
102
RTVSPost2010PropOp39
 70
     1
102
RTVSPost2010Prop40
 90
        0
102
RTVSPost2010PropOp40
 70
     1
102
RTVSPost2010Prop41ColorIndex
 90
       18
102
RTVSPost2010Prop41ColorRGB
 90
        0
102
RTVSPost2010PropOp41
 70
     1
102
RTVSPost2010Prop42
 90
       50
102
RTVSPost2010PropOp42
 70
     1
102
RTVSPost2010Prop43
 90
        3
102
RTVSPost2010PropOp43
 70
     1
102
RTVSPost2010Prop44ColorIndex
 90
        5
102
RTVSPost2010Prop44ColorRGB
 90
      255
102
RTVSPost2010PropOp44
 70
     1
102
RTVSPost2010Prop45
280
     0
102
RTVSPost2010PropOp45
 70
     1
102
RTVSPost2010Prop46
 90
       50
102
RTVSPost2010PropOp46
 70
     1
102
RTVSPost2010Prop47
 90
       50
102
RTVSPost2010PropOp47
 70
     1
102
RTVSPost2010Prop48
 90
       50
102
RTVSPost2010PropOp48
 70
     1
102
RTVSPost2010Prop49
280
     0
102
RTVSPost2010PropOp49
 70
     1
102
RTVSPost2010Prop50
 90
       50
102
RTVSPost2010PropOp50
 70
     1
102
RTVSPost2010Prop51ColorIndex
 90
      256
102
RTVSPost2010Prop51ColorRGB
 90
-16777216
102
RTVSPost2010PropOp51
 70
     0
102
RTVSPost2010Prop52
140
1.0
102
RTVSPost2010PropOp52
 70
     0
102
RTVSPost2010Prop53
 90
        2
102
RTVSPost2010PropOp53
 70
     1
102
RTVSPost2010Prop54
  1
strokes_ogs.tif
102
RTVSPost2010PropOp54
 70
     1
102
RTVSPost2010Prop55
280
     0
102
RTVSPost2010PropOp55
 70
     1
102
RTVSPost2010Prop56
140
1.0
102
RTVSPost2010PropOp56
 70
     1
102
RTVSPost2010Prop57
140
1.0
102
RTVSPost2010PropOp57
 70
     1
102
RTVSPropertyOp0
 70
     1
102
RTVSPropertyOp1
 70
     1
102
RTVSPropertyOp2
 70
     1
102
RTVSPropertyOp3
 70
     1
102
RTVSPropertyOp4
 70
     1
102
RTVSPropertyOp5
 70
     1
102
RTVSPropertyOp6
 70
     1
102
RTVSPropertyOp7
 70
     1
102
RTVSPropertyOp8
 70
     1
102
RTVSPropertyOp9
 70
     1
102
RTVSPropertyOp10
 70
     1
102
RTVSPropertyOp11
 70
     1
102
RTVSPropertyOp12
 70
     1
102
RTVSPropertyOp13
 70
     1
102
RTVSPropertyOp14
 70
     1
102
RTVSPropertyOp15
 70
     1
102
RTVSPropertyOp16
 70
     1
102
RTVSPropertyOp17
 70
     1
102
RTVSPropertyOp18
 70
     1
102
RTVSPropertyOp19
 70
     1
102
RTVSPropertyOp20
 70
     1
102
RTVSPropertyOp21
 70
     1
102
RTVSPropertyOp22
 70
     1
102
RTVSPropertyOp23
 70
     1
102
RTVSPropertyOp24
 70
     1
102
RTVSPropertyOp25
 70
     1
102
RTVSPropertyOp26
 70
     1
102
RTVSPropertyOp27
 70
     1
102
RTVSPropertyOp28
 70
     1
102
RTVSPropertyOp29
 70
     1
102
RTVSPropertyOp30
 70
     1
102
RTVSPropertyOp31
 70
     1
102
RTVSPropertyOp32
 70
     1
102
RTVSPropertyOp33
 70
     1
102
RTVSPropertyOp34
 70
     1
102
RTVSPropertyOp35
 70
     1
102
RTVSPropertyOp36
 70
     1
102
RTVSPropertyOp37
 70
     1
102
RTVSPropertyOp38
 70
     1
102
RTVSPropertyOp39
 70
     1
102
RTVSPropertyOp40
 70
     1
102
RTVSPropertyOp41
 70
     1
102
RTVSPropertyOp42
 70
     1
102
RTVSPropertyOp43
 70
     1
102
RTVSPropertyOp44
 70
     1
102
RTVSPropertyOp45
 70
     1
102
RTVSPropertyOp46
 70
     1
102
RTVSPropertyOp47
 70
     1
102
RTVSPropertyOp48
 70
     1
102
RTVSPropertyOp49
 70
     1
102
RTVSPropertyOp50
 70
     1
102
RTVSPropertyOp51
 70
     0
102
RTVSPropertyOp52
 70
     0
102
RTVSPropertyOp53
 70
     1
102
RTVSPropertyOp54
 70
     1
102
RTVSPropertyOp55
 70
     1
102
RTVSPropertyOp56
 70
     1
102
RTVSPropertyOp57
 70
     1
102
RTVSPropertyOp58
 70
     1
102
RTVSPropertyOp59
 70
     1
102
RTVSPropertyOp60
 70
     1
102
RTVSPropertyOp61
 70
     1
102
RTVSPropertyOp62
 70
     1
  0
XRECORD
  5
B1DA
102
{ACAD_REACTORS
330
B1D9
102
}
330
B1D9
100
AcDbXrecord
280
     1
102
RTVSPost2010Prop28
280
     0
102
RTVSPost2010PropOp28
 70
     0
102
RTVSPost2010Prop29
280
     1
102
RTVSPost2010PropOp29
 70
     0
102
RTVSPost2010Prop30
280
     1
102
RTVSPost2010PropOp30
 70
     0
102
RTVSPost2010Prop31
280
     0
102
RTVSPost2010PropOp31
 70
     0
102
RTVSPost2010Prop32
280
     0
102
RTVSPost2010PropOp32
 70
     0
102
RTVSPost2010Prop33
280
     0
102
RTVSPost2010PropOp33
 70
     0
102
RTVSPost2010Prop34
280
     0
102
RTVSPost2010PropOp34
 70
     0
102
RTVSPost2010Prop35
280
     0
102
RTVSPost2010PropOp35
 70
     0
102
RTVSPost2010Prop36
280
     0
102
RTVSPost2010PropOp36
 70
     0
102
RTVSPost2010Prop37
 90
       50
102
RTVSPost2010PropOp37
 70
     0
102
RTVSPost2010Prop38
140
0.0
102
RTVSPost2010PropOp38
 70
     0
102
RTVSPost2010Prop39
140
1.0
102
RTVSPost2010PropOp39
 70
     0
102
RTVSPost2010Prop40
 90
        0
102
RTVSPost2010PropOp40
 70
     0
102
RTVSPost2010Prop41ColorIndex
 90
       18
102
RTVSPost2010Prop41ColorRGB
 90
        0
102
RTVSPost2010PropOp41
 70
     0
102
RTVSPost2010Prop42
 90
       50
102
RTVSPost2010PropOp42
 70
     0
102
RTVSPost2010Prop43
 90
        3
102
RTVSPost2010PropOp43
 70
     0
102
RTVSPost2010Prop44ColorIndex
 90
        5
102
RTVSPost2010Prop44ColorRGB
 90
      255
102
RTVSPost2010PropOp44
 70
     0
102
RTVSPost2010Prop45
280
     0
102
RTVSPost2010PropOp45
 70
     0
102
RTVSPost2010Prop46
 90
       50
102
RTVSPost2010PropOp46
 70
     0
102
RTVSPost2010Prop47
 90
       50
102
RTVSPost2010PropOp47
 70
     0
102
RTVSPost2010Prop48
 90
       50
102
RTVSPost2010PropOp48
 70
     0
102
RTVSPost2010Prop49
280
     0
102
RTVSPost2010PropOp49
 70
     0
102
RTVSPost2010Prop50
 90
       50
102
RTVSPost2010PropOp50
 70
     0
102
RTVSPost2010Prop51ColorIndex
 90
      256
102
RTVSPost2010Prop51ColorRGB
 90
-16777216
102
RTVSPost2010PropOp51
 70
     0
102
RTVSPost2010Prop52
140
1.0
102
RTVSPost2010PropOp52
 70
     0
102
RTVSPost2010Prop53
 90
        2
102
RTVSPost2010PropOp53
 70
     0
102
RTVSPost2010Prop54
  1
strokes_ogs.tif
102
RTVSPost2010PropOp54
 70
     0
102
RTVSPost2010Prop55
280
     0
102
RTVSPost2010PropOp55
 70
     0
102
RTVSPost2010Prop56
140
1.0
102
RTVSPost2010PropOp56
 70
     0
102
RTVSPost2010Prop57
140
1.0
102
RTVSPost2010PropOp57
 70
     0
102
RTVSPropertyOp0
 70
     0
102
RTVSPropertyOp1
 70
     0
102
RTVSPropertyOp2
 70
     0
102
RTVSPropertyOp3
 70
     0
102
RTVSPropertyOp4
 70
     0
102
RTVSPropertyOp5
 70
     0
102
RTVSPropertyOp6
 70
     0
102
RTVSPropertyOp7
 70
     0
102
RTVSPropertyOp8
 70
     0
102
RTVSPropertyOp9
 70
     0
102
RTVSPropertyOp10
 70
     0
102
RTVSPropertyOp11
 70
     0
102
RTVSPropertyOp12
 70
     0
102
RTVSPropertyOp13
 70
     0
102
RTVSPropertyOp14
 70
     2
102
RTVSPropertyOp15
 70
     0
102
RTVSPropertyOp16
 70
     0
102
RTVSPropertyOp17
 70
     0
102
RTVSPropertyOp18
 70
     0
102
RTVSPropertyOp19
 70
     0
102
RTVSPropertyOp20
 70
     0
102
RTVSPropertyOp21
 70
     0
102
RTVSPropertyOp22
 70
     0
102
RTVSPropertyOp23
 70
     0
102
RTVSPropertyOp24
 70
     0
102
RTVSPropertyOp25
 70
     0
102
RTVSPropertyOp26
 70
     0
102
RTVSPropertyOp27
 70
     0
102
RTVSPropertyOp28
 70
     0
102
RTVSPropertyOp29
 70
     0
102
RTVSPropertyOp30
 70
     0
102
RTVSPropertyOp31
 70
     0
102
RTVSPropertyOp32
 70
     0
102
RTVSPropertyOp33
 70
     0
102
RTVSPropertyOp34
 70
     0
102
RTVSPropertyOp35
 70
     0
102
RTVSPropertyOp36
 70
     0
102
RTVSPropertyOp37
 70
     0
102
RTVSPropertyOp38
 70
     0
102
RTVSPropertyOp39
 70
     0
102
RTVSPropertyOp40
 70
     0
102
RTVSPropertyOp41
 70
     0
102
RTVSPropertyOp42
 70
     0
102
RTVSPropertyOp43
 70
     0
102
RTVSPropertyOp44
 70
     0
102
RTVSPropertyOp45
 70
     0
102
RTVSPropertyOp46
 70
     0
102
RTVSPropertyOp47
 70
     0
102
RTVSPropertyOp48
 70
     0
102
RTVSPropertyOp49
 70
     0
102
RTVSPropertyOp50
 70
     0
102
RTVSPropertyOp51
 70
     0
102
RTVSPropertyOp52
 70
     0
102
RTVSPropertyOp53
 70
     0
102
RTVSPropertyOp54
 70
     0
102
RTVSPropertyOp55
 70
     0
102
RTVSPropertyOp56
 70
     0
102
RTVSPropertyOp57
 70
     0
102
RTVSPropertyOp58
 70
     0
102
RTVSPropertyOp59
 70
     0
102
RTVSPropertyOp60
 70
     0
102
RTVSPropertyOp61
 70
     0
102
RTVSPropertyOp62
 70
     0
  0
XRECORD
  5
B1C0
102
{ACAD_REACTORS
330
B1BF
102
}
330
B1BF
100
AcDbXrecord
280
     1
102
RTVSPost2010Prop28
280
     0
102
RTVSPost2010PropOp28
 70
     1
102
RTVSPost2010Prop29
280
     1
102
RTVSPost2010PropOp29
 70
     1
102
RTVSPost2010Prop30
280
     1
102
RTVSPost2010PropOp30
 70
     1
102
RTVSPost2010Prop31
280
     0
102
RTVSPost2010PropOp31
 70
     1
102
RTVSPost2010Prop32
280
     0
102
RTVSPost2010PropOp32
 70
     1
102
RTVSPost2010Prop33
280
     0
102
RTVSPost2010PropOp33
 70
     1
102
RTVSPost2010Prop34
280
     0
102
RTVSPost2010PropOp34
 70
     1
102
RTVSPost2010Prop35
280
     0
102
RTVSPost2010PropOp35
 70
     1
102
RTVSPost2010Prop36
280
     0
102
RTVSPost2010PropOp36
 70
     1
102
RTVSPost2010Prop37
 90
       50
102
RTVSPost2010PropOp37
 70
     1
102
RTVSPost2010Prop38
140
0.0
102
RTVSPost2010PropOp38
 70
     1
102
RTVSPost2010Prop39
140
1.0
102
RTVSPost2010PropOp39
 70
     1
102
RTVSPost2010Prop40
 90
        0
102
RTVSPost2010PropOp40
 70
     1
102
RTVSPost2010Prop41ColorIndex
 90
       18
102
RTVSPost2010Prop41ColorRGB
 90
        0
102
RTVSPost2010PropOp41
 70
     1
102
RTVSPost2010Prop42
 90
       50
102
RTVSPost2010PropOp42
 70
     1
102
RTVSPost2010Prop43
 90
        3
102
RTVSPost2010PropOp43
 70
     1
102
RTVSPost2010Prop44ColorIndex
 90
        5
102
RTVSPost2010Prop44ColorRGB
 90
      255
102
RTVSPost2010PropOp44
 70
     1
102
RTVSPost2010Prop45
280
     0
102
RTVSPost2010PropOp45
 70
     1
102
RTVSPost2010Prop46
 90
       50
102
RTVSPost2010PropOp46
 70
     1
102
RTVSPost2010Prop47
 90
       50
102
RTVSPost2010PropOp47
 70
     1
102
RTVSPost2010Prop48
 90
       50
102
RTVSPost2010PropOp48
 70
     1
102
RTVSPost2010Prop49
280
     0
102
RTVSPost2010PropOp49
 70
     1
102
RTVSPost2010Prop50
 90
       50
102
RTVSPost2010PropOp50
 70
     1
102
RTVSPost2010Prop51ColorIndex
 90
      256
102
RTVSPost2010Prop51ColorRGB
 90
-16777216
102
RTVSPost2010PropOp51
 70
     0
102
RTVSPost2010Prop52
140
1.0
102
RTVSPost2010PropOp52
 70
     0
102
RTVSPost2010Prop53
 90
        2
102
RTVSPost2010PropOp53
 70
     1
102
RTVSPost2010Prop54
  1
strokes_ogs.tif
102
RTVSPost2010PropOp54
 70
     1
102
RTVSPost2010Prop55
280
     0
102
RTVSPost2010PropOp55
 70
     1
102
RTVSPost2010Prop56
140
1.0
102
RTVSPost2010PropOp56
 70
     1
102
RTVSPost2010Prop57
140
1.0
102
RTVSPost2010PropOp57
 70
     1
102
RTVSPropertyOp0
 70
     1
102
RTVSPropertyOp1
 70
     1
102
RTVSPropertyOp2
 70
     1
102
RTVSPropertyOp3
 70
     1
102
RTVSPropertyOp4
 70
     1
102
RTVSPropertyOp5
 70
     1
102
RTVSPropertyOp6
 70
     1
102
RTVSPropertyOp7
 70
     1
102
RTVSPropertyOp8
 70
     1
102
RTVSPropertyOp9
 70
     1
102
RTVSPropertyOp10
 70
     1
102
RTVSPropertyOp11
 70
     1
102
RTVSPropertyOp12
 70
     1
102
RTVSPropertyOp13
 70
     1
102
RTVSPropertyOp14
 70
     1
102
RTVSPropertyOp15
 70
     1
102
RTVSPropertyOp16
 70
     1
102
RTVSPropertyOp17
 70
     1
102
RTVSPropertyOp18
 70
     1
102
RTVSPropertyOp19
 70
     1
102
RTVSPropertyOp20
 70
     1
102
RTVSPropertyOp21
 70
     1
102
RTVSPropertyOp22
 70
     1
102
RTVSPropertyOp23
 70
     1
102
RTVSPropertyOp24
 70
     1
102
RTVSPropertyOp25
 70
     1
102
RTVSPropertyOp26
 70
     1
102
RTVSPropertyOp27
 70
     1
102
RTVSPropertyOp28
 70
     1
102
RTVSPropertyOp29
 70
     1
102
RTVSPropertyOp30
 70
     1
102
RTVSPropertyOp31
 70
     1
102
RTVSPropertyOp32
 70
     1
102
RTVSPropertyOp33
 70
     1
102
RTVSPropertyOp34
 70
     1
102
RTVSPropertyOp35
 70
     1
102
RTVSPropertyOp36
 70
     1
102
RTVSPropertyOp37
 70
     1
102
RTVSPropertyOp38
 70
     1
102
RTVSPropertyOp39
 70
     1
102
RTVSPropertyOp40
 70
     1
102
RTVSPropertyOp41
 70
     1
102
RTVSPropertyOp42
 70
     1
102
RTVSPropertyOp43
 70
     1
102
RTVSPropertyOp44
 70
     1
102
RTVSPropertyOp45
 70
     1
102
RTVSPropertyOp46
 70
     1
102
RTVSPropertyOp47
 70
     1
102
RTVSPropertyOp48
 70
     1
102
RTVSPropertyOp49
 70
     1
102
RTVSPropertyOp50
 70
     1
102
RTVSPropertyOp51
 70
     0
102
RTVSPropertyOp52
 70
     0
102
RTVSPropertyOp53
 70
     1
102
RTVSPropertyOp54
 70
     1
102
RTVSPropertyOp55
 70
     1
102
RTVSPropertyOp56
 70
     1
102
RTVSPropertyOp57
 70
     1
102
RTVSPropertyOp58
 70
     1
102
RTVSPropertyOp59
 70
     1
102
RTVSPropertyOp60
 70
     1
102
RTVSPropertyOp61
 70
     1
102
RTVSPropertyOp62
 70
     1
  0
XRECORD
  5
B1D6
102
{ACAD_REACTORS
330
B1D5
102
}
330
B1D5
100
AcDbXrecord
280
     1
102
RTVSPost2010Prop28
280
     0
102
RTVSPost2010PropOp28
 70
     1
102
RTVSPost2010Prop29
280
     1
102
RTVSPost2010PropOp29
 70
     1
102
RTVSPost2010Prop30
280
     1
102
RTVSPost2010PropOp30
 70
     1
102
RTVSPost2010Prop31
280
     0
102
RTVSPost2010PropOp31
 70
     1
102
RTVSPost2010Prop32
280
     0
102
RTVSPost2010PropOp32
 70
     1
102
RTVSPost2010Prop33
280
     0
102
RTVSPost2010PropOp33
 70
     1
102
RTVSPost2010Prop34
280
     0
102
RTVSPost2010PropOp34
 70
     1
102
RTVSPost2010Prop35
280
     0
102
RTVSPost2010PropOp35
 70
     1
102
RTVSPost2010Prop36
280
     0
102
RTVSPost2010PropOp36
 70
     1
102
RTVSPost2010Prop37
 90
       50
102
RTVSPost2010PropOp37
 70
     1
102
RTVSPost2010Prop38
140
0.0
102
RTVSPost2010PropOp38
 70
     1
102
RTVSPost2010Prop39
140
1.0
102
RTVSPost2010PropOp39
 70
     1
102
RTVSPost2010Prop40
 90
        0
102
RTVSPost2010PropOp40
 70
     1
102
RTVSPost2010Prop41ColorIndex
 90
       18
102
RTVSPost2010Prop41ColorRGB
 90
        0
102
RTVSPost2010PropOp41
 70
     1
102
RTVSPost2010Prop42
 90
       50
102
RTVSPost2010PropOp42
 70
     1
102
RTVSPost2010Prop43
 90
        3
102
RTVSPost2010PropOp43
 70
     1
102
RTVSPost2010Prop44ColorIndex
 90
        5
102
RTVSPost2010Prop44ColorRGB
 90
      255
102
RTVSPost2010PropOp44
 70
     1
102
RTVSPost2010Prop45
280
     0
102
RTVSPost2010PropOp45
 70
     1
102
RTVSPost2010Prop46
 90
       50
102
RTVSPost2010PropOp46
 70
     1
102
RTVSPost2010Prop47
 90
       50
102
RTVSPost2010PropOp47
 70
     1
102
RTVSPost2010Prop48
 90
       50
102
RTVSPost2010PropOp48
 70
     1
102
RTVSPost2010Prop49
280
     0
102
RTVSPost2010PropOp49
 70
     1
102
RTVSPost2010Prop50
 90
       50
102
RTVSPost2010PropOp50
 70
     1
102
RTVSPost2010Prop51ColorIndex
 90
      256
102
RTVSPost2010Prop51ColorRGB
 90
-16777216
102
RTVSPost2010PropOp51
 70
     0
102
RTVSPost2010Prop52
140
1.0
102
RTVSPost2010PropOp52
 70
     0
102
RTVSPost2010Prop53
 90
        2
102
RTVSPost2010PropOp53
 70
     1
102
RTVSPost2010Prop54
  1
strokes_ogs.tif
102
RTVSPost2010PropOp54
 70
     1
102
RTVSPost2010Prop55
280
     0
102
RTVSPost2010PropOp55
 70
     1
102
RTVSPost2010Prop56
140
1.0
102
RTVSPost2010PropOp56
 70
     1
102
RTVSPost2010Prop57
140
1.0
102
RTVSPost2010PropOp57
 70
     1
102
RTVSPropertyOp0
 70
     1
102
RTVSPropertyOp1
 70
     1
102
RTVSPropertyOp2
 70
     1
102
RTVSPropertyOp3
 70
     1
102
RTVSPropertyOp4
 70
     1
102
RTVSPropertyOp5
 70
     1
102
RTVSPropertyOp6
 70
     1
102
RTVSPropertyOp7
 70
     1
102
RTVSPropertyOp8
 70
     1
102
RTVSPropertyOp9
 70
     1
102
RTVSPropertyOp10
 70
     1
102
RTVSPropertyOp11
 70
     1
102
RTVSPropertyOp12
 70
     1
102
RTVSPropertyOp13
 70
     1
102
RTVSPropertyOp14
 70
     1
102
RTVSPropertyOp15
 70
     1
102
RTVSPropertyOp16
 70
     1
102
RTVSPropertyOp17
 70
     1
102
RTVSPropertyOp18
 70
     1
102
RTVSPropertyOp19
 70
     1
102
RTVSPropertyOp20
 70
     1
102
RTVSPropertyOp21
 70
     1
102
RTVSPropertyOp22
 70
     1
102
RTVSPropertyOp23
 70
     1
102
RTVSPropertyOp24
 70
     1
102
RTVSPropertyOp25
 70
     1
102
RTVSPropertyOp26
 70
     1
102
RTVSPropertyOp27
 70
     1
102
RTVSPropertyOp28
 70
     1
102
RTVSPropertyOp29
 70
     1
102
RTVSPropertyOp30
 70
     1
102
RTVSPropertyOp31
 70
     1
102
RTVSPropertyOp32
 70
     1
102
RTVSPropertyOp33
 70
     1
102
RTVSPropertyOp34
 70
     1
102
RTVSPropertyOp35
 70
     1
102
RTVSPropertyOp36
 70
     1
102
RTVSPropertyOp37
 70
     1
102
RTVSPropertyOp38
 70
     1
102
RTVSPropertyOp39
 70
     1
102
RTVSPropertyOp40
 70
     1
102
RTVSPropertyOp41
 70
     1
102
RTVSPropertyOp42
 70
     1
102
RTVSPropertyOp43
 70
     1
102
RTVSPropertyOp44
 70
     1
102
RTVSPropertyOp45
 70
     1
102
RTVSPropertyOp46
 70
     1
102
RTVSPropertyOp47
 70
     1
102
RTVSPropertyOp48
 70
     1
102
RTVSPropertyOp49
 70
     1
102
RTVSPropertyOp50
 70
     1
102
RTVSPropertyOp51
 70
     0
102
RTVSPropertyOp52
 70
     0
102
RTVSPropertyOp53
 70
     1
102
RTVSPropertyOp54
 70
     1
102
RTVSPropertyOp55
 70
     1
102
RTVSPropertyOp56
 70
     1
102
RTVSPropertyOp57
 70
     1
102
RTVSPropertyOp58
 70
     1
102
RTVSPropertyOp59
 70
     1
102
RTVSPropertyOp60
 70
     1
102
RTVSPropertyOp61
 70
     1
102
RTVSPropertyOp62
 70
     1
  0
XRECORD
  5
B1D4
102
{ACAD_REACTORS
330
B1D3
102
}
330
B1D3
100
AcDbXrecord
280
     1
102
RTVSPost2010Prop28
280
     0
102
RTVSPost2010PropOp28
 70
     1
102
RTVSPost2010Prop29
280
     1
102
RTVSPost2010PropOp29
 70
     1
102
RTVSPost2010Prop30
280
     1
102
RTVSPost2010PropOp30
 70
     1
102
RTVSPost2010Prop31
280
     0
102
RTVSPost2010PropOp31
 70
     1
102
RTVSPost2010Prop32
280
     0
102
RTVSPost2010PropOp32
 70
     1
102
RTVSPost2010Prop33
280
     0
102
RTVSPost2010PropOp33
 70
     1
102
RTVSPost2010Prop34
280
     0
102
RTVSPost2010PropOp34
 70
     1
102
RTVSPost2010Prop35
280
     0
102
RTVSPost2010PropOp35
 70
     1
102
RTVSPost2010Prop36
280
     0
102
RTVSPost2010PropOp36
 70
     1
102
RTVSPost2010Prop37
 90
       50
102
RTVSPost2010PropOp37
 70
     1
102
RTVSPost2010Prop38
140
0.0
102
RTVSPost2010PropOp38
 70
     1
102
RTVSPost2010Prop39
140
1.0
102
RTVSPost2010PropOp39
 70
     1
102
RTVSPost2010Prop40
 90
        0
102
RTVSPost2010PropOp40
 70
     1
102
RTVSPost2010Prop41ColorIndex
 90
       18
102
RTVSPost2010Prop41ColorRGB
 90
        0
102
RTVSPost2010PropOp41
 70
     1
102
RTVSPost2010Prop42
 90
       50
102
RTVSPost2010PropOp42
 70
     1
102
RTVSPost2010Prop43
 90
        3
102
RTVSPost2010PropOp43
 70
     1
102
RTVSPost2010Prop44ColorIndex
 90
        5
102
RTVSPost2010Prop44ColorRGB
 90
      255
102
RTVSPost2010PropOp44
 70
     1
102
RTVSPost2010Prop45
280
     0
102
RTVSPost2010PropOp45
 70
     1
102
RTVSPost2010Prop46
 90
       50
102
RTVSPost2010PropOp46
 70
     1
102
RTVSPost2010Prop47
 90
       50
102
RTVSPost2010PropOp47
 70
     1
102
RTVSPost2010Prop48
 90
       50
102
RTVSPost2010PropOp48
 70
     1
102
RTVSPost2010Prop49
280
     0
102
RTVSPost2010PropOp49
 70
     1
102
RTVSPost2010Prop50
 90
       50
102
RTVSPost2010PropOp50
 70
     1
102
RTVSPost2010Prop51ColorIndex
 90
      256
102
RTVSPost2010Prop51ColorRGB
 90
-16777216
102
RTVSPost2010PropOp51
 70
     0
102
RTVSPost2010Prop52
140
1.0
102
RTVSPost2010PropOp52
 70
     0
102
RTVSPost2010Prop53
 90
        2
102
RTVSPost2010PropOp53
 70
     1
102
RTVSPost2010Prop54
  1
strokes_ogs.tif
102
RTVSPost2010PropOp54
 70
     1
102
RTVSPost2010Prop55
280
     0
102
RTVSPost2010PropOp55
 70
     1
102
RTVSPost2010Prop56
140
1.0
102
RTVSPost2010PropOp56
 70
     1
102
RTVSPost2010Prop57
140
1.0
102
RTVSPost2010PropOp57
 70
     1
102
RTVSPropertyOp0
 70
     1
102
RTVSPropertyOp1
 70
     1
102
RTVSPropertyOp2
 70
     1
102
RTVSPropertyOp3
 70
     1
102
RTVSPropertyOp4
 70
     1
102
RTVSPropertyOp5
 70
     1
102
RTVSPropertyOp6
 70
     1
102
RTVSPropertyOp7
 70
     1
102
RTVSPropertyOp8
 70
     1
102
RTVSPropertyOp9
 70
     1
102
RTVSPropertyOp10
 70
     1
102
RTVSPropertyOp11
 70
     1
102
RTVSPropertyOp12
 70
     1
102
RTVSPropertyOp13
 70
     1
102
RTVSPropertyOp14
 70
     1
102
RTVSPropertyOp15
 70
     1
102
RTVSPropertyOp16
 70
     1
102
RTVSPropertyOp17
 70
     1
102
RTVSPropertyOp18
 70
     1
102
RTVSPropertyOp19
 70
     1
102
RTVSPropertyOp20
 70
     1
102
RTVSPropertyOp21
 70
     1
102
RTVSPropertyOp22
 70
     1
102
RTVSPropertyOp23
 70
     1
102
RTVSPropertyOp24
 70
     1
102
RTVSPropertyOp25
 70
     1
102
RTVSPropertyOp26
 70
     1
102
RTVSPropertyOp27
 70
     1
102
RTVSPropertyOp28
 70
     1
102
RTVSPropertyOp29
 70
     1
102
RTVSPropertyOp30
 70
     1
102
RTVSPropertyOp31
 70
     1
102
RTVSPropertyOp32
 70
     1
102
RTVSPropertyOp33
 70
     1
102
RTVSPropertyOp34
 70
     1
102
RTVSPropertyOp35
 70
     1
102
RTVSPropertyOp36
 70
     1
102
RTVSPropertyOp37
 70
     1
102
RTVSPropertyOp38
 70
     1
102
RTVSPropertyOp39
 70
     1
102
RTVSPropertyOp40
 70
     1
102
RTVSPropertyOp41
 70
     1
102
RTVSPropertyOp42
 70
     1
102
RTVSPropertyOp43
 70
     1
102
RTVSPropertyOp44
 70
     1
102
RTVSPropertyOp45
 70
     1
102
RTVSPropertyOp46
 70
     1
102
RTVSPropertyOp47
 70
     1
102
RTVSPropertyOp48
 70
     1
102
RTVSPropertyOp49
 70
     1
102
RTVSPropertyOp50
 70
     1
102
RTVSPropertyOp51
 70
     0
102
RTVSPropertyOp52
 70
     0
102
RTVSPropertyOp53
 70
     1
102
RTVSPropertyOp54
 70
     1
102
RTVSPropertyOp55
 70
     1
102
RTVSPropertyOp56
 70
     1
102
RTVSPropertyOp57
 70
     1
102
RTVSPropertyOp58
 70
     1
102
RTVSPropertyOp59
 70
     1
102
RTVSPropertyOp60
 70
     1
102
RTVSPropertyOp61
 70
     1
102
RTVSPropertyOp62
 70
     1
  0
XRECORD
  5
B1CE
102
{ACAD_REACTORS
330
B1CD
102
}
330
B1CD
100
AcDbXrecord
280
     1
102
RTVSPost2010Prop28
280
     0
102
RTVSPost2010PropOp28
 70
     1
102
RTVSPost2010Prop29
280
     1
102
RTVSPost2010PropOp29
 70
     1
102
RTVSPost2010Prop30
280
     1
102
RTVSPost2010PropOp30
 70
     1
102
RTVSPost2010Prop31
280
     0
102
RTVSPost2010PropOp31
 70
     1
102
RTVSPost2010Prop32
280
     0
102
RTVSPost2010PropOp32
 70
     1
102
RTVSPost2010Prop33
280
     0
102
RTVSPost2010PropOp33
 70
     1
102
RTVSPost2010Prop34
280
     0
102
RTVSPost2010PropOp34
 70
     1
102
RTVSPost2010Prop35
280
     0
102
RTVSPost2010PropOp35
 70
     1
102
RTVSPost2010Prop36
280
     0
102
RTVSPost2010PropOp36
 70
     1
102
RTVSPost2010Prop37
 90
       50
102
RTVSPost2010PropOp37
 70
     1
102
RTVSPost2010Prop38
140
0.0
102
RTVSPost2010PropOp38
 70
     1
102
RTVSPost2010Prop39
140
1.0
102
RTVSPost2010PropOp39
 70
     1
102
RTVSPost2010Prop40
 90
        0
102
RTVSPost2010PropOp40
 70
     1
102
RTVSPost2010Prop41ColorIndex
 90
       18
102
RTVSPost2010Prop41ColorRGB
 90
        0
102
RTVSPost2010PropOp41
 70
     1
102
RTVSPost2010Prop42
 90
       50
102
RTVSPost2010PropOp42
 70
     1
102
RTVSPost2010Prop43
 90
        3
102
RTVSPost2010PropOp43
 70
     1
102
RTVSPost2010Prop44ColorIndex
 90
        5
102
RTVSPost2010Prop44ColorRGB
 90
      255
102
RTVSPost2010PropOp44
 70
     1
102
RTVSPost2010Prop45
280
     0
102
RTVSPost2010PropOp45
 70
     1
102
RTVSPost2010Prop46
 90
       50
102
RTVSPost2010PropOp46
 70
     1
102
RTVSPost2010Prop47
 90
       50
102
RTVSPost2010PropOp47
 70
     1
102
RTVSPost2010Prop48
 90
       50
102
RTVSPost2010PropOp48
 70
     1
102
RTVSPost2010Prop49
280
     0
102
RTVSPost2010PropOp49
 70
     1
102
RTVSPost2010Prop50
 90
       50
102
RTVSPost2010PropOp50
 70
     1
102
RTVSPost2010Prop51ColorIndex
 90
      256
102
RTVSPost2010Prop51ColorRGB
 90
-16777216
102
RTVSPost2010PropOp51
 70
     0
102
RTVSPost2010Prop52
140
1.0
102
RTVSPost2010PropOp52
 70
     0
102
RTVSPost2010Prop53
 90
        2
102
RTVSPost2010PropOp53
 70
     1
102
RTVSPost2010Prop54
  1
strokes_ogs.tif
102
RTVSPost2010PropOp54
 70
     1
102
RTVSPost2010Prop55
280
     0
102
RTVSPost2010PropOp55
 70
     1
102
RTVSPost2010Prop56
140
1.0
102
RTVSPost2010PropOp56
 70
     1
102
RTVSPost2010Prop57
140
1.0
102
RTVSPost2010PropOp57
 70
     1
102
RTVSPropertyOp0
 70
     1
102
RTVSPropertyOp1
 70
     1
102
RTVSPropertyOp2
 70
     1
102
RTVSPropertyOp3
 70
     1
102
RTVSPropertyOp4
 70
     1
102
RTVSPropertyOp5
 70
     1
102
RTVSPropertyOp6
 70
     1
102
RTVSPropertyOp7
 70
     1
102
RTVSPropertyOp8
 70
     1
102
RTVSPropertyOp9
 70
     1
102
RTVSPropertyOp10
 70
     1
102
RTVSPropertyOp11
 70
     1
102
RTVSPropertyOp12
 70
     1
102
RTVSPropertyOp13
 70
     1
102
RTVSPropertyOp14
 70
     1
102
RTVSPropertyOp15
 70
     1
102
RTVSPropertyOp16
 70
     1
102
RTVSPropertyOp17
 70
     1
102
RTVSPropertyOp18
 70
     1
102
RTVSPropertyOp19
 70
     1
102
RTVSPropertyOp20
 70
     1
102
RTVSPropertyOp21
 70
     1
102
RTVSPropertyOp22
 70
     1
102
RTVSPropertyOp23
 70
     1
102
RTVSPropertyOp24
 70
     1
102
RTVSPropertyOp25
 70
     1
102
RTVSPropertyOp26
 70
     1
102
RTVSPropertyOp27
 70
     1
102
RTVSPropertyOp28
 70
     1
102
RTVSPropertyOp29
 70
     1
102
RTVSPropertyOp30
 70
     1
102
RTVSPropertyOp31
 70
     1
102
RTVSPropertyOp32
 70
     1
102
RTVSPropertyOp33
 70
     1
102
RTVSPropertyOp34
 70
     1
102
RTVSPropertyOp35
 70
     1
102
RTVSPropertyOp36
 70
     1
102
RTVSPropertyOp37
 70
     1
102
RTVSPropertyOp38
 70
     1
102
RTVSPropertyOp39
 70
     1
102
RTVSPropertyOp40
 70
     1
102
RTVSPropertyOp41
 70
     1
102
RTVSPropertyOp42
 70
     1
102
RTVSPropertyOp43
 70
     1
102
RTVSPropertyOp44
 70
     1
102
RTVSPropertyOp45
 70
     1
102
RTVSPropertyOp46
 70
     1
102
RTVSPropertyOp47
 70
     1
102
RTVSPropertyOp48
 70
     1
102
RTVSPropertyOp49
 70
     1
102
RTVSPropertyOp50
 70
     1
102
RTVSPropertyOp51
 70
     0
102
RTVSPropertyOp52
 70
     0
102
RTVSPropertyOp53
 70
     1
102
RTVSPropertyOp54
 70
     1
102
RTVSPropertyOp55
 70
     1
102
RTVSPropertyOp56
 70
     1
102
RTVSPropertyOp57
 70
     1
102
RTVSPropertyOp58
 70
     1
102
RTVSPropertyOp59
 70
     1
102
RTVSPropertyOp60
 70
     1
102
RTVSPropertyOp61
 70
     1
102
RTVSPropertyOp62
 70
     1
  0
XRECORD
  5
B1D0
102
{ACAD_REACTORS
330
B1CF
102
}
330
B1CF
100
AcDbXrecord
280
     1
102
RTVSPost2010Prop28
280
     0
102
RTVSPost2010PropOp28
 70
     1
102
RTVSPost2010Prop29
280
     1
102
RTVSPost2010PropOp29
 70
     1
102
RTVSPost2010Prop30
280
     1
102
RTVSPost2010PropOp30
 70
     1
102
RTVSPost2010Prop31
280
     0
102
RTVSPost2010PropOp31
 70
     1
102
RTVSPost2010Prop32
280
     0
102
RTVSPost2010PropOp32
 70
     1
102
RTVSPost2010Prop33
280
     0
102
RTVSPost2010PropOp33
 70
     1
102
RTVSPost2010Prop34
280
     0
102
RTVSPost2010PropOp34
 70
     1
102
RTVSPost2010Prop35
280
     0
102
RTVSPost2010PropOp35
 70
     1
102
RTVSPost2010Prop36
280
     0
102
RTVSPost2010PropOp36
 70
     1
102
RTVSPost2010Prop37
 90
       50
102
RTVSPost2010PropOp37
 70
     1
102
RTVSPost2010Prop38
140
0.0
102
RTVSPost2010PropOp38
 70
     1
102
RTVSPost2010Prop39
140
1.0
102
RTVSPost2010PropOp39
 70
     1
102
RTVSPost2010Prop40
 90
        0
102
RTVSPost2010PropOp40
 70
     1
102
RTVSPost2010Prop41ColorIndex
 90
       18
102
RTVSPost2010Prop41ColorRGB
 90
        0
102
RTVSPost2010PropOp41
 70
     1
102
RTVSPost2010Prop42
 90
       50
102
RTVSPost2010PropOp42
 70
     1
102
RTVSPost2010Prop43
 90
        3
102
RTVSPost2010PropOp43
 70
     1
102
RTVSPost2010Prop44ColorIndex
 90
        5
102
RTVSPost2010Prop44ColorRGB
 90
      255
102
RTVSPost2010PropOp44
 70
     1
102
RTVSPost2010Prop45
280
     0
102
RTVSPost2010PropOp45
 70
     1
102
RTVSPost2010Prop46
 90
       50
102
RTVSPost2010PropOp46
 70
     1
102
RTVSPost2010Prop47
 90
       50
102
RTVSPost2010PropOp47
 70
     1
102
RTVSPost2010Prop48
 90
       50
102
RTVSPost2010PropOp48
 70
     1
102
RTVSPost2010Prop49
280
     0
102
RTVSPost2010PropOp49
 70
     1
102
RTVSPost2010Prop50
 90
       50
102
RTVSPost2010PropOp50
 70
     1
102
RTVSPost2010Prop51ColorIndex
 90
      256
102
RTVSPost2010Prop51ColorRGB
 90
-16777216
102
RTVSPost2010PropOp51
 70
     0
102
RTVSPost2010Prop52
140
1.0
102
RTVSPost2010PropOp52
 70
     0
102
RTVSPost2010Prop53
 90
        2
102
RTVSPost2010PropOp53
 70
     1
102
RTVSPost2010Prop54
  1
strokes_ogs.tif
102
RTVSPost2010PropOp54
 70
     1
102
RTVSPost2010Prop55
280
     0
102
RTVSPost2010PropOp55
 70
     1
102
RTVSPost2010Prop56
140
1.0
102
RTVSPost2010PropOp56
 70
     1
102
RTVSPost2010Prop57
140
1.0
102
RTVSPost2010PropOp57
 70
     1
102
RTVSPropertyOp0
 70
     1
102
RTVSPropertyOp1
 70
     1
102
RTVSPropertyOp2
 70
     1
102
RTVSPropertyOp3
 70
     1
102
RTVSPropertyOp4
 70
     1
102
RTVSPropertyOp5
 70
     1
102
RTVSPropertyOp6
 70
     1
102
RTVSPropertyOp7
 70
     1
102
RTVSPropertyOp8
 70
     1
102
RTVSPropertyOp9
 70
     1
102
RTVSPropertyOp10
 70
     1
102
RTVSPropertyOp11
 70
     1
102
RTVSPropertyOp12
 70
     1
102
RTVSPropertyOp13
 70
     1
102
RTVSPropertyOp14
 70
     1
102
RTVSPropertyOp15
 70
     1
102
RTVSPropertyOp16
 70
     1
102
RTVSPropertyOp17
 70
     1
102
RTVSPropertyOp18
 70
     1
102
RTVSPropertyOp19
 70
     1
102
RTVSPropertyOp20
 70
     1
102
RTVSPropertyOp21
 70
     1
102
RTVSPropertyOp22
 70
     1
102
RTVSPropertyOp23
 70
     1
102
RTVSPropertyOp24
 70
     1
102
RTVSPropertyOp25
 70
     1
102
RTVSPropertyOp26
 70
     1
102
RTVSPropertyOp27
 70
     1
102
RTVSPropertyOp28
 70
     1
102
RTVSPropertyOp29
 70
     1
102
RTVSPropertyOp30
 70
     1
102
RTVSPropertyOp31
 70
     1
102
RTVSPropertyOp32
 70
     1
102
RTVSPropertyOp33
 70
     1
102
RTVSPropertyOp34
 70
     1
102
RTVSPropertyOp35
 70
     1
102
RTVSPropertyOp36
 70
     1
102
RTVSPropertyOp37
 70
     1
102
RTVSPropertyOp38
 70
     1
102
RTVSPropertyOp39
 70
     1
102
RTVSPropertyOp40
 70
     1
102
RTVSPropertyOp41
 70
     1
102
RTVSPropertyOp42
 70
     1
102
RTVSPropertyOp43
 70
     1
102
RTVSPropertyOp44
 70
     1
102
RTVSPropertyOp45
 70
     1
102
RTVSPropertyOp46
 70
     1
102
RTVSPropertyOp47
 70
     1
102
RTVSPropertyOp48
 70
     1
102
RTVSPropertyOp49
 70
     1
102
RTVSPropertyOp50
 70
     1
102
RTVSPropertyOp51
 70
     0
102
RTVSPropertyOp52
 70
     0
102
RTVSPropertyOp53
 70
     1
102
RTVSPropertyOp54
 70
     1
102
RTVSPropertyOp55
 70
     1
102
RTVSPropertyOp56
 70
     1
102
RTVSPropertyOp57
 70
     1
102
RTVSPropertyOp58
 70
     1
102
RTVSPropertyOp59
 70
     1
102
RTVSPropertyOp60
 70
     1
102
RTVSPropertyOp61
 70
     1
102
RTVSPropertyOp62
 70
     1
  0
XRECORD
  5
B1C6
102
{ACAD_REACTORS
330
B1C5
102
}
330
B1C5
100
AcDbXrecord
280
     1
102
RTVSPost2010Prop28
280
     0
102
RTVSPost2010PropOp28
 70
     1
102
RTVSPost2010Prop29
280
     1
102
RTVSPost2010PropOp29
 70
     1
102
RTVSPost2010Prop30
280
     1
102
RTVSPost2010PropOp30
 70
     1
102
RTVSPost2010Prop31
280
     0
102
RTVSPost2010PropOp31
 70
     1
102
RTVSPost2010Prop32
280
     0
102
RTVSPost2010PropOp32
 70
     1
102
RTVSPost2010Prop33
280
     0
102
RTVSPost2010PropOp33
 70
     1
102
RTVSPost2010Prop34
280
     0
102
RTVSPost2010PropOp34
 70
     1
102
RTVSPost2010Prop35
280
     0
102
RTVSPost2010PropOp35
 70
     1
102
RTVSPost2010Prop36
280
     0
102
RTVSPost2010PropOp36
 70
     1
102
RTVSPost2010Prop37
 90
       50
102
RTVSPost2010PropOp37
 70
     1
102
RTVSPost2010Prop38
140
0.0
102
RTVSPost2010PropOp38
 70
     1
102
RTVSPost2010Prop39
140
1.0
102
RTVSPost2010PropOp39
 70
     1
102
RTVSPost2010Prop40
 90
        0
102
RTVSPost2010PropOp40
 70
     1
102
RTVSPost2010Prop41ColorIndex
 90
       18
102
RTVSPost2010Prop41ColorRGB
 90
        0
102
RTVSPost2010PropOp41
 70
     1
102
RTVSPost2010Prop42
 90
       50
102
RTVSPost2010PropOp42
 70
     1
102
RTVSPost2010Prop43
 90
        3
102
RTVSPost2010PropOp43
 70
     1
102
RTVSPost2010Prop44ColorIndex
 90
        5
102
RTVSPost2010Prop44ColorRGB
 90
      255
102
RTVSPost2010PropOp44
 70
     1
102
RTVSPost2010Prop45
280
     0
102
RTVSPost2010PropOp45
 70
     1
102
RTVSPost2010Prop46
 90
       50
102
RTVSPost2010PropOp46
 70
     1
102
RTVSPost2010Prop47
 90
       50
102
RTVSPost2010PropOp47
 70
     1
102
RTVSPost2010Prop48
 90
       50
102
RTVSPost2010PropOp48
 70
     1
102
RTVSPost2010Prop49
280
     0
102
RTVSPost2010PropOp49
 70
     1
102
RTVSPost2010Prop50
 90
       50
102
RTVSPost2010PropOp50
 70
     1
102
RTVSPost2010Prop51ColorIndex
 90
      256
102
RTVSPost2010Prop51ColorRGB
 90
-16777216
102
RTVSPost2010PropOp51
 70
     0
102
RTVSPost2010Prop52
140
1.0
102
RTVSPost2010PropOp52
 70
     0
102
RTVSPost2010Prop53
 90
        2
102
RTVSPost2010PropOp53
 70
     1
102
RTVSPost2010Prop54
  1
strokes_ogs.tif
102
RTVSPost2010PropOp54
 70
     1
102
RTVSPost2010Prop55
280
     0
102
RTVSPost2010PropOp55
 70
     1
102
RTVSPost2010Prop56
140
1.0
102
RTVSPost2010PropOp56
 70
     1
102
RTVSPost2010Prop57
140
1.0
102
RTVSPost2010PropOp57
 70
     1
102
RTVSPropertyOp0
 70
     1
102
RTVSPropertyOp1
 70
     1
102
RTVSPropertyOp2
 70
     1
102
RTVSPropertyOp3
 70
     1
102
RTVSPropertyOp4
 70
     1
102
RTVSPropertyOp5
 70
     1
102
RTVSPropertyOp6
 70
     1
102
RTVSPropertyOp7
 70
     1
102
RTVSPropertyOp8
 70
     1
102
RTVSPropertyOp9
 70
     1
102
RTVSPropertyOp10
 70
     1
102
RTVSPropertyOp11
 70
     1
102
RTVSPropertyOp12
 70
     1
102
RTVSPropertyOp13
 70
     1
102
RTVSPropertyOp14
 70
     1
102
RTVSPropertyOp15
 70
     1
102
RTVSPropertyOp16
 70
     1
102
RTVSPropertyOp17
 70
     1
102
RTVSPropertyOp18
 70
     1
102
RTVSPropertyOp19
 70
     1
102
RTVSPropertyOp20
 70
     1
102
RTVSPropertyOp21
 70
     1
102
RTVSPropertyOp22
 70
     1
102
RTVSPropertyOp23
 70
     1
102
RTVSPropertyOp24
 70
     1
102
RTVSPropertyOp25
 70
     1
102
RTVSPropertyOp26
 70
     1
102
RTVSPropertyOp27
 70
     1
102
RTVSPropertyOp28
 70
     1
102
RTVSPropertyOp29
 70
     1
102
RTVSPropertyOp30
 70
     1
102
RTVSPropertyOp31
 70
     1
102
RTVSPropertyOp32
 70
     1
102
RTVSPropertyOp33
 70
     1
102
RTVSPropertyOp34
 70
     1
102
RTVSPropertyOp35
 70
     1
102
RTVSPropertyOp36
 70
     1
102
RTVSPropertyOp37
 70
     1
102
RTVSPropertyOp38
 70
     1
102
RTVSPropertyOp39
 70
     1
102
RTVSPropertyOp40
 70
     1
102
RTVSPropertyOp41
 70
     1
102
RTVSPropertyOp42
 70
     1
102
RTVSPropertyOp43
 70
     1
102
RTVSPropertyOp44
 70
     1
102
RTVSPropertyOp45
 70
     1
102
RTVSPropertyOp46
 70
     1
102
RTVSPropertyOp47
 70
     1
102
RTVSPropertyOp48
 70
     1
102
RTVSPropertyOp49
 70
     1
102
RTVSPropertyOp50
 70
     1
102
RTVSPropertyOp51
 70
     0
102
RTVSPropertyOp52
 70
     0
102
RTVSPropertyOp53
 70
     1
102
RTVSPropertyOp54
 70
     1
102
RTVSPropertyOp55
 70
     1
102
RTVSPropertyOp56
 70
     1
102
RTVSPropertyOp57
 70
     1
102
RTVSPropertyOp58
 70
     1
102
RTVSPropertyOp59
 70
     1
102
RTVSPropertyOp60
 70
     1
102
RTVSPropertyOp61
 70
     1
102
RTVSPropertyOp62
 70
     1
  0
XRECORD
  5
B1BA
102
{ACAD_REACTORS
330
B1B9
102
}
330
B1B9
100
AcDbXrecord
280
     1
102
RTVSPost2010Prop28
280
     0
102
RTVSPost2010PropOp28
 70
     1
102
RTVSPost2010Prop29
280
     1
102
RTVSPost2010PropOp29
 70
     1
102
RTVSPost2010Prop30
280
     1
102
RTVSPost2010PropOp30
 70
     1
102
RTVSPost2010Prop31
280
     0
102
RTVSPost2010PropOp31
 70
     1
102
RTVSPost2010Prop32
280
     0
102
RTVSPost2010PropOp32
 70
     1
102
RTVSPost2010Prop33
280
     0
102
RTVSPost2010PropOp33
 70
     1
102
RTVSPost2010Prop34
280
     0
102
RTVSPost2010PropOp34
 70
     1
102
RTVSPost2010Prop35
280
     0
102
RTVSPost2010PropOp35
 70
     1
102
RTVSPost2010Prop36
280
     0
102
RTVSPost2010PropOp36
 70
     1
102
RTVSPost2010Prop37
 90
       50
102
RTVSPost2010PropOp37
 70
     1
102
RTVSPost2010Prop38
140
0.0
102
RTVSPost2010PropOp38
 70
     1
102
RTVSPost2010Prop39
140
1.0
102
RTVSPost2010PropOp39
 70
     1
102
RTVSPost2010Prop40
 90
        0
102
RTVSPost2010PropOp40
 70
     1
102
RTVSPost2010Prop41ColorIndex
 90
       18
102
RTVSPost2010Prop41ColorRGB
 90
        0
102
RTVSPost2010PropOp41
 70
     1
102
RTVSPost2010Prop42
 90
       50
102
RTVSPost2010PropOp42
 70
     1
102
RTVSPost2010Prop43
 90
        3
102
RTVSPost2010PropOp43
 70
     1
102
RTVSPost2010Prop44ColorIndex
 90
        5
102
RTVSPost2010Prop44ColorRGB
 90
      255
102
RTVSPost2010PropOp44
 70
     1
102
RTVSPost2010Prop45
280
     0
102
RTVSPost2010PropOp45
 70
     1
102
RTVSPost2010Prop46
 90
       50
102
RTVSPost2010PropOp46
 70
     1
102
RTVSPost2010Prop47
 90
       50
102
RTVSPost2010PropOp47
 70
     1
102
RTVSPost2010Prop48
 90
       50
102
RTVSPost2010PropOp48
 70
     1
102
RTVSPost2010Prop49
280
     0
102
RTVSPost2010PropOp49
 70
     1
102
RTVSPost2010Prop50
 90
       50
102
RTVSPost2010PropOp50
 70
     1
102
RTVSPost2010Prop51ColorIndex
 90
      256
102
RTVSPost2010Prop51ColorRGB
 90
-16777216
102
RTVSPost2010PropOp51
 70
     0
102
RTVSPost2010Prop52
140
1.0
102
RTVSPost2010PropOp52
 70
     0
102
RTVSPost2010Prop53
 90
        2
102
RTVSPost2010PropOp53
 70
     1
102
RTVSPost2010Prop54
  1
strokes_ogs.tif
102
RTVSPost2010PropOp54
 70
     1
102
RTVSPost2010Prop55
280
     0
102
RTVSPost2010PropOp55
 70
     1
102
RTVSPost2010Prop56
140
1.0
102
RTVSPost2010PropOp56
 70
     1
102
RTVSPost2010Prop57
140
1.0
102
RTVSPost2010PropOp57
 70
     1
102
RTVSPropertyOp0
 70
     1
102
RTVSPropertyOp1
 70
     1
102
RTVSPropertyOp2
 70
     1
102
RTVSPropertyOp3
 70
     1
102
RTVSPropertyOp4
 70
     1
102
RTVSPropertyOp5
 70
     1
102
RTVSPropertyOp6
 70
     1
102
RTVSPropertyOp7
 70
     1
102
RTVSPropertyOp8
 70
     1
102
RTVSPropertyOp9
 70
     1
102
RTVSPropertyOp10
 70
     1
102
RTVSPropertyOp11
 70
     1
102
RTVSPropertyOp12
 70
     1
102
RTVSPropertyOp13
 70
     1
102
RTVSPropertyOp14
 70
     1
102
RTVSPropertyOp15
 70
     1
102
RTVSPropertyOp16
 70
     1
102
RTVSPropertyOp17
 70
     1
102
RTVSPropertyOp18
 70
     1
102
RTVSPropertyOp19
 70
     1
102
RTVSPropertyOp20
 70
     1
102
RTVSPropertyOp21
 70
     1
102
RTVSPropertyOp22
 70
     1
102
RTVSPropertyOp23
 70
     1
102
RTVSPropertyOp24
 70
     1
102
RTVSPropertyOp25
 70
     1
102
RTVSPropertyOp26
 70
     1
102
RTVSPropertyOp27
 70
     1
102
RTVSPropertyOp28
 70
     1
102
RTVSPropertyOp29
 70
     1
102
RTVSPropertyOp30
 70
     1
102
RTVSPropertyOp31
 70
     1
102
RTVSPropertyOp32
 70
     1
102
RTVSPropertyOp33
 70
     1
102
RTVSPropertyOp34
 70
     1
102
RTVSPropertyOp35
 70
     1
102
RTVSPropertyOp36
 70
     1
102
RTVSPropertyOp37
 70
     1
102
RTVSPropertyOp38
 70
     1
102
RTVSPropertyOp39
 70
     1
102
RTVSPropertyOp40
 70
     1
102
RTVSPropertyOp41
 70
     1
102
RTVSPropertyOp42
 70
     1
102
RTVSPropertyOp43
 70
     1
102
RTVSPropertyOp44
 70
     1
102
RTVSPropertyOp45
 70
     1
102
RTVSPropertyOp46
 70
     1
102
RTVSPropertyOp47
 70
     1
102
RTVSPropertyOp48
 70
     1
102
RTVSPropertyOp49
 70
     1
102
RTVSPropertyOp50
 70
     1
102
RTVSPropertyOp51
 70
     0
102
RTVSPropertyOp52
 70
     0
102
RTVSPropertyOp53
 70
     1
102
RTVSPropertyOp54
 70
     1
102
RTVSPropertyOp55
 70
     1
102
RTVSPropertyOp56
 70
     1
102
RTVSPropertyOp57
 70
     1
102
RTVSPropertyOp58
 70
     1
102
RTVSPropertyOp59
 70
     1
102
RTVSPropertyOp60
 70
     1
102
RTVSPropertyOp61
 70
     1
102
RTVSPropertyOp62
 70
     1
  0
XRECORD
  5
B1D2
102
{ACAD_REACTORS
330
B1D1
102
}
330
B1D1
100
AcDbXrecord
280
     1
102
RTVSPost2010Prop28
280
     0
102
RTVSPost2010PropOp28
 70
     1
102
RTVSPost2010Prop29
280
     1
102
RTVSPost2010PropOp29
 70
     1
102
RTVSPost2010Prop30
280
     1
102
RTVSPost2010PropOp30
 70
     1
102
RTVSPost2010Prop31
280
     0
102
RTVSPost2010PropOp31
 70
     1
102
RTVSPost2010Prop32
280
     0
102
RTVSPost2010PropOp32
 70
     1
102
RTVSPost2010Prop33
280
     0
102
RTVSPost2010PropOp33
 70
     1
102
RTVSPost2010Prop34
280
     0
102
RTVSPost2010PropOp34
 70
     1
102
RTVSPost2010Prop35
280
     0
102
RTVSPost2010PropOp35
 70
     1
102
RTVSPost2010Prop36
280
     0
102
RTVSPost2010PropOp36
 70
     1
102
RTVSPost2010Prop37
 90
       50
102
RTVSPost2010PropOp37
 70
     1
102
RTVSPost2010Prop38
140
0.0
102
RTVSPost2010PropOp38
 70
     1
102
RTVSPost2010Prop39
140
1.0
102
RTVSPost2010PropOp39
 70
     1
102
RTVSPost2010Prop40
 90
        0
102
RTVSPost2010PropOp40
 70
     1
102
RTVSPost2010Prop41ColorIndex
 90
       18
102
RTVSPost2010Prop41ColorRGB
 90
        0
102
RTVSPost2010PropOp41
 70
     1
102
RTVSPost2010Prop42
 90
       50
102
RTVSPost2010PropOp42
 70
     1
102
RTVSPost2010Prop43
 90
        3
102
RTVSPost2010PropOp43
 70
     1
102
RTVSPost2010Prop44ColorIndex
 90
        5
102
RTVSPost2010Prop44ColorRGB
 90
      255
102
RTVSPost2010PropOp44
 70
     1
102
RTVSPost2010Prop45
280
     0
102
RTVSPost2010PropOp45
 70
     1
102
RTVSPost2010Prop46
 90
       50
102
RTVSPost2010PropOp46
 70
     1
102
RTVSPost2010Prop47
 90
       50
102
RTVSPost2010PropOp47
 70
     1
102
RTVSPost2010Prop48
 90
       50
102
RTVSPost2010PropOp48
 70
     1
102
RTVSPost2010Prop49
280
     0
102
RTVSPost2010PropOp49
 70
     1
102
RTVSPost2010Prop50
 90
       50
102
RTVSPost2010PropOp50
 70
     1
102
RTVSPost2010Prop51ColorIndex
 90
      256
102
RTVSPost2010Prop51ColorRGB
 90
-16777216
102
RTVSPost2010PropOp51
 70
     0
102
RTVSPost2010Prop52
140
1.0
102
RTVSPost2010PropOp52
 70
     0
102
RTVSPost2010Prop53
 90
        2
102
RTVSPost2010PropOp53
 70
     1
102
RTVSPost2010Prop54
  1
strokes_ogs.tif
102
RTVSPost2010PropOp54
 70
     1
102
RTVSPost2010Prop55
280
     0
102
RTVSPost2010PropOp55
 70
     1
102
RTVSPost2010Prop56
140
1.0
102
RTVSPost2010PropOp56
 70
     1
102
RTVSPost2010Prop57
140
1.0
102
RTVSPost2010PropOp57
 70
     1
102
RTVSPropertyOp0
 70
     1
102
RTVSPropertyOp1
 70
     1
102
RTVSPropertyOp2
 70
     1
102
RTVSPropertyOp3
 70
     1
102
RTVSPropertyOp4
 70
     1
102
RTVSPropertyOp5
 70
     1
102
RTVSPropertyOp6
 70
     1
102
RTVSPropertyOp7
 70
     1
102
RTVSPropertyOp8
 70
     1
102
RTVSPropertyOp9
 70
     1
102
RTVSPropertyOp10
 70
     1
102
RTVSPropertyOp11
 70
     1
102
RTVSPropertyOp12
 70
     1
102
RTVSPropertyOp13
 70
     1
102
RTVSPropertyOp14
 70
     1
102
RTVSPropertyOp15
 70
     1
102
RTVSPropertyOp16
 70
     1
102
RTVSPropertyOp17
 70
     1
102
RTVSPropertyOp18
 70
     1
102
RTVSPropertyOp19
 70
     1
102
RTVSPropertyOp20
 70
     1
102
RTVSPropertyOp21
 70
     1
102
RTVSPropertyOp22
 70
     1
102
RTVSPropertyOp23
 70
     1
102
RTVSPropertyOp24
 70
     1
102
RTVSPropertyOp25
 70
     1
102
RTVSPropertyOp26
 70
     1
102
RTVSPropertyOp27
 70
     1
102
RTVSPropertyOp28
 70
     1
102
RTVSPropertyOp29
 70
     1
102
RTVSPropertyOp30
 70
     1
102
RTVSPropertyOp31
 70
     1
102
RTVSPropertyOp32
 70
     1
102
RTVSPropertyOp33
 70
     1
102
RTVSPropertyOp34
 70
     1
102
RTVSPropertyOp35
 70
     1
102
RTVSPropertyOp36
 70
     1
102
RTVSPropertyOp37
 70
     1
102
RTVSPropertyOp38
 70
     1
102
RTVSPropertyOp39
 70
     1
102
RTVSPropertyOp40
 70
     1
102
RTVSPropertyOp41
 70
     1
102
RTVSPropertyOp42
 70
     1
102
RTVSPropertyOp43
 70
     1
102
RTVSPropertyOp44
 70
     1
102
RTVSPropertyOp45
 70
     1
102
RTVSPropertyOp46
 70
     1
102
RTVSPropertyOp47
 70
     1
102
RTVSPropertyOp48
 70
     1
102
RTVSPropertyOp49
 70
     1
102
RTVSPropertyOp50
 70
     1
102
RTVSPropertyOp51
 70
     0
102
RTVSPropertyOp52
 70
     0
102
RTVSPropertyOp53
 70
     1
102
RTVSPropertyOp54
 70
     1
102
RTVSPropertyOp55
 70
     1
102
RTVSPropertyOp56
 70
     1
102
RTVSPropertyOp57
 70
     1
102
RTVSPropertyOp58
 70
     1
102
RTVSPropertyOp59
 70
     1
102
RTVSPropertyOp60
 70
     1
102
RTVSPropertyOp61
 70
     1
102
RTVSPropertyOp62
 70
     1
  0
ENDSEC
  0
EOF
