  0
SECTION
  2
HEADER
  9
$ACADVER
  1
AC1015
  9
$ACADMAINTVER
 70
    20
  9
$DWGCODEPAGE
  3
ANSI_1252
  9
$INSBASE
 10
0.0
 20
0.0
 30
0.0
  9
$EXTMIN
 10
568.455106347372
 20
-2172.627871729547
 30
0.0
  9
$EXTMAX
 10
1169.313814728061
 20
-1364.580649053193
 30
0.0
  9
$LIMMIN
 10
0.0
 20
0.0
  9
$LIMMAX
 10
297.0
 20
210.0
  9
$ORTHOMODE
 70
     0
  9
$REGENMODE
 70
     1
  9
$FILLMODE
 70
     1
  9
$QTEXTMODE
 70
     0
  9
$MIRRTEXT
 70
     0
  9
$LTSCALE
 40
1.5
  9
$ATTMODE
 70
     1
  9
$TEXTSIZE
 40
3.5
  9
$TRACEWID
 40
1.0
  9
$TEXTSTYLE
  7
STANDARD
  9
$CLAYER
  8
FERRO
  9
$CELTYPE
  6
BYLAYER
  9
$CECOLOR
 62
   256
  9
$CELTSCALE
 40
1.0
  9
$DISPSILH
 70
     0
  9
$DIMSCALE
 40
3.0
  9
$DIMASZ
 40
1.0
  9
$DIMEXO
 40
1.5
  9
$DIMDLI
 40
10.0
  9
$DIMRND
 40
0.0
  9
$DIMDLE
 40
0.0
  9
$DIMEXE
 40
0.0
  9
$DIMTP
 40
0.0
  9
$DIMTM
 40
0.0
  9
$DIMTXT
 40
2.5
  9
$DIMCEN
 40
2.0
  9
$DIMTSZ
 40
0.0
  9
$DIMTOL
 70
     0
  9
$DIMLIM
 70
     0
  9
$DIMTIH
 70
     0
  9
$DIMTOH
 70
     0
  9
$DIMSE1
 70
     0
  9
$DIMSE2
 70
     0
  9
$DIMTAD
 70
     1
  9
$DIMZIN
 70
     8
  9
$DIMBLK
  1
Oblique
  9
$DIMASO
 70
     1
  9
$DIMSHO
 70
     1
  9
$DIMPOST
  1

  9
$DIMAPOST
  1

  9
$DIMALT
 70
     0
  9
$DIMALTD
 70
     4
  9
$DIMALTF
 40
0.0394
  9
$DIMLFAC
 40
1.0
  9
$DIMTOFL
 70
     1
  9
$DIMTVP
 40
0.0
  9
$DIMTIX
 70
     0
  9
$DIMSOXD
 70
     0
  9
$DIMSAH
 70
     0
  9
$DIMBLK1
  1

  9
$DIMBLK2
  1

  9
$DIMSTYLE
  2
STANDARD_WS
  9
$DIMCLRD
 70
   256
  9
$DIMCLRE
 70
   256
  9
$DIMCLRT
 70
   256
  9
$DIMTFAC
 40
1.0
  9
$DIMGAP
 40
1.0
  9
$DIMJUST
 70
     0
  9
$DIMSD1
 70
     0
  9
$DIMSD2
 70
     0
  9
$DIMTOLJ
 70
     1
  9
$DIMTZIN
 70
     0
  9
$DIMALTZ
 70
     0
  9
$DIMALTTZ
 70
     0
  9
$DIMUPT
 70
     0
  9
$DIMDEC
 70
     1
  9
$DIMTDEC
 70
     1
  9
$DIMALTU
 70
     8
  9
$DIMALTTD
 70
     4
  9
$DIMTXSTY
  7
STANDARD
  9
$DIMAUNIT
 70
     0
  9
$DIMADEC
 70
     1
  9
$DIMALTRND
 40
0.0
  9
$DIMAZIN
 70
     2
  9
$DIMDSEP
 70
    46
  9
$DIMATFIT
 70
     3
  9
$DIMFRAC
 70
     0
  9
$DIMLDRBLK
  1
Oblique
  9
$DIMLUNIT
 70
     2
  9
$DIMLWD
 70
    -2
  9
$DIMLWE
 70
    -2
  9
$DIMTMOVE
 70
     0
  9
$LUNITS
 70
     2
  9
$LUPREC
 70
     4
  9
$SKETCHINC
 40
1.0
  9
$FILLETRAD
 40
7.07070707070707
  9
$AUNITS
 70
     0
  9
$AUPREC
 70
     0
  9
$MENU
  1
acad
  9
$ELEVATION
 40
0.0
  9
$PELEVATION
 40
0.0
  9
$THICKNESS
 40
0.0
  9
$LIMCHECK
 70
     0
  9
$CHAMFERA
 40
7.07070707070707
  9
$CHAMFERB
 40
7.07070707070707
  9
$CHAMFERC
 40
14.14141414141414
  9
$CHAMFERD
 40
0.0
  9
$SKPOLY
 70
     0
  9
$TDCREATE
 40
2451513.764827315
  9
$TDUCREATE
 40
2451513.723160648
  9
$TDUPDATE
 40
2457730.483964086
  9
$TDUUPDATE
 40
2457730.442297419
  9
$TDINDWG
 40
0.2574307639
  9
$TDUSRTIMER
 40
0.2574307639
  9
$USRTIMER
 70
     1
  9
$ANGBASE
 50
0.0
  9
$ANGDIR
 70
     0
  9
$PDMODE
 70
     0
  9
$PDSIZE
 40
0.0
  9
$PLINEWID
 40
0.0
  9
$SPLFRAME
 70
     0
  9
$SPLINETYPE
 70
     6
  9
$SPLINESEGS
 70
     8
  9
$HANDSEED
  5
B17A
  9
$SURFTAB1
 70
     6
  9
$SURFTAB2
 70
     6
  9
$SURFTYPE
 70
     6
  9
$SURFU
 70
     6
  9
$SURFV
 70
     6
  9
$UCSBASE
  2

  9
$UCSNAME
  2

  9
$UCSORG
 10
0.0
 20
0.0
 30
0.0
  9
$UCSXDIR
 10
1.0
 20
0.0
 30
0.0
  9
$UCSYDIR
 10
0.0
 20
1.0
 30
0.0
  9
$UCSORTHOREF
  2

  9
$UCSORTHOVIEW
 70
     0
  9
$UCSORGTOP
 10
0.0
 20
0.0
 30
0.0
  9
$UCSORGBOTTOM
 10
0.0
 20
0.0
 30
0.0
  9
$UCSORGLEFT
 10
0.0
 20
0.0
 30
0.0
  9
$UCSORGRIGHT
 10
0.0
 20
0.0
 30
0.0
  9
$UCSORGFRONT
 10
0.0
 20
0.0
 30
0.0
  9
$UCSORGBACK
 10
0.0
 20
0.0
 30
0.0
  9
$PUCSBASE
  2

  9
$PUCSNAME
  2

  9
$PUCSORG
 10
0.0
 20
0.0
 30
0.0
  9
$PUCSXDIR
 10
1.0
 20
0.0
 30
0.0
  9
$PUCSYDIR
 10
0.0
 20
1.0
 30
0.0
  9
$PUCSORTHOREF
  2

  9
$PUCSORTHOVIEW
 70
     0
  9
$PUCSORGTOP
 10
0.0
 20
0.0
 30
0.0
  9
$PUCSORGBOTTOM
 10
0.0
 20
0.0
 30
0.0
  9
$PUCSORGLEFT
 10
0.0
 20
0.0
 30
0.0
  9
$PUCSORGRIGHT
 10
0.0
 20
0.0
 30
0.0
  9
$PUCSORGFRONT
 10
0.0
 20
0.0
 30
0.0
  9
$PUCSORGBACK
 10
0.0
 20
0.0
 30
0.0
  9
$USERI1
 70
     0
  9
$USERI2
 70
     0
  9
$USERI3
 70
     0
  9
$USERI4
 70
     0
  9
$USERI5
 70
     0
  9
$USERR1
 40
0.0
  9
$USERR2
 40
0.0
  9
$USERR3
 40
0.0
  9
$USERR4
 40
0.0
  9
$USERR5
 40
0.0
  9
$WORLDVIEW
 70
     1
  9
$SHADEDGE
 70
     3
  9
$SHADEDIF
 70
    70
  9
$TILEMODE
 70
     1
  9
$MAXACTVP
 70
    48
  9
$PINSBASE
 10
0.0
 20
0.0
 30
0.0
  9
$PLIMCHECK
 70
     0
  9
$PEXTMIN
 10
0.0
 20
0.0
 30
0.0
  9
$PEXTMAX
 10
11.0
 20
8.5
 30
0.0
  9
$PLIMMIN
 10
0.0
 20
0.0
  9
$PLIMMAX
 10
11.0
 20
8.5
  9
$UNITMODE
 70
     0
  9
$VISRETAIN
 70
     1
  9
$PLINEGEN
 70
     0
  9
$PSLTSCALE
 70
     1
  9
$TREEDEPTH
 70
  3020
  9
$CMLSTYLE
  2
STANDARD
  9
$CMLJUST
 70
     0
  9
$CMLSCALE
 40
20.0
  9
$PROXYGRAPHICS
 70
     1
  9
$MEASUREMENT
 70
     1
  9
$CELWEIGHT
370
    -1
  9
$ENDCAPS
280
     0
  9
$JOINSTYLE
280
     0
  9
$LWDISPLAY
290
     0
  9
$INSUNITS
 70
     0
  9
$HYPERLINKBASE
  1

  9
$STYLESHEET
  1
aclt.ctb
  9
$XEDIT
290
     1
  9
$CEPSNTYPE
380
     0
  9
$PSTYLEMODE
290
     1
  9
$FINGERPRINTGUID
  2
{245EED19-B48F-11D3-AE0D-0050BF001A35}
  9
$VERSIONGUID
  2
{5328D96C-AA01-4DE2-9FE5-0726D6EF55F6}
  9
$EXTNAMES
290
     1
  9
$PSVPSCALE
 40
0.0
  9
$OLESTARTUP
290
     0
  0
ENDSEC
  0
SECTION
  2
CLASSES
  0
CLASS
  1
DICTIONARYVAR
  2
AcDbDictionaryVar
  3
ObjectDBX Classes
 90
        0
280
     0
281
     0
  0
CLASS
  1
ACDBDICTIONARYWDFLT
  2
AcDbDictionaryWithDefault
  3
ObjectDBX Classes
 90
        0
280
     0
281
     0
  0
CLASS
  1
ACDBPLACEHOLDER
  2
AcDbPlaceHolder
  3
ObjectDBX Classes
 90
        0
280
     0
281
     0
  0
CLASS
  1
LAYOUT
  2
AcDbLayout
  3
ObjectDBX Classes
 90
        0
280
     0
281
     0
  0
CLASS
  1
MATERIAL
  2
AcDbMaterial
  3
ObjectDBX Classes
 90
     1153
280
     0
281
     0
  0
CLASS
  1
VISUALSTYLE
  2
AcDbVisualStyle
  3
ObjectDBX Classes
 90
     4095
280
     0
281
     0
  0
CLASS
  1
TABLESTYLE
  2
AcDbTableStyle
  3
ObjectDBX Classes
 90
     4095
280
     0
281
     0
  0
CLASS
  1
SCALE
  2
AcDbScale
  3
ObjectDBX Classes
 90
     1153
280
     0
281
     0
  0
CLASS
  1
MLEADERSTYLE
  2
AcDbMLeaderStyle
  3
ACDB_MLEADERSTYLE_CLASS
 90
     4095
280
     0
281
     0
  0
CLASS
  1
ACDBSECTIONVIEWSTYLE
  2
AcDbSectionViewStyle
  3
ObjectDBX Classes
 90
     1025
280
     0
281
     0
  0
CLASS
  1
ACDBDETAILVIEWSTYLE
  2
AcDbDetailViewStyle
  3
ObjectDBX Classes
 90
     1025
280
     0
281
     0
  0
CLASS
  1
CELLSTYLEMAP
  2
AcDbCellStyleMap
  3
ObjectDBX Classes
 90
     1152
280
     0
281
     0
  0
ENDSEC
  0
SECTION
  2
TABLES
  0
TABLE
  2
VPORT
  5
8
330
0
100
AcDbSymbolTable
 70
     1
  0
VPORT
  5
B0C3
330
8
100
AcDbSymbolTableRecord
100
AcDbViewportTableRecord
  2
*Active
 70
     0
 10
0.0
 20
0.0
 11
1.0
 21
1.0
 12
1584.519686247382
 22
-1655.979215668362
 13
0.0
 23
0.0
 14
10.0
 24
10.0
 15
10.0
 25
10.0
 16
0.0
 26
0.0
 36
1.0
 17
0.0
 27
0.0
 37
0.0
 40
1308.386982944232
 41
2.085280373831775
 42
50.0
 43
0.0
 44
0.0
 50
0.0
 51
0.0
 71
     0
 72
   100
 73
     1
 74
     1
 75
     0
 76
     0
 77
     0
 78
     0
281
     0
 65
     1
110
0.0
120
0.0
130
0.0
111
1.0
121
0.0
131
0.0
112
0.0
122
1.0
132
0.0
 79
     0
146
0.0
1001
ACAD_NAV_VCDISPLAY
1070
     3
  0
ENDTAB
  0
TABLE
  2
LTYPE
  5
5
330
0
100
AcDbSymbolTable
 70
     3
  0
LTYPE
  5
12
330
5
100
AcDbSymbolTableRecord
100
AcDbLinetypeTableRecord
  2
BYBLOCK
 70
     0
  3

 72
    65
 73
     0
 40
0.0
  0
LTYPE
  5
13
330
5
100
AcDbSymbolTableRecord
100
AcDbLinetypeTableRecord
  2
BYLAYER
 70
     0
  3

 72
    65
 73
     0
 40
0.0
  0
LTYPE
  5
14
330
5
100
AcDbSymbolTableRecord
100
AcDbLinetypeTableRecord
  2
CONTINUOUS
 70
     0
  3
Solid line
 72
    65
 73
     0
 40
0.0
  0
LTYPE
  5
40
330
5
100
AcDbSymbolTableRecord
100
AcDbLinetypeTableRecord
  2
TRATTEGGIATA2
 70
     0
  3
tratteggiata (.5x) _ _ _ _ _ _ _ _ _ _ _ _ _ _ 
 72
    65
 73
     2
 40
9.524999999999998
 49
6.349999999999999
 74
     0
 49
-3.174999999999999
 74
     0
  0
LTYPE
  5
A46D
330
5
100
AcDbSymbolTableRecord
100
AcDbLinetypeTableRecord
  2
TRATTOPUNTO2
 70
     0
  3
Tratto punto (.5x) _._._._._._._._._._._._._._.
 72
    65
 73
     4
 40
12.7
 49
6.349999999999999
 74
     0
 49
-3.174999999999999
 74
     0
 49
0.0
 74
     0
 49
-3.174999999999999
 74
     0
  0
ENDTAB
  0
TABLE
  2
LAYER
  5
2
330
0
100
AcDbSymbolTable
 70
    11
  0
LAYER
  5
E
102
{ACAD_XDICTIONARY
360
B11A
102
}
330
2
100
AcDbSymbolTableRecord
100
AcDbLayerTableRecord
  2
0
 70
     0
 62
     7
  6
CONTINUOUS
370
    -3
390
A2C3
  0
LAYER
  5
33
102
{ACAD_XDICTIONARY
360
B11C
102
}
330
2
100
AcDbSymbolTableRecord
100
AcDbLayerTableRecord
  2
QUOTE
 70
     0
 62
    12
  6
TRATTEGGIATA2
370
    -3
390
A2C3
  0
LAYER
  5
43
102
{ACAD_XDICTIONARY
360
B11E
102
}
330
2
100
AcDbSymbolTableRecord
100
AcDbLayerTableRecord
  2
FERRO
 70
     0
 62
   250
  6
CONTINUOUS
370
    -3
390
A2C3
  0
LAYER
  5
59
102
{ACAD_XDICTIONARY
360
B120
102
}
330
2
100
AcDbSymbolTableRecord
100
AcDbLayerTableRecord
  2
AREA
 70
     1
 62
   166
  6
CONTINUOUS
370
    -3
390
A2C3
  0
LAYER
  5
138
330
2
100
AcDbSymbolTableRecord
100
AcDbLayerTableRecord
  2
DEFPOINTS
 70
     0
 62
     7
  6
CONTINUOUS
290
     0
370
    -3
390
A2C3
  0
LAYER
  5
5AF
102
{ACAD_XDICTIONARY
360
B122
102
}
330
2
100
AcDbSymbolTableRecord
100
AcDbLayerTableRecord
  2
TABELLA
 70
     0
 62
     7
  6
CONTINUOUS
370
    -3
390
A2C3
  0
LAYER
  5
185F
102
{ACAD_XDICTIONARY
360
B124
102
}
330
2
100
AcDbSymbolTableRecord
100
AcDbLayerTableRecord
  2
ALLUMINIO
 70
     0
 62
     3
  6
CONTINUOUS
370
    -3
390
A2C3
  0
LAYER
  5
2DBD
102
{ACAD_XDICTIONARY
360
B126
102
}
330
2
100
AcDbSymbolTableRecord
100
AcDbLayerTableRecord
  2
CONTORNO
 70
     0
 62
     7
  6
CONTINUOUS
370
    -3
390
A2C3
  0
LAYER
  5
A388
102
{ACAD_XDICTIONARY
360
B128
102
}
330
2
100
AcDbSymbolTableRecord
100
AcDbLayerTableRecord
  2
AREA166
 70
     0
 62
   166
  6
CONTINUOUS
370
    -3
390
A2C3
  0
LAYER
  5
A46E
102
{ACAD_XDICTIONARY
360
B12A
102
}
330
2
100
AcDbSymbolTableRecord
100
AcDbLayerTableRecord
  2
ASSI
 70
     0
 62
     5
  6
TRATTOPUNTO2
370
    -3
390
A2C3
  0
LAYER
  5
A6D9
102
{ACAD_XDICTIONARY
360
B12C
102
}
330
2
100
AcDbSymbolTableRecord
100
AcDbLayerTableRecord
  2
GUARNIZIONI
 70
     0
 62
    85
  6
CONTINUOUS
370
    -3
390
A2C3
  0
ENDTAB
  0
TABLE
  2
STYLE
  5
3
330
0
100
AcDbSymbolTable
 70
     3
  0
STYLE
  5
F
330
3
100
AcDbSymbolTableRecord
100
AcDbTextStyleTableRecord
  2
STANDARD
 70
     0
 40
0.0
 41
1.0
 50
0.0
 71
     0
 42
3.5
  3
txt
  4

  0
STYLE
  5
394
330
3
100
AcDbSymbolTableRecord
100
AcDbTextStyleTableRecord
  2
ROMANS
 70
     0
 40
2.5
 41
0.5
 50
0.0
 71
     0
 42
2.5
  3
romans
  4

  0
STYLE
  5
395
330
3
100
AcDbSymbolTableRecord
100
AcDbTextStyleTableRecord
  2
ROMAND
 70
     0
 40
3.0
 41
0.5
 50
0.0
 71
     0
 42
3.0
  3
romand
  4

  0
ENDTAB
  0
TABLE
  2
VIEW
  5
6
330
0
100
AcDbSymbolTable
 70
     0
  0
ENDTAB
  0
TABLE
  2
UCS
  5
7
330
0
100
AcDbSymbolTable
 70
     0
  0
ENDTAB
  0
TABLE
  2
APPID
  5
9
330
0
100
AcDbSymbolTable
 70
     7
  0
APPID
  5
10
330
9
100
AcDbSymbolTableRecord
100
AcDbRegAppTableRecord
  2
ACAD
 70
     0
  0
APPID
  5
24
330
9
100
AcDbSymbolTableRecord
100
AcDbRegAppTableRecord
  2
CONTENTTABDATA
 70
     0
  0
APPID
  5
25
330
9
100
AcDbSymbolTableRecord
100
AcDbRegAppTableRecord
  2
CONTENTCURRENTTAB
 70
     0
  0
APPID
  5
2DBF
330
9
100
AcDbSymbolTableRecord
100
AcDbRegAppTableRecord
  2
CONTENTBLOCKDESCRIPTION
 70
     0
  0
APPID
  5
2DC0
330
9
100
AcDbSymbolTableRecord
100
AcDbRegAppTableRecord
  2
CONTENTBLOCKICON
 70
     0
  0
APPID
  5
B136
330
9
100
AcDbSymbolTableRecord
100
AcDbRegAppTableRecord
  2
ACAD_NAV_VCDISPLAY
 70
     0
  0
APPID
  5
B177
330
9
100
AcDbSymbolTableRecord
100
AcDbRegAppTableRecord
  2
ACAD_MLEADERVER
 70
     0
  0
ENDTAB
  0
TABLE
  2
DIMSTYLE
  5
A
330
0
100
AcDbSymbolTable
 70
     2
100
AcDbDimStyleTable
 71
     1
340
38
  0
DIMSTYLE
105
1D
330
A
100
AcDbSymbolTableRecord
100
AcDbDimStyleTableRecord
  2
STANDARD
 70
     0
340
F
  0
DIMSTYLE
105
38
102
{ACAD_REACTORS
330
AE6B
330
AE7A
102
}
330
A
100
AcDbSymbolTableRecord
100
AcDbDimStyleTableRecord
  2
STANDARD_WS
 70
     0
 40
0.7070707070707071
 41
2.5
 42
0.625
 43
3.75
 44
1.25
 73
     0
 74
     0
 77
     1
 78
     8
140
2.5
141
2.5
143
0.0394
147
0.625
171
     4
172
     1
273
     8
274
     4
340
F
  0
ENDTAB
  0
TABLE
  2
BLOCK_RECORD
  5
1
330
0
100
AcDbSymbolTable
 70
     6
  0
BLOCK_RECORD
  5
18
330
1
100
AcDbSymbolTableRecord
100
AcDbBlockTableRecord
  2
*MODEL_SPACE
340
A2C6
  0
BLOCK_RECORD
  5
15
330
1
100
AcDbSymbolTableRecord
100
AcDbBlockTableRecord
  2
*PAPER_SPACE
340
A2C7
  0
BLOCK_RECORD
  5
370
330
1
100
AcDbSymbolTableRecord
100
AcDbBlockTableRecord
  2
WMF3
340
0
102
{BLKREFS
331
58A
331
CB4
331
D59
331
46E9
331
655B
331
670C
331
8AB0
331
8B44
331
8C16
331
8DD8
331
8F1B
331
8F1E
331
8F20
331
9079
331
907C
331
907E
331
9E04
331
9E06
331
9E08
331
9E9C
331
9FF9
331
9FFB
331
9FFD
331
A091
331
A1E3
331
A1E5
331
A1E7
331
A27B
331
A41E
331
A78B
331
A886
102
}
  0
BLOCK_RECORD
  5
373
330
1
100
AcDbSymbolTableRecord
100
AcDbBlockTableRecord
  2
WMF4
340
0
102
{BLKREFS
331
58B
331
CB5
331
D5A
331
46EA
331
655C
331
670D
331
8AB1
331
8B45
331
8C17
331
8DD9
331
8F1C
331
8F1F
331
8F21
331
907A
331
907D
331
907F
331
9E05
331
9E07
331
9E09
331
9E9D
331
9FFA
331
9FFC
331
9FFE
331
A092
331
A1E4
331
A1E6
331
A1E8
331
A27C
331
A41F
331
A78C
331
A887
102
}
  0
BLOCK_RECORD
  5
A2DB
330
1
100
AcDbSymbolTableRecord
100
AcDbBlockTableRecord
  2
*X2
340
0
  0
BLOCK_RECORD
  5
A96C
330
1
100
AcDbSymbolTableRecord
100
AcDbBlockTableRecord
  2
_Oblique
340
0
102
{BLKREFS
331
B031
331
B032
331
B03A
331
B03B
102
}
  0
BLOCK_RECORD
  5
AFB7
330
1
100
AcDbSymbolTableRecord
100
AcDbBlockTableRecord
  2
*D4
340
0
  0
BLOCK_RECORD
  5
AFC3
330
1
100
AcDbSymbolTableRecord
100
AcDbBlockTableRecord
  2
*D5
340
0
  0
ENDTAB
  0
ENDSEC
  0
SECTION
  2
BLOCKS
  0
BLOCK
  5
19
330
18
100
AcDbEntity
  8
0
100
AcDbBlockBegin
  2
*MODEL_SPACE
 70
     0
 10
0.0
 20
0.0
 30
0.0
  3
*MODEL_SPACE
  1

  0
ENDBLK
  5
1A
330
18
100
AcDbEntity
  8
0
100
AcDbBlockEnd
  0
BLOCK
  5
16
330
15
100
AcDbEntity
 67
     1
  8
0
100
AcDbBlockBegin
  2
*PAPER_SPACE
 70
     0
 10
0.0
 20
0.0
 30
0.0
  3
*PAPER_SPACE
  1

  0
ENDBLK
  5
17
330
15
100
AcDbEntity
 67
     1
  8
0
100
AcDbBlockEnd
  0
BLOCK
  5
371
330
370
100
AcDbEntity
  8
0
100
AcDbBlockBegin
  2
WMF3
 70
     0
 10
297.0543972648738
 20
-297.0543972648738
 30
0.0
  3
WMF3
  1

  0
ENDBLK
  5
372
330
370
100
AcDbEntity
  8
0
100
AcDbBlockEnd
  0
BLOCK
  5
374
330
373
100
AcDbEntity
  8
0
100
AcDbBlockBegin
  2
WMF4
 70
     0
 10
297.0543972648738
 20
-297.0543972648738
 30
0.0
  3
WMF4
  1

  0
ENDBLK
  5
375
330
373
100
AcDbEntity
  8
0
100
AcDbBlockEnd
  0
BLOCK
  5
A2E9
330
A2DB
100
AcDbEntity
  8
0
100
AcDbBlockBegin
  2
*X2
 70
     1
 10
0.0
 20
0.0
 30
0.0
  3
*X2
  1

  0
LINE
  5
A2DC
330
A2DB
100
AcDbEntity
  8
0
 62
     0
100
AcDbLine
 10
50.3651548004718
 20
80.0
 30
0.0
 11
53.0
 21
82.6348451995282
 31
0.0
  0
LINE
  5
A2DD
330
A2DB
100
AcDbEntity
  8
0
 62
     0
100
AcDbLine
 10
50.0
 20
80.08385800558166
 30
0.0
 11
52.91614199441834
 21
83.0
 31
0.0
  0
LINE
  5
A2DE
330
A2DB
100
AcDbEntity
  8
0
 62
     0
100
AcDbLine
 10
50.0
 20
80.53287081163512
 30
0.0
 11
52.46712918836488
 21
83.0
 31
0.0
  0
LINE
  5
A2DF
330
A2DB
100
AcDbEntity
  8
0
 62
     0
100
AcDbLine
 10
50.0
 20
80.98188361768858
 30
0.0
 11
52.01811638231142
 21
83.0
 31
0.0
  0
LINE
  5
A2E0
330
A2DB
100
AcDbEntity
  8
0
 62
     0
100
AcDbLine
 10
50.0
 20
81.43089642374203
 30
0.0
 11
51.56910357625797
 21
83.0
 31
0.0
  0
LINE
  5
A2E1
330
A2DB
100
AcDbEntity
  8
0
 62
     0
100
AcDbLine
 10
50.0
 20
81.87990922979549
 30
0.0
 11
51.12009077020451
 21
83.0
 31
0.0
  0
LINE
  5
A2E2
330
A2DB
100
AcDbEntity
  8
0
 62
     0
100
AcDbLine
 10
50.0
 20
82.32892203584894
 30
0.0
 11
50.67107796415105
 21
83.0
 31
0.0
  0
LINE
  5
A2E3
330
A2DB
100
AcDbEntity
  8
0
 62
     0
100
AcDbLine
 10
50.0
 20
82.7779348419024
 30
0.0
 11
50.22206515809759
 21
83.0
 31
0.0
  0
LINE
  5
A2E4
330
A2DB
100
AcDbEntity
  8
0
 62
     0
100
AcDbLine
 10
50.81416760652525
 20
80.0
 30
0.0
 11
53.0
 21
82.18583239347474
 31
0.0
  0
LINE
  5
A2E5
330
A2DB
100
AcDbEntity
  8
0
 62
     0
100
AcDbLine
 10
51.26318041257871
 20
80.0
 30
0.0
 11
53.0
 21
81.73681958742129
 31
0.0
  0
LINE
  5
A2E6
330
A2DB
100
AcDbEntity
  8
0
 62
     0
100
AcDbLine
 10
51.71219321863217
 20
80.0
 30
0.0
 11
53.0
 21
81.28780678136783
 31
0.0
  0
LINE
  5
A2E7
330
A2DB
100
AcDbEntity
  8
0
 62
     0
100
AcDbLine
 10
52.16120602468563
 20
80.0
 30
0.0
 11
53.0
 21
80.83879397531438
 31
0.0
  0
LINE
  5
A2E8
330
A2DB
100
AcDbEntity
  8
0
 62
     0
100
AcDbLine
 10
52.61021883073908
 20
80.0
 30
0.0
 11
53.0
 21
80.38978116926092
 31
0.0
  0
ENDBLK
  5
A2EA
330
A2DB
100
AcDbEntity
  8
0
100
AcDbBlockEnd
  0
BLOCK
  5
A96E
330
A96C
100
AcDbEntity
  8
0
 62
   250
100
AcDbBlockBegin
  2
_Oblique
 70
     0
 10
0.0
 20
0.0
 30
0.0
  3
_Oblique
  1

  0
LINE
  5
A96D
330
A96C
100
AcDbEntity
  8
FERRO
 62
     0
370
    -2
100
AcDbLine
 10
-0.5
 20
-0.5
 30
0.0
 11
0.5
 21
0.5
 31
0.0
  0
ENDBLK
  5
A96F
330
A96C
100
AcDbEntity
  8
0
 62
   250
100
AcDbBlockEnd
  0
BLOCK
  5
AFC1
330
AFB7
100
AcDbEntity
  8
0
100
AcDbBlockBegin
  2
*D4
 70
     1
 10
0.0
 20
0.0
 30
0.0
  3
*D4
  1

  0
LINE
  5
B037
330
AFB7
100
AcDbEntity
  8
QUOTE
370
    -2
100
AcDbLine
 10
748.7820583123766
 20
-1550.714324335412
 30
0.0
 11
748.7820583123766
 21
-1422.125965967289
 31
0.0
  0
LINE
  5
B038
330
AFB7
100
AcDbEntity
  8
QUOTE
370
    -2
100
AcDbLine
 10
1008.792703769909
 20
-1445.601591117841
 30
0.0
 11
1008.792703769909
 21
-1422.125965967289
 31
0.0
  0
LINE
  5
B039
330
AFB7
100
AcDbEntity
  8
QUOTE
370
    -2
100
AcDbLine
 10
748.7820583123766
 20
-1422.125965967289
 30
0.0
 11
1008.792703769909
 21
-1422.125965967289
 31
0.0
  0
INSERT
  5
B03A
330
AFB7
100
AcDbEntity
  8
QUOTE
370
    -2
100
AcDbBlockReference
  2
_Oblique
 10
748.7820583123766
 20
-1422.125965967289
 30
0.0
 41
3.0
 42
3.0
 43
3.0
 50
180.0
  0
INSERT
  5
B03B
330
AFB7
100
AcDbEntity
  8
QUOTE
370
    -2
100
AcDbBlockReference
  2
_Oblique
 10
1008.792703769909
 20
-1422.125965967289
 30
0.0
 41
3.0
 42
3.0
 43
3.0
  0
MTEXT
  5
B03C
330
AFB7
100
AcDbEntity
  8
QUOTE
100
AcDbMText
 10
878.7873810411428
 20
-1415.37596596729
 30
0.0
 40
7.5
 41
0.0
 71
     5
 72
     1
  1
\A1;260
 73
     1
 44
1.0
1001
ACAD
1000
MTEXTBEGIN
1070
    73
1070
     1
1070
    44
1040
1.0
1070
    74
1070
     0
1000
MTEXTEND
  0
POINT
  5
B03D
330
AFB7
100
AcDbEntity
  8
DEFPOINTS
 62
     0
100
AcDbPoint
 10
748.7820583123766
 20
-1555.214324335412
 30
0.0
  0
POINT
  5
B03E
330
AFB7
100
AcDbEntity
  8
DEFPOINTS
 62
     0
100
AcDbPoint
 10
1008.792703769909
 20
-1450.101591117841
 30
0.0
  0
POINT
  5
B03F
330
AFB7
100
AcDbEntity
  8
DEFPOINTS
 62
     0
100
AcDbPoint
 10
1008.792703769909
 20
-1422.125965967289
 30
0.0
  0
ENDBLK
  5
AFC2
330
AFB7
100
AcDbEntity
  8
0
100
AcDbBlockEnd
  0
BLOCK
  5
AFCD
330
AFC3
100
AcDbEntity
  8
0
100
AcDbBlockBegin
  2
*D5
 70
     1
 10
0.0
 20
0.0
 30
0.0
  3
*D5
  1

  0
LINE
  5
B02E
330
AFC3
100
AcDbEntity
  8
QUOTE
370
    -2
100
AcDbLine
 10
859.7927500670778
 20
-1818.327298210887
 30
0.0
 11
859.7927500670778
 21
-1803.911170246053
 31
0.0
  0
LINE
  5
B02F
330
AFC3
100
AcDbEntity
  8
QUOTE
370
    -2
100
AcDbLine
 10
911.7927500670781
 20
-1819.597889276584
 30
0.0
 11
911.7927500670781
 21
-1803.911170246053
 31
0.0
  0
LINE
  5
B030
330
AFC3
100
AcDbEntity
  8
QUOTE
370
    -2
100
AcDbLine
 10
859.7927500670778
 20
-1803.911170246053
 30
0.0
 11
911.7927500670781
 21
-1803.911170246053
 31
0.0
  0
INSERT
  5
B031
330
AFC3
100
AcDbEntity
  8
QUOTE
370
    -2
100
AcDbBlockReference
  2
_Oblique
 10
859.7927500670778
 20
-1803.911170246053
 30
0.0
 41
3.0
 42
3.0
 43
3.0
 50
180.0
  0
INSERT
  5
B032
330
AFC3
100
AcDbEntity
  8
QUOTE
370
    -2
100
AcDbBlockReference
  2
_Oblique
 10
911.7927500670781
 20
-1803.911170246053
 30
0.0
 41
3.0
 42
3.0
 43
3.0
  0
MTEXT
  5
B033
330
AFC3
100
AcDbEntity
  8
QUOTE
100
AcDbMText
 10
885.7927500670779
 20
-1797.161170246053
 30
0.0
 40
7.5
 41
0.0
 71
     5
 72
     1
  1
\A1;52
 73
     1
 44
1.0
1001
ACAD
1000
MTEXTBEGIN
1070
    73
1070
     1
1070
    44
1040
1.0
1070
    74
1070
     0
1000
MTEXTEND
  0
POINT
  5
B034
330
AFC3
100
AcDbEntity
  8
DEFPOINTS
 62
     0
100
AcDbPoint
 10
859.7927500670778
 20
-1822.827298210887
 30
0.0
  0
POINT
  5
B035
330
AFC3
100
AcDbEntity
  8
DEFPOINTS
 62
     0
100
AcDbPoint
 10
911.7927500670781
 20
-1824.097889276584
 30
0.0
  0
POINT
  5
B036
330
AFC3
100
AcDbEntity
  8
DEFPOINTS
 62
     0
100
AcDbPoint
 10
911.7927500670781
 20
-1803.911170246053
 30
0.0
  0
ENDBLK
  5
AFCE
330
AFC3
100
AcDbEntity
  8
0
100
AcDbBlockEnd
  0
ENDSEC
  0
SECTION
  2
ENTITIES
  0
INSERT
  5
58A
330
18
100
AcDbEntity
  8
AREA
 62
     1
100
AcDbBlockReference
  2
WMF3
 10
118.8888423094627
 20
247.2301865419039
 30
0.0
  0
INSERT
  5
58B
330
18
100
AcDbEntity
  8
AREA
 62
     1
100
AcDbBlockReference
  2
WMF4
 10
116.3969945894702
 20
245.5709684997675
 30
0.0
  0
INSERT
  5
CB4
330
18
100
AcDbEntity
  8
AREA
 62
     1
100
AcDbBlockReference
  2
WMF3
 10
119.0154567964939
 20
249.2754968857944
 30
0.0
  0
INSERT
  5
CB5
330
18
100
AcDbEntity
  8
AREA
 62
     1
100
AcDbBlockReference
  2
WMF4
 10
116.5236090765014
 20
247.6162788436579
 30
0.0
  0
INSERT
  5
D59
330
18
100
AcDbEntity
  8
AREA
 62
     1
100
AcDbBlockReference
  2
WMF3
 10
119.0154567964939
 20
249.2754968857944
 30
0.0
  0
INSERT
  5
D5A
330
18
100
AcDbEntity
  8
AREA
 62
     1
100
AcDbBlockReference
  2
WMF4
 10
116.5236090765014
 20
247.6162788436579
 30
0.0
  0
INSERT
  5
46E9
330
18
100
AcDbEntity
  8
ALLUMINIO
 62
     1
100
AcDbBlockReference
  2
WMF3
 10
1358.329111410511
 20
161.8851418267927
 30
0.0
 41
2.0
 42
2.0
 43
2.0
  0
INSERT
  5
46EA
330
18
100
AcDbEntity
  8
ALLUMINIO
 62
     1
100
AcDbBlockReference
  2
WMF4
 10
1353.345415970526
 20
158.5667057425198
 30
0.0
 41
2.0
 42
2.0
 43
2.0
  0
INSERT
  5
655B
330
18
100
AcDbEntity
  8
ALLUMINIO
 62
     1
100
AcDbBlockReference
  2
WMF3
 10
582.5970495602237
 20
-279.27482726071
 30
0.0
 41
3.999999999999999
 42
3.999999999999999
 43
3.999999999999999
  0
INSERT
  5
655C
330
18
100
AcDbEntity
  8
ALLUMINIO
 62
     1
100
AcDbBlockReference
  2
WMF4
 10
572.6296586802536
 20
-285.9116994292558
 30
0.0
 41
3.999999999999999
 42
3.999999999999999
 43
3.999999999999999
  0
INSERT
  5
670C
330
18
100
AcDbEntity
  8
ALLUMINIO
 62
     1
100
AcDbBlockReference
  2
WMF3
 10
589.4326850976631
 20
-88.60908119522447
 30
0.0
 41
2.0
 42
2.0
 43
2.0
  0
INSERT
  5
670D
330
18
100
AcDbEntity
  8
ALLUMINIO
 62
     1
100
AcDbBlockReference
  2
WMF4
 10
584.4489896576781
 20
-91.92751727949735
 30
0.0
 41
2.0
 42
2.0
 43
2.0
  0
INSERT
  5
8AB0
330
18
100
AcDbEntity
  8
ALLUMINIO
 62
     1
100
AcDbBlockReference
  2
WMF3
 10
1502.020270793584
 20
-711.2331799408297
 30
0.0
  0
INSERT
  5
8AB1
330
18
100
AcDbEntity
  8
ALLUMINIO
 62
     1
100
AcDbBlockReference
  2
WMF4
 10
1499.528423073591
 20
-712.8923979829663
 30
0.0
  0
INSERT
  5
8B44
330
18
100
AcDbEntity
  8
ALLUMINIO
 62
     1
100
AcDbBlockReference
  2
WMF3
 10
1964.398053197002
 20
-1286.183688527569
 30
0.0
  0
INSERT
  5
8B45
330
18
100
AcDbEntity
  8
ALLUMINIO
 62
     1
100
AcDbBlockReference
  2
WMF4
 10
1961.90620547701
 20
-1287.842906569706
 30
0.0
  0
INSERT
  5
8C16
330
18
100
AcDbEntity
  8
ALLUMINIO
 62
     1
100
AcDbBlockReference
  2
WMF3
 10
883.3426222293006
 20
-326.2071731127912
 30
0.0
  0
INSERT
  5
8C17
330
18
100
AcDbEntity
  8
ALLUMINIO
 62
     1
100
AcDbBlockReference
  2
WMF4
 10
880.8507745093081
 20
-327.8663911549277
 30
0.0
  0
INSERT
  5
8DD8
330
18
100
AcDbEntity
  8
ALLUMINIO
 62
     1
100
AcDbBlockReference
  2
WMF3
 10
668.4959233042757
 20
-188.290246797548
 30
0.0
 41
2.245639534883713
 42
2.245639534883713
 43
2.245639534883713
  0
INSERT
  5
8DD9
330
18
100
AcDbEntity
  8
ALLUMINIO
 62
     1
100
AcDbBlockReference
  2
WMF4
 10
662.9001315493505
 20
-192.016252429962
 30
0.0
 41
2.245639534883713
 42
2.245639534883713
 43
2.245639534883713
  0
INSERT
  5
8F1B
330
18
100
AcDbEntity
  8
AREA
 62
     1
100
AcDbBlockReference
  2
WMF3
 10
1173.742395918546
 20
394.8670251580704
 30
0.0
  0
INSERT
  5
8F1C
330
18
100
AcDbEntity
  8
AREA
 62
     1
100
AcDbBlockReference
  2
WMF4
 10
1171.250548198553
 20
393.2078071159339
 30
0.0
  0
INSERT
  5
8F1E
330
18
100
AcDbEntity
  8
AREA
 62
     1
100
AcDbBlockReference
  2
WMF3
 10
1173.869010405577
 20
396.9123355019608
 30
0.0
  0
INSERT
  5
8F1F
330
18
100
AcDbEntity
  8
AREA
 62
     1
100
AcDbBlockReference
  2
WMF4
 10
1171.377162685585
 20
395.2531174598243
 30
0.0
  0
INSERT
  5
8F20
330
18
100
AcDbEntity
  8
AREA
 62
     1
100
AcDbBlockReference
  2
WMF3
 10
1173.869010405577
 20
396.9123355019608
 30
0.0
  0
INSERT
  5
8F21
330
18
100
AcDbEntity
  8
AREA
 62
     1
100
AcDbBlockReference
  2
WMF4
 10
1171.377162685585
 20
395.2531174598243
 30
0.0
  0
INSERT
  5
9079
330
18
100
AcDbEntity
  8
AREA
 62
     1
100
AcDbBlockReference
  2
WMF3
 10
1038.937020049797
 20
-791.2034078923266
 30
0.0
  0
INSERT
  5
907A
330
18
100
AcDbEntity
  8
AREA
 62
     1
100
AcDbBlockReference
  2
WMF4
 10
1036.445172329804
 20
-792.862625934463
 30
0.0
  0
INSERT
  5
907C
330
18
100
AcDbEntity
  8
AREA
 62
     1
100
AcDbBlockReference
  2
WMF3
 10
1039.063634536828
 20
-789.1580975484361
 30
0.0
  0
INSERT
  5
907D
330
18
100
AcDbEntity
  8
AREA
 62
     1
100
AcDbBlockReference
  2
WMF4
 10
1036.571786816835
 20
-790.8173155905727
 30
0.0
  0
INSERT
  5
907E
330
18
100
AcDbEntity
  8
AREA
 62
     1
100
AcDbBlockReference
  2
WMF3
 10
1039.063634536828
 20
-789.1580975484361
 30
0.0
  0
INSERT
  5
907F
330
18
100
AcDbEntity
  8
AREA
 62
     1
100
AcDbBlockReference
  2
WMF4
 10
1036.571786816835
 20
-790.8173155905727
 30
0.0
  0
INSERT
  5
9E04
330
18
100
AcDbEntity
  8
AREA
 62
     1
100
AcDbBlockReference
  2
WMF3
 10
2060.696351223306
 20
-755.2071482055043
 30
0.0
  0
INSERT
  5
9E05
330
18
100
AcDbEntity
  8
AREA
 62
     1
100
AcDbBlockReference
  2
WMF4
 10
2058.204503503314
 20
-756.8663662476408
 30
0.0
  0
INSERT
  5
9E06
330
18
100
AcDbEntity
  8
AREA
 62
     1
100
AcDbBlockReference
  2
WMF3
 10
2060.822965710338
 20
-753.161837861614
 30
0.0
  0
INSERT
  5
9E07
330
18
100
AcDbEntity
  8
AREA
 62
     1
100
AcDbBlockReference
  2
WMF4
 10
2058.331117990345
 20
-754.8210559037504
 30
0.0
  0
INSERT
  5
9E08
330
18
100
AcDbEntity
  8
AREA
 62
     1
100
AcDbBlockReference
  2
WMF3
 10
2060.822965710338
 20
-753.161837861614
 30
0.0
  0
INSERT
  5
9E09
330
18
100
AcDbEntity
  8
AREA
 62
     1
100
AcDbBlockReference
  2
WMF4
 10
2058.331117990345
 20
-754.8210559037504
 30
0.0
  0
INSERT
  5
9E9C
330
18
100
AcDbEntity
  8
AREA
 62
     1
100
AcDbBlockReference
  2
WMF3
 10
2433.320275653887
 20
-673.3966400332365
 30
0.0
  0
INSERT
  5
9E9D
330
18
100
AcDbEntity
  8
AREA
 62
     1
100
AcDbBlockReference
  2
WMF4
 10
2430.828427933894
 20
-675.0558580753729
 30
0.0
  0
INSERT
  5
9FF9
330
18
100
AcDbEntity
  8
AREA
 62
     1
100
AcDbBlockReference
  2
WMF3
 10
942.165018739738
 20
-886.0443957620208
 30
0.0
 41
2.0
 42
2.0
 43
2.0
  0
INSERT
  5
9FFA
330
18
100
AcDbEntity
  8
AREA
 62
     1
100
AcDbBlockReference
  2
WMF4
 10
937.1813232997531
 20
-889.3628318462939
 30
0.0
 41
2.0
 42
2.0
 43
2.0
  0
INSERT
  5
9FFB
330
18
100
AcDbEntity
  8
AREA
 62
     1
100
AcDbBlockReference
  2
WMF3
 10
942.4182477138005
 20
-881.9537750742401
 30
0.0
 41
2.0
 42
2.0
 43
2.0
  0
INSERT
  5
9FFC
330
18
100
AcDbEntity
  8
AREA
 62
     1
100
AcDbBlockReference
  2
WMF4
 10
937.4345522738156
 20
-885.272211158513
 30
0.0
 41
2.0
 42
2.0
 43
2.0
  0
INSERT
  5
9FFD
330
18
100
AcDbEntity
  8
AREA
 62
     1
100
AcDbBlockReference
  2
WMF3
 10
942.4182477138005
 20
-881.9537750742401
 30
0.0
 41
2.0
 42
2.0
 43
2.0
  0
INSERT
  5
9FFE
330
18
100
AcDbEntity
  8
AREA
 62
     1
100
AcDbBlockReference
  2
WMF4
 10
937.4345522738156
 20
-885.272211158513
 30
0.0
 41
2.0
 42
2.0
 43
2.0
  0
INSERT
  5
A091
330
18
100
AcDbEntity
  8
AREA
 62
     1
100
AcDbBlockReference
  2
WMF3
 10
1687.412867600899
 20
-722.4233794174852
 30
0.0
 41
2.0
 42
2.0
 43
2.0
  0
INSERT
  5
A092
330
18
100
AcDbEntity
  8
AREA
 62
     1
100
AcDbBlockReference
  2
WMF4
 10
1682.429172160914
 20
-725.7418155017581
 30
0.0
 41
2.0
 42
2.0
 43
2.0
  0
INSERT
  5
A1E3
330
18
100
AcDbEntity
  8
AREA
 62
     1
100
AcDbBlockReference
  2
WMF3
 10
1359.441396540012
 20
-1359.345123808488
 30
0.0
 41
2.0
 42
2.0
 43
2.0
  0
INSERT
  5
A1E4
330
18
100
AcDbEntity
  8
AREA
 62
     1
100
AcDbBlockReference
  2
WMF4
 10
1354.457701100026
 20
-1362.663559892761
 30
0.0
 41
2.0
 42
2.0
 43
2.0
  0
INSERT
  5
A1E5
330
18
100
AcDbEntity
  8
AREA
 62
     1
100
AcDbBlockReference
  2
WMF3
 10
1359.694625514074
 20
-1355.254503120707
 30
0.0
 41
2.0
 42
2.0
 43
2.0
  0
INSERT
  5
A1E6
330
18
100
AcDbEntity
  8
AREA
 62
     1
100
AcDbBlockReference
  2
WMF4
 10
1354.710930074089
 20
-1358.57293920498
 30
0.0
 41
2.0
 42
2.0
 43
2.0
  0
INSERT
  5
A1E7
330
18
100
AcDbEntity
  8
AREA
 62
     1
100
AcDbBlockReference
  2
WMF3
 10
1359.694625514074
 20
-1355.254503120707
 30
0.0
 41
2.0
 42
2.0
 43
2.0
  0
INSERT
  5
A1E8
330
18
100
AcDbEntity
  8
AREA
 62
     1
100
AcDbBlockReference
  2
WMF4
 10
1354.710930074089
 20
-1358.57293920498
 30
0.0
 41
2.0
 42
2.0
 43
2.0
  0
INSERT
  5
A27B
330
18
100
AcDbEntity
  8
AREA
 62
     1
100
AcDbBlockReference
  2
WMF3
 10
2104.689245401173
 20
-1195.724107463952
 30
0.0
 41
2.0
 42
2.0
 43
2.0
  0
INSERT
  5
A27C
330
18
100
AcDbEntity
  8
AREA
 62
     1
100
AcDbBlockReference
  2
WMF4
 10
2099.705549961187
 20
-1199.042543548225
 30
0.0
 41
2.0
 42
2.0
 43
2.0
  0
INSERT
  5
A41E
330
18
100
AcDbEntity
  8
AREA166
 62
     1
100
AcDbBlockReference
  2
WMF3
 10
1775.826786576635
 20
-1194.211980900148
 30
0.0
 41
3.0
 42
3.0
 43
3.0
  0
INSERT
  5
A41F
330
18
100
AcDbEntity
  8
AREA166
 62
     1
100
AcDbBlockReference
  2
WMF4
 10
1768.351243416657
 20
-1199.189635026558
 30
0.0
 41
3.0
 42
3.0
 43
3.0
  0
INSERT
  5
A78B
330
18
100
AcDbEntity
  8
ALLUMINIO
 62
     1
100
AcDbBlockReference
  2
WMF3
 10
1817.613906467558
 20
-1646.13420216101
 30
0.0
 41
0.5
 42
0.5
 43
0.5
  0
INSERT
  5
A78C
330
18
100
AcDbEntity
  8
ALLUMINIO
 62
     1
100
AcDbBlockReference
  2
WMF4
 10
1816.367982607561
 20
-1646.963811182078
 30
0.0
 41
0.5
 42
0.5
 43
0.5
  0
INSERT
  5
A886
330
18
100
AcDbEntity
  8
ALLUMINIO
 62
     1
100
AcDbBlockReference
  2
WMF3
 10
1705.460171629709
 20
-1676.692457393573
 30
0.0
 41
0.5
 42
0.5
 43
0.5
  0
INSERT
  5
A887
330
18
100
AcDbEntity
  8
ALLUMINIO
 62
     1
100
AcDbBlockReference
  2
WMF4
 10
1704.214247769713
 20
-1677.522066414642
 30
0.0
 41
0.5
 42
0.5
 43
0.5
  0
SPLINE
  5
AE67
102
{ACAD_REACTORS
330
AEBA
102
}
330
18
100
AcDbEntity
  8
FERRO
 62
   250
100
AcDbSpline
210
0.0
220
0.0
230
1.0
 70
  1064
 71
     3
 72
    14
 73
    10
 74
     8
 42
0.000000001
 43
0.0000000001
 44
0.0000000001
 40
0.0
 40
0.0
 40
0.0
 40
0.0
 40
0.8418856795808784
 40
11.51000646978172
 40
23.11865280866599
 40
34.55748339710121
 40
45.56969480181132
 40
52.70988905106041
 40
53.55177473064173
 40
53.55177473064173
 40
53.55177473064173
 40
53.55177473064173
 10
859.7927500670779
 20
-1816.777163995423
 30
0.0
 10
860.0612514511119
 20
-1816.696950642665
 30
0.0
 10
863.7321211930874
 20
-1815.600297936008
 30
0.0
 10
871.3671457182721
 20
-1812.695977325747
 30
0.0
 10
882.4584894821789
 20
-1818.882384662463
 30
0.0
 10
893.0336309789273
 20
-1812.823122369472
 30
0.0
 10
903.5029851639931
 20
-1812.424837208261
 30
0.0
 10
908.9659403810337
 20
-1815.958853488458
 30
0.0
 10
911.5230469994106
 20
-1816.699089813378
 30
0.0
 10
911.7927500670782
 20
-1816.777163995423
 30
0.0
 11
859.7927500670779
 21
-1816.777163995423
 31
0.0
 11
860.5989516174654
 21
-1816.534655113861
 31
0.0
 11
871.0499628382651
 21
-1814.393355121559
 31
0.0
 11
882.4063036375484
 21
-1816.800468220652
 31
0.0
 11
893.4185099866621
 21
-1813.705608521818
 31
0.0
 11
904.4307213913722
 21
-1813.705608521818
 31
0.0
 11
910.9865485166904
 21
-1816.534655113861
 31
0.0
 11
911.7927500670782
 21
-1816.777163995423
 31
0.0
  0
SPLINE
  5
AE68
102
{ACAD_REACTORS
330
AF61
102
}
330
18
100
AcDbEntity
  8
FERRO
 62
   250
100
AcDbSpline
210
0.0
220
0.0
230
1.0
 70
  1064
 71
     3
 72
    14
 73
    10
 74
     8
 42
0.000000001
 43
0.0000000001
 44
0.0000000001
 40
0.0
 40
0.0
 40
0.0
 40
0.0
 40
0.8418856795808784
 40
11.51000646978154
 40
23.11865280866604
 40
34.55748339710097
 40
45.5696948018113
 40
52.7098890510604
 40
53.55177473064149
 40
53.55177473064149
 40
53.55177473064149
 40
53.55177473064149
 10
955.7927037699096
 20
-1815.064249221614
 30
0.0
 10
956.0612051539434
 20
-1814.984035868856
 30
0.0
 10
959.7320748959194
 20
-1813.887383162199
 30
0.0
 10
967.3670994211034
 20
-1810.983062551937
 30
0.0
 10
978.4584431850108
 20
-1817.169469888654
 30
0.0
 10
989.0335846817588
 20
-1811.110207595663
 30
0.0
 10
999.5029388668246
 20
-1810.711922434452
 30
0.0
 10
1004.965894083865
 20
-1814.245938714648
 30
0.0
 10
1007.523000702241
 20
-1814.986175039569
 30
0.0
 10
1007.792703769909
 20
-1815.064249221614
 30
0.0
 11
955.7927037699096
 21
-1815.064249221614
 31
0.0
 11
956.598905320297
 21
-1814.821740340052
 31
0.0
 11
967.0499165410966
 21
-1812.68044034775
 31
0.0
 11
978.4062573403801
 21
-1815.087553446843
 31
0.0
 11
989.4184636894934
 21
-1811.992693748009
 31
0.0
 11
1000.430675094204
 21
-1811.992693748009
 31
0.0
 11
1006.986502219522
 21
-1814.821740340052
 31
0.0
 11
1007.792703769909
 21
-1815.064249221614
 31
0.0
  0
SPLINE
  5
AE69
330
18
100
AcDbEntity
  8
FERRO
 62
   250
100
AcDbSpline
210
0.0
220
0.0
230
1.0
 70
  1064
 71
     3
 72
    14
 73
    10
 74
     8
 42
0.000000001
 43
0.0000000001
 44
0.0000000001
 40
0.0
 40
0.0
 40
0.0
 40
0.0
 40
0.8418856795807474
 40
12.45413535531984
 40
27.15457310255386
 40
35.59079673857002
 40
44.29605862002413
 40
53.69220198114483
 40
54.53408766072602
 40
54.53408766072602
 40
54.53408766072602
 40
54.53408766072602
 10
859.7927500670779
 20
-1782.612095181485
 30
0.0
 10
860.061469777033
 20
-1782.691099873538
 30
0.0
 10
864.0366789076692
 20
-1783.859827590842
 30
0.0
 10
872.7243304172001
 20
-1789.029900309708
 30
0.0
 10
883.7188849899272
 20
-1780.459056877713
 30
0.0
 10
894.2256805658169
 20
-1783.383929863856
 30
0.0
 10
902.6617198677879
 20
-1788.607559606511
 30
0.0
 10
908.2484050229577
 20
-1783.623797838813
 30
0.0
 10
911.5234399314434
 20
-1782.688967431922
 30
0.0
 10
911.7927500670781
 20
-1782.612095181485
 30
0.0
 11
859.7927500670779
 21
-1782.612095181485
 31
0.0
 11
860.5989516174654
 21
-1782.854604063047
 31
0.0
 11
871.7182092253672
 21
-1786.202208098894
 31
0.0
 11
885.8276054036261
 21
-1782.075731460739
 31
0.0
 11
894.0867614293605
 21
-1783.795094999801
 31
0.0
 11
902.3459174550945
 21
-1786.546081398764
 31
0.0
 11
910.9865485166901
 21
-1782.854604063047
 31
0.0
 11
911.7927500670781
 21
-1782.612095181485
 31
0.0
  0
SPLINE
  5
AE6A
102
{ACAD_REACTORS
330
AF64
102
}
330
18
100
AcDbEntity
  8
FERRO
 62
   250
100
AcDbSpline
210
0.0
220
0.0
230
1.0
 70
  1064
 71
     3
 72
    14
 73
    10
 74
     8
 42
0.000000001
 43
0.0000000001
 44
0.0000000001
 40
0.0
 40
0.0
 40
0.0
 40
0.0
 40
0.841885679580551
 40
12.45413535531984
 40
27.15457310255352
 40
35.5907967385696
 40
44.29605862002392
 40
53.6922019811449
 40
54.53408766072588
 40
54.53408766072588
 40
54.53408766072588
 40
54.53408766072588
 10
955.7927037699096
 20
-1780.899180407677
 30
0.0
 10
956.0614234798647
 20
-1780.978185099729
 30
0.0
 10
960.0366326105023
 20
-1782.146912817031
 30
0.0
 10
968.7242841200305
 20
-1787.316985535901
 30
0.0
 10
979.7188386927588
 20
-1778.746142103906
 30
0.0
 10
990.2256342686481
 20
-1781.671015090047
 30
0.0
 10
998.6616735706203
 20
-1786.894644832704
 30
0.0
 10
1004.248358725787
 20
-1781.910883065
 30
0.0
 10
1007.523393634275
 20
-1780.976052658114
 30
0.0
 10
1007.792703769909
 20
-1780.899180407677
 30
0.0
 11
955.7927037699096
 21
-1780.899180407677
 31
0.0
 11
956.598905320297
 21
-1781.141689289238
 31
0.0
 11
967.7181629281987
 21
-1784.489293325085
 31
0.0
 11
981.8275591064574
 21
-1780.362816686932
 31
0.0
 11
990.0867151321918
 21
-1782.082180225993
 31
0.0
 11
998.345871157926
 21
-1784.833166624956
 31
0.0
 11
1006.986502219522
 21
-1781.141689289238
 31
0.0
 11
1007.792703769909
 21
-1780.899180407677
 31
0.0
  0
DIMENSION
  5
AE6B
330
18
100
AcDbEntity
  8
QUOTE
100
AcDbDimension
  2
*D4
 10
1008.792703769909
 20
-1422.125965967289
 30
0.0
 11
878.7873810411428
 21
-1415.37596596729
 31
0.0
 70
    32
 71
     5
 42
260.0106454575323
  3
STANDARD_WS
100
AcDbAlignedDimension
 13
748.7820583123766
 23
-1555.214324335412
 33
0.0
 14
1008.792703769909
 24
-1450.101591117841
 34
0.0
100
AcDbRotatedDimension
1001
ACAD
1000
DSTYLE
1002
{
1070
    40
1040
3.0
1070
    41
1040
1.0
1070
    42
1040
1.5
1070
    43
1040
10.0
1070
    44
1040
0.0
1070
    79
1070
     2
1070
   141
1040
2.0
1070
   147
1040
1.0
1070
   176
1070
   256
1070
   177
1070
   256
1070
   178
1070
   256
1070
   179
1070
     1
1070
   271
1070
     1
1070
   272
1070
     1
1070
   341
1005
A96C
1070
   342
1005
A96C
1002
}
  0
HATCH
  5
AE6C
330
18
100
AcDbEntity
  8
AREA166
 62
   166
100
AcDbHatch
 10
0.0
 20
0.0
 30
0.0
210
0.0
220
0.0
230
1.0
  2
DOTS
 70
     0
 71
     0
 91
        6
 92
        7
 72
     1
 73
     1
 93
       11
 10
954.4427037699094
 20
-1927.120981614456
 42
0.0
 10
954.4427037699094
 20
-1906.936555720163
 42
0.0
 10
950.4116960179715
 20
-1906.936555720163
 42
0.0
 10
950.4116960179715
 20
-1908.44818362714
 42
0.0
 10
936.3031688861891
 20
-1908.44818362714
 42
0.0
 10
936.3031688861886
 20
-1912.780839365856
 42
-0.2429577986666143
 10
923.5736707221738
 20
-1937.431406563258
 42
1.346499099032977
 10
950.2454874941388
 20
-1958.137747652654
 42
0.0
 10
951.0370260111283
 20
-1956.078258072745
 42
-0.1427525949938915
 10
964.5202231497544
 20
-1932.159741304379
 42
0.0
 10
964.5202231497544
 20
-1927.120981614456
 42
0.0
 97
        0
 92
       22
 72
     1
 73
     1
 93
        2
 10
945.3729363280491
 20
-1951.810904095077
 42
-1.0
 10
922.1946417544057
 20
-1951.810904095077
 42
-1.0
 97
        0
 92
        6
 72
     1
 73
     1
 93
        2
 10
943.8613084210722
 20
-1951.810904095077
 42
-1.0
 10
923.7062696613822
 20
-1951.810904095077
 42
-1.0
 97
        0
 92
        7
 72
     1
 73
     1
 93
        7
 10
954.4427037699094
 20
-1876.733384715232
 42
0.0
 10
951.4194479559549
 20
-1876.733384715232
 42
0.4142135623730709
 10
936.3031688861886
 20
-1891.849663784999
 42
0.0
 10
936.3031688861886
 20
-1894.843532464349
 42
0.0
 10
950.4116960179715
 20
-1894.843532464349
 42
0.0
 10
950.4116960179715
 20
-1896.355160371326
 42
0.0
 10
954.4427037699094
 20
-1896.355160371326
 42
0.0
 97
        0
 92
        7
 72
     1
 73
     1
 93
        7
 10
916.4946058810317
 20
-1878.242280274492
 42
0.0
 10
913.471350067078
 20
-1878.242280274491
 42
0.0
 10
913.4713500670777
 20
-1897.839474274879
 42
0.0
 10
917.5023578190161
 20
-1897.839474274879
 42
0.0
 10
917.502357819016
 20
-1896.327846367902
 42
0.0
 10
931.6108849507989
 20
-1896.327846367902
 42
0.0
 10
931.6108849507989
 20
-1893.358559344259
 42
0.4142135623730837
 97
        0
 92
        7
 72
     1
 73
     1
 93
       10
 10
913.471350067078
 20
-1928.629877173717
 42
0.0
 10
903.3938306872331
 20
-1928.629877173717
 42
0.0
 10
903.3938306872331
 20
-1933.668636863639
 42
0.0
 10
923.5488694469228
 20
-1933.668636863639
 42
0.4142135623730911
 10
931.6108849507989
 20
-1925.606621359763
 42
0.0
 10
931.6108849507989
 20
-1912.274231049146
 42
0.0
 10
931.6108849507989
 20
-1909.932497530693
 42
0.0
 10
917.502357819016
 20
-1909.932497530693
 42
0.0
 10
917.502357819016
 20
-1908.420869623716
 42
0.0
 10
913.471350067078
 20
-1908.420869623716
 42
0.0
 97
        0
 75
     0
 76
     1
 52
0.0
 41
2.08
 77
     0
 78
     1
 53
0.0
 43
-55.39671635902698
 44
95.76244434203454
 45
1.650999999999999
 46
3.302
 79
     2
 49
0.0
 49
-3.302
 47
0.8037546124443833
 98
        6
 10
955.2492520511316
 20
-1929.121693257342
 10
955.2492520511316
 20
-1929.121693257342
 10
955.2492520511316
 20
-1929.121693257342
 10
947.5788254185879
 20
-1887.974547019395
 10
925.3749682484533
 20
-1889.184757124015
 10
919.7230778318806
 20
-1919.440012420382
  0
LINE
  5
AE6D
330
18
100
AcDbEntity
  8
ASSI
 48
5.0
100
AcDbLine
 10
821.0728582208448
 20
-1791.903836080221
 30
0.0
 11
1037.953038135779
 21
-1791.903836080221
 31
0.0
  0
ARC
  5
AE6E
330
18
100
AcDbEntity
  8
FERRO
 62
   250
100
AcDbCircle
 10
1002.696367001605
 20
-1969.58113805939
 30
0.0
 40
52.85453575564744
100
AcDbArc
 50
134.9269864086662
 51
167.4960303746058
  0
ARC
  5
AE6F
330
18
100
AcDbEntity
  8
FERRO
 62
   250
100
AcDbCircle
 10
935.356851181524
 20
-1952.246237426948
 30
0.0
 40
16.80519460525107
100
AcDbArc
 50
118.1685641189085
 51
339.4774052554765
  0
ARC
  5
AE70
330
18
100
AcDbEntity
  8
FERRO
 62
   250
100
AcDbCircle
 10
952.2694479559561
 20
-1891.849663784999
 30
0.0
 40
15.11627906976745
100
AcDbArc
 50
90.0
 51
180.0
  0
LINE
  5
AE71
330
18
100
AcDbEntity
  8
FERRO
 62
   250
100
AcDbLine
 10
937.1531688861887
 20
-1908.44818362714
 30
0.0
 11
951.2616960179714
 21
-1908.44818362714
 31
0.0
  0
LINE
  5
AE72
330
18
100
AcDbEntity
  8
FERRO
 62
   250
100
AcDbLine
 10
937.1531688861887
 20
-1894.843532464349
 30
0.0
 11
951.2616960179714
 21
-1894.843532464349
 31
0.0
  0
HATCH
  5
AE73
330
18
100
AcDbEntity
  8
AREA166
 62
   250
100
AcDbHatch
 10
0.0
 20
0.0
 30
0.0
210
0.0
220
0.0
230
1.0
  2
SOLID
 70
     1
 71
     0
 91
        2
 92
        7
 72
     0
 73
     1
 93
        4
 10
910.9865485166899
 20
-1681.836901383035
 10
860.5989516174652
 20
-1681.836901383034
 10
860.5989516174652
 20
-1732.224498282259
 10
910.9865485166899
 20
-1732.224498282259
 97
        0
 92
       22
 72
     0
 73
     1
 93
        4
 10
862.6144554934342
 20
-1683.852405259004
 10
908.9710446407213
 20
-1683.852405259004
 10
908.971044640721
 20
-1730.208994406291
 10
862.6144554934342
 20
-1730.208994406291
 97
        0
 75
     0
 76
     1
 47
0.4626583194212935
 98
        2
 10
861.9911799602538
 20
-1715.315282862519
 10
861.9911799602538
 20
-1715.315282862519
  0
LINE
  5
AE74
330
18
100
AcDbEntity
  8
FERRO
 62
   250
100
AcDbLine
 10
859.7927500670778
 20
-1671.759382003189
 30
0.0
 11
859.7927500670778
 21
-1782.612095181485
 31
0.0
  0
LINE
  5
AE75
330
18
100
AcDbEntity
  8
FERRO
 62
   250
100
AcDbLine
 10
860.5989516174652
 20
-1782.854604063018
 30
0.0
 11
860.5989516174652
 21
-1681.836901383035
 31
0.0
  0
LINE
  5
AE76
330
18
100
AcDbEntity
  8
FERRO
 62
   250
100
AcDbLine
 10
910.9865485166899
 20
-1782.854604063046
 30
0.0
 11
910.9865485166899
 21
-1681.836901383035
 31
0.0
  0
LINE
  5
AE77
330
18
100
AcDbEntity
  8
FERRO
 62
   250
100
AcDbLine
 10
911.7927500670777
 20
-1782.612095181484
 30
0.0
 11
911.7927500670777
 21
-1671.759382003189
 31
0.0
  0
LINE
  5
AE78
330
18
100
AcDbEntity
  8
FERRO
 62
   250
100
AcDbLine
 10
861.6144554934342
 20
-1729.20899440629
 30
0.0
 11
861.6144554934342
 21
-1682.852405259004
 31
0.0
  0
LINE
  5
AE79
330
18
100
AcDbEntity
  8
FERRO
 62
   250
100
AcDbLine
 10
908.971044640721
 20
-1730.208994406291
 30
0.0
 11
908.9710446407211
 21
-1683.852405259004
 31
0.0
  0
DIMENSION
  5
AE7A
330
18
100
AcDbEntity
  8
QUOTE
100
AcDbDimension
  2
*D5
 10
911.7927500670781
 20
-1803.911170246053
 30
0.0
 11
885.7927500670779
 21
-1797.161170246053
 31
0.0
 70
    32
 71
     5
 42
52.00000000000023
  3
STANDARD_WS
100
AcDbAlignedDimension
 13
859.7927500670778
 23
-1822.827298210887
 33
0.0
 14
911.7927500670781
 24
-1824.097889276584
 34
0.0
100
AcDbRotatedDimension
1001
ACAD
1000
DSTYLE
1002
{
1070
    40
1040
3.0
1070
    41
1040
1.0
1070
    42
1040
1.5
1070
    43
1040
10.0
1070
    44
1040
0.0
1070
    79
1070
     2
1070
   141
1040
2.0
1070
   147
1040
1.0
1070
   176
1070
   256
1070
   177
1070
   256
1070
   178
1070
   256
1070
   179
1070
     1
1070
   271
1070
     1
1070
   272
1070
     1
1070
   341
1005
A96C
1070
   342
1005
A96C
1002
}
  0
LINE
  5
AE7B
330
18
100
AcDbEntity
  8
FERRO
100
AcDbLine
 10
912.792750067078
 20
-1878.242280274492
 30
0.0
 11
912.792750067078
 21
-1928.629877173717
 31
0.0
  0
HATCH
  5
AE7C
330
18
100
AcDbEntity
  8
AREA166
 62
   250
100
AcDbHatch
 10
0.0
 20
0.0
 30
0.0
210
0.0
220
0.0
230
1.0
  2
SOLID
 70
     1
 71
     0
 91
        2
 92
        7
 72
     0
 73
     1
 93
        4
 10
910.9865485166899
 20
-1867.164760894647
 10
860.5989516174652
 20
-1867.164760894647
 10
860.5989516174652
 20
-1917.552357793872
 10
910.9865485166899
 20
-1917.552357793872
 97
        0
 92
       22
 72
     0
 73
     1
 93
        4
 10
862.6144554934342
 20
-1869.180264770616
 10
908.971044640721
 20
-1869.180264770616
 10
908.9710446407213
 20
-1915.536853917904
 10
862.6144554934342
 20
-1915.536853917903
 97
        0
 75
     0
 76
     1
 47
0.3426058585364969
 98
        2
 10
861.4168229835398
 20
-1896.475725802259
 10
861.4168229835398
 20
-1896.475725802259
  0
LINE
  5
AE7D
330
18
100
AcDbEntity
  8
FERRO
 62
   250
100
AcDbLine
 10
911.7927500670777
 20
-1878.805205893984
 30
0.0
 11
911.7927500670777
 21
-1927.629877173717
 31
0.0
  0
LINE
  5
AE7E
330
18
100
AcDbEntity
  8
FERRO
 62
   250
100
AcDbLine
 10
930.4608849507987
 20
-1893.35855934426
 30
0.0
 11
930.4608849507987
 21
-1912.274231049146
 31
0.0
  0
LINE
  5
AE7F
330
18
100
AcDbEntity
  8
FERRO
 62
   250
100
AcDbLine
 10
937.1531688861887
 20
-1912.780839365855
 30
0.0
 11
937.1531688861887
 21
-1891.849663784999
 31
0.0
  0
LINE
  5
AE80
330
18
100
AcDbEntity
  8
FERRO
 62
   250
100
AcDbLine
 10
908.9710446407211
 20
-1869.180264770616
 30
0.0
 11
908.9710446407211
 21
-1915.536853917903
 31
0.0
  0
LINE
  5
AE81
330
18
100
AcDbEntity
  8
FERRO
 62
   250
100
AcDbLine
 10
862.6144554934342
 20
-1869.180264770616
 30
0.0
 11
862.6144554934342
 21
-1915.536853917903
 31
0.0
  0
LINE
  5
AE82
330
18
100
AcDbEntity
  8
FERRO
 62
   250
100
AcDbLine
 10
911.7927500670777
 20
-1816.777163995422
 30
0.0
 11
911.7927500670777
 21
-1927.629877173717
 31
0.0
  0
LINE
  5
AE83
102
{ACAD_REACTORS
330
AEBA
102
}
330
18
100
AcDbEntity
  8
FERRO
 62
   250
100
AcDbLine
 10
910.9865485166899
 20
-1816.53465511386
 30
0.0
 11
910.9865485166899
 21
-1917.552357793872
 31
0.0
  0
LINE
  5
AE84
102
{ACAD_REACTORS
330
AEBA
102
}
330
18
100
AcDbEntity
  8
FERRO
 62
   250
100
AcDbLine
 10
860.5989516174652
 20
-1816.53465511386
 30
0.0
 11
860.5989516174652
 21
-1917.552357793872
 31
0.0
  0
LINE
  5
AE85
330
18
100
AcDbEntity
  8
FERRO
 62
   250
100
AcDbLine
 10
859.7927500670778
 20
-1927.629877173717
 30
0.0
 11
859.7927500670778
 21
-1816.777163995422
 31
0.0
  0
LINE
  5
AE86
330
18
100
AcDbEntity
  8
FERRO
100
AcDbLine
 10
902.2438306872329
 20
-1928.629877173717
 30
0.0
 11
912.7927500670782
 21
-1928.629877173717
 31
0.0
  0
LINE
  5
AE87
330
18
100
AcDbEntity
  8
FERRO
 62
   250
100
AcDbLine
 10
902.2438306872329
 20
-1933.668636863639
 30
0.0
 11
918.551656576273
 21
-1952.246237426948
 31
0.0
  0
LINE
  5
AE88
330
18
100
AcDbEntity
  8
FERRO
 62
   250
100
AcDbLine
 10
922.398869446923
 20
-1933.668636863639
 30
0.0
 11
902.2438306872329
 21
-1933.668636863639
 31
0.0
  0
LINE
  5
AE89
330
18
100
AcDbEntity
  8
FERRO
 62
   250
100
AcDbLine
 10
891.6377113073879
 20
-1927.629877173717
 30
0.0
 11
911.7927500670777
 21
-1927.629877173717
 31
0.0
  0
LINE
  5
AE8A
330
18
100
AcDbEntity
  8
FERRO
 62
   250
100
AcDbLine
 10
893.233177702333
 20
-1926.823675623329
 30
0.0
 11
910.9865485166899
 21
-1926.823675623329
 31
0.0
  0
LINE
  5
AE8B
330
18
100
AcDbEntity
  8
FERRO
 62
   250
100
AcDbLine
 10
862.6144554934342
 20
-1915.536853917903
 30
0.0
 11
908.9710446407211
 21
-1915.536853917903
 31
0.0
  0
LINE
  5
AE8C
330
18
100
AcDbEntity
  8
FERRO
 62
   250
100
AcDbLine
 10
860.5989516174652
 20
-1917.552357793872
 30
0.0
 11
910.9865485166899
 21
-1917.552357793872
 31
0.0
  0
LINE
  5
AE8D
330
18
100
AcDbEntity
  8
FERRO
100
AcDbLine
 10
897.7927500670773
 20
-1948.129877173717
 30
0.0
 11
874.7927500670773
 21
-1948.129877173717
 31
0.0
  0
LINE
  5
AE8E
330
18
100
AcDbEntity
  8
FERRO
100
AcDbLine
 10
883.2927500670773
 20
-1918.862435313252
 30
0.0
 11
878.0427500670773
 21
-1921.629877173717
 31
0.0
  0
LWPOLYLINE
  5
AE8F
330
18
100
AcDbEntity
  8
FERRO
100
AcDbPolyline
 90
        4
 70
     1
 43
0.0
 10
896.7927500670773
 20
-1931.129877173717
 10
896.7927500670773
 20
-1945.129877173717
 10
874.7927500670773
 20
-1945.129877173717
 10
874.7927500670773
 20
-1931.129877173717
  0
LWPOLYLINE
  5
AE90
330
18
100
AcDbEntity
  8
FERRO
100
AcDbPolyline
 90
        3
 70
     0
 43
0.0
 10
874.7927500670773
 20
-1948.129877173717
 10
874.7927500670773
 20
-1954.129877173717
 10
880.2624199811873
 20
-1960.660207259607
  0
LWPOLYLINE
  5
AE91
330
18
100
AcDbEntity
  8
FERRO
100
AcDbPolyline
 90
        3
 70
     0
 43
0.0
 10
871.7927500670773
 20
-1948.129877173717
 10
871.7927500670773
 20
-1955.372517860837
 10
879.7320898952975
 20
-1961.190537345497
  0
LINE
  5
AE92
330
18
100
AcDbEntity
  8
FERRO
100
AcDbLine
 10
880.2624199811873
 20
-1960.660207259607
 30
0.0
 11
879.7320898952975
 21
-1961.190537345497
 31
0.0
  0
LINE
  5
AE93
330
18
100
AcDbEntity
  8
FERRO
 62
   250
100
AcDbLine
 10
859.7927500670778
 20
-1927.629877173717
 30
0.0
 11
879.9477888267679
 21
-1927.629877173717
 31
0.0
  0
LINE
  5
AE94
330
18
100
AcDbEntity
  8
FERRO
 62
   250
100
AcDbLine
 10
860.5989516174654
 20
-1926.823675623329
 30
0.0
 11
878.3523224318223
 21
-1926.823675623329
 31
0.0
  0
LINE
  5
AE95
330
18
100
AcDbEntity
  8
FERRO
 62
   250
100
AcDbLine
 10
860.5989516174652
 20
-1917.552357793872
 30
0.0
 11
860.5989516174654
 21
-1926.823675623329
 31
0.0
  0
LINE
  5
AE96
330
18
100
AcDbEntity
  8
FERRO
100
AcDbLine
 10
873.2927500670774
 20
-1928.129877173717
 30
0.0
 11
880.5427500670774
 21
-1928.129877173717
 31
0.0
  0
LINE
  5
AE97
330
18
100
AcDbEntity
  8
FERRO
100
AcDbLine
 10
871.7927500670773
 20
-1948.129877173717
 30
0.0
 11
871.7927500670773
 21
-1929.629877173717
 31
0.0
  0
LINE
  5
AE98
330
18
100
AcDbEntity
  8
FERRO
100
AcDbLine
 10
878.0427500670773
 20
-1921.629877173717
 30
0.0
 11
880.5427500670774
 21
-1921.129877173717
 31
0.0
  0
LINE
  5
AE99
330
18
100
AcDbEntity
  8
FERRO
100
AcDbLine
 10
880.5427500670774
 20
-1928.129877173717
 30
0.0
 11
880.5427500670774
 21
-1921.129877173717
 31
0.0
  0
LINE
  5
AE9A
330
18
100
AcDbEntity
  8
FERRO
100
AcDbLine
 10
870.7927500670773
 20
-1927.629877173717
 30
0.0
 11
871.7927500670773
 21
-1929.629877173717
 31
0.0
  0
LINE
  5
AE9B
330
18
100
AcDbEntity
  8
FERRO
100
AcDbLine
 10
873.2927500670774
 20
-1928.129877173717
 30
0.0
 11
870.7927500670773
 21
-1927.629877173717
 31
0.0
  0
LINE
  5
AE9C
330
18
100
AcDbEntity
  8
FERRO
 62
   250
100
AcDbLine
 10
873.4875685085302
 20
-1918.862435313252
 30
0.0
 11
872.486145361239
 21
-1918.862435313252
 31
0.0
  0
LINE
  5
AE9D
330
18
100
AcDbEntity
  8
FERRO
 62
   250
100
AcDbLine
 10
878.3523224318223
 20
-1926.823675623329
 30
0.0
 11
872.486145361239
 21
-1918.862435313252
 31
0.0
  0
LINE
  5
AE9E
330
18
100
AcDbEntity
  8
FERRO
 62
   250
100
AcDbLine
 10
879.9477888267679
 20
-1927.629877173717
 30
0.0
 11
873.4875685085302
 21
-1918.862435313252
 31
0.0
  0
LINE
  5
AE9F
330
18
100
AcDbEntity
  8
FERRO
100
AcDbLine
 10
898.2927500670774
 20
-1928.129877173717
 30
0.0
 11
891.0427500670774
 21
-1928.129877173717
 31
0.0
  0
LINE
  5
AEA0
330
18
100
AcDbEntity
  8
FERRO
100
AcDbLine
 10
888.2927500670783
 20
-1918.862435313252
 30
0.0
 11
893.5427500670773
 21
-1921.629877173717
 31
0.0
  0
LINE
  5
AEA1
330
18
100
AcDbEntity
  8
FERRO
100
AcDbLine
 10
893.5427500670773
 20
-1921.629877173717
 30
0.0
 11
891.0427500670774
 21
-1921.129877173717
 31
0.0
  0
LINE
  5
AEA2
330
18
100
AcDbEntity
  8
FERRO
 62
   250
100
AcDbLine
 10
891.6377113073879
 20
-1927.629877173717
 30
0.0
 11
898.0979316256252
 21
-1918.862435313252
 31
0.0
  0
ARC
  5
AEA3
330
18
100
AcDbEntity
  8
FERRO
100
AcDbCircle
 10
885.7927500670776
 20
-1925.598627173717
 30
0.0
 40
3.03125000000001
100
AcDbArc
 50
222.0750220508378
 51
317.9249779491621
  0
LINE
  5
AEA4
330
18
100
AcDbEntity
  8
FERRO
100
AcDbLine
 10
888.0427500670773
 20
-1927.629877173717
 30
0.0
 11
888.0427500670773
 21
-1922.129877173717
 31
0.0
  0
LINE
  5
AEA5
330
18
100
AcDbEntity
  8
FERRO
100
AcDbLine
 10
883.5427500670773
 20
-1922.129877173717
 30
0.0
 11
888.0427500670773
 21
-1922.129877173717
 31
0.0
  0
LINE
  5
AEA6
330
18
100
AcDbEntity
  8
FERRO
100
AcDbLine
 10
883.5427500670773
 20
-1927.629877173717
 30
0.0
 11
883.5427500670773
 21
-1922.129877173717
 31
0.0
  0
ARC
  5
AEA7
330
18
100
AcDbEntity
  8
FERRO
100
AcDbCircle
 10
885.7927500670777
 20
-1907.276095712921
 30
0.0
 40
11.8529855029944
100
AcDbArc
 50
257.8238847372294
 51
282.1761152627706
  0
LINE
  5
AEA8
330
18
100
AcDbEntity
  8
FERRO
100
AcDbLine
 10
891.0427500670774
 20
-1921.129877173717
 30
0.0
 11
891.0427500670774
 21
-1928.129877173717
 31
0.0
  0
LINE
  5
AEA9
330
18
100
AcDbEntity
  8
FERRO
100
AcDbLine
 10
899.7927500670773
 20
-1929.629877173717
 30
0.0
 11
899.7927500670773
 21
-1948.129877173717
 31
0.0
  0
LINE
  5
AEAA
330
18
100
AcDbEntity
  8
FERRO
100
AcDbLine
 10
900.7927500670772
 20
-1927.629877173717
 30
0.0
 11
899.7927500670773
 21
-1929.629877173717
 31
0.0
  0
LINE
  5
AEAB
330
18
100
AcDbEntity
  8
FERRO
100
AcDbLine
 10
898.2927500670774
 20
-1928.129877173717
 30
0.0
 11
900.7927500670772
 21
-1927.629877173717
 31
0.0
  0
LINE
  5
AEAC
330
18
100
AcDbEntity
  8
FERRO
100
AcDbLine
 10
897.7927500670773
 20
-1948.129877173717
 30
0.0
 11
899.7927500670773
 21
-1953.129877173717
 31
0.0
  0
LINE
  5
AEAD
330
18
100
AcDbEntity
  8
FERRO
100
AcDbLine
 10
899.7927500670773
 20
-1948.129877173717
 30
0.0
 11
899.7927500670773
 21
-1953.129877173717
 31
0.0
  0
LINE
  5
AEAE
330
18
100
AcDbEntity
  8
FERRO
 62
   250
100
AcDbLine
 10
902.2438306872329
 20
-1928.629877173717
 30
0.0
 11
902.2438306872329
 21
-1933.668636863639
 31
0.0
  0
LINE
  5
AEAF
330
18
100
AcDbEntity
  8
FERRO
 62
   250
100
AcDbLine
 10
898.0979316256252
 20
-1918.862435313252
 30
0.0
 11
899.0993547729161
 21
-1918.862435313252
 31
0.0
  0
LINE
  5
AEB0
330
18
100
AcDbEntity
  8
FERRO
 62
   250
100
AcDbLine
 10
893.233177702333
 20
-1926.823675623329
 30
0.0
 11
899.0993547729161
 21
-1918.862435313252
 31
0.0
  0
HATCH
  5
AEB1
330
18
100
AcDbEntity
  8
AREA166
 62
   250
100
AcDbHatch
 10
0.0
 20
0.0
 30
0.0
210
0.0
220
0.0
230
1.0
  2
SOLID
 70
     1
 71
     1
 91
        1
 92
        7
 72
     1
 73
     1
 93
        2
 10
945.7113084210723
 20
-1951.810904095077
 42
1.0
 10
925.5562696613823
 20
-1951.810904095077
 42
1.0
 97
        1
330
AEB2
 75
     0
 76
     1
 47
0.6043986274836677
 98
        1
 10
934.4088244235894
 20
-1952.706740857673
  0
CIRCLE
  5
AEB2
102
{ACAD_REACTORS
330
AEB1
102
}
330
18
100
AcDbEntity
  8
FERRO
 62
   250
100
AcDbCircle
 10
935.6337890412273
 20
-1951.810904095077
 30
0.0
 40
10.07751937984497
  0
CIRCLE
  5
AEB3
330
18
100
AcDbEntity
  8
FERRO
 62
   250
100
AcDbCircle
 10
935.6337890412273
 20
-1951.810904095077
 30
0.0
 40
11.58914728682171
  0
ARC
  5
AEB4
330
18
100
AcDbEntity
  8
FERRO
 62
   250
100
AcDbCircle
 10
922.398869446923
 20
-1925.606621359763
 30
0.0
 40
8.062015503875974
100
AcDbArc
 50
270.0
 51
0.0
  0
LINE
  5
AEB5
330
18
100
AcDbEntity
  8
FERRO
 62
   250
100
AcDbLine
 10
910.9865485166899
 20
-1917.552357793872
 30
0.0
 11
910.9865485166899
 21
-1926.823675623329
 31
0.0
  0
ARC
  5
AEB6
330
18
100
AcDbEntity
  8
FERRO
 62
   250
100
AcDbCircle
 10
909.6264089340307
 20
-1916.161501472146
 30
0.0
 40
27.73357874023189
100
AcDbArc
 50
309.9203830499155
 51
7.001642423029226
  0
LINE
  5
AEB7
330
18
100
AcDbEntity
  8
FERRO
100
AcDbLine
 10
930.4608849507991
 20
-1925.606621359763
 30
0.0
 11
934.1201540139175
 21
-1929.169492927484
 31
0.0
  0
LINE
  5
AEB8
330
18
100
AcDbEntity
  8
FERRO
 62
   250
100
AcDbLine
 10
930.4608849507987
 20
-1925.606621359763
 30
0.0
 11
930.4608849507987
 21
-1912.274231049146
 31
0.0
  0
HATCH
  5
AEB9
330
18
100
AcDbEntity
  8
AREA166
 62
   166
100
AcDbHatch
 10
0.0
 20
0.0
 30
0.0
210
0.0
220
0.0
230
1.0
  2
HONEY
 70
     0
 71
     0
 91
        1
 92
        5
 93
        4
 72
     1
 10
910.9865485166899
 20
-1732.224498282259
 11
860.5989516174652
 21
-1732.224498282259
 72
     1
 10
860.5989516174652
 20
-1732.224498282259
 11
860.5989516174654
 21
-1782.854604063047
 72
     4
 94
        3
 73
     0
 74
     0
 95
       12
 96
        8
 40
0.8095054611353289
 40
0.8095054611355564
 40
0.8095054611355564
 40
0.8095054611355564
 40
11.9751301493461
 40
26.1101664447631
 40
34.22191994093235
 40
42.5923640577153
 40
51.62711728956213
 40
51.62711728956215
 40
51.62711728956215
 40
51.62711728956215
 10
860.5989516174652
 20
-1782.854604063047
 10
864.3060261504864
 20
-1784.02011772569
 10
872.7243304172002
 20
-1789.029900309708
 10
883.7188849899266
 20
-1780.459056877713
 10
894.2256805658169
 20
-1783.383929863856
 10
902.6617198677875
 20
-1788.60755960651
 10
908.0001192183525
 20
-1783.845288269377
 10
910.9865485166899
 20
-1782.854604063046
 72
     1
 10
910.9865485166899
 20
-1782.854604063046
 11
910.9865485166899
 21
-1732.224498282259
 97
        0
 75
     0
 76
     1
 52
0.0
 41
1.455999999999999
 77
     0
 78
     3
 53
0.0
 43
-55.24834231678482
 44
95.19951872254273
 45
6.934199999999999
 46
4.003461279999999
 79
     2
 49
4.622799999999999
 49
-9.245599999999999
 53
120.0
 43
-55.24834231678482
 44
95.19951872254273
 45
-6.934199171547365
 46
4.003462714922056
 79
     2
 49
4.622799999999983
 49
-9.245599999999967
 53
60.0
 43
-55.24834231678482
 44
95.19951872254273
 45
0.0000008284526355
 46
8.006923994922052
 79
     2
 49
-9.245599999999999
 49
4.622799999999999
 47
0.4674590473530481
 98
        1
 10
892.5090230836016
 20
-1755.095798817308
  0
HATCH
  5
AEBA
330
18
100
AcDbEntity
  8
AREA166
 62
   166
100
AcDbHatch
 10
0.0
 20
0.0
 30
0.0
210
0.0
220
0.0
230
1.0
  2
HONEY
 70
     0
 71
     1
 91
        1
 92
        5
 93
        5
 72
     4
 94
        3
 73
     0
 74
     0
 95
       12
 96
        8
 40
0.8418856795806846
 40
0.8418856795812104
 40
0.8418856795812104
 40
0.8418856795812104
 40
7.982079928829776
 40
18.99429133353989
 40
30.43312192197511
 40
42.04176826085937
 40
52.70988905106023
 40
52.70988905106041
 40
52.70988905106041
 40
52.70988905106041
 10
910.9865485166897
 20
-1816.534655113861
 10
908.7238053266283
 20
-1815.802214967679
 10
903.5029851639935
 20
-1812.424837208261
 10
893.0336309789272
 20
-1812.823122369472
 10
882.4584894821789
 20
-1818.882384662463
 10
871.3671457182719
 20
-1812.695977325746
 10
864.0101571956259
 20
-1815.494534596296
 10
860.5989516174652
 20
-1816.534655113861
 72
     4
 94
        3
 73
     0
 74
     0
 95
        8
 96
        4
 40
0.0
 40
0.0000000000001905
 40
0.0000000000001905
 40
0.0000000000001905
 40
0.8418856795808784
 40
0.8418856795808784
 40
0.8418856795808784
 40
0.8418856795808784
 10
860.598951617465
 20
-1816.534655113861
 10
860.3297528351458
 20
-1816.616737289907
 10
860.0612514511118
 20
-1816.696950642665
 10
859.7927500670779
 20
-1816.777163995423
 72
     1
 10
860.5989516174654
 20
-1816.535900203824
 11
860.5989516174654
 21
-1867.164760894647
 72
     1
 10
860.5989516174654
 20
-1867.164760894647
 11
910.9865485166901
 21
-1867.164760894647
 72
     1
 10
910.9865485166901
 20
-1867.164760894647
 11
910.9865485166897
 21
-1816.534655113861
 97
        4
330
AE67
330
AE84
330
AEBE
330
AE83
 75
     0
 76
     1
 52
0.0
 41
1.455999999999999
 77
     0
 78
     3
 53
0.0
 43
-55.24834231678482
 44
95.19951872254273
 45
6.934199999999999
 46
4.003461279999999
 79
     2
 49
4.622799999999999
 49
-9.245599999999999
 53
120.0
 43
-55.24834231678482
 44
95.19951872254273
 45
-6.934199171547365
 46
4.003462714922056
 79
     2
 49
4.622799999999983
 49
-9.245599999999967
 53
60.0
 43
-55.24834231678482
 44
95.19951872254273
 45
0.0000008284526355
 46
8.006923994922052
 79
     2
 49
-9.245599999999999
 49
4.622799999999999
 47
0.4674590473530481
 98
        1
 10
895.4281603961636
 20
-1846.007239010617
  0
LINE
  5
AEBB
330
18
100
AcDbEntity
  8
FERRO
 62
   250
100
AcDbLine
 10
860.5989516174652
 20
-1732.224498282259
 30
0.0
 11
910.9865485166899
 21
-1732.224498282259
 31
0.0
  0
LINE
  5
AEBC
330
18
100
AcDbEntity
  8
FERRO
 62
   250
100
AcDbLine
 10
862.6144554934342
 20
-1730.208994406291
 30
0.0
 11
908.971044640721
 21
-1730.208994406291
 31
0.0
  0
LINE
  5
AEBD
330
18
100
AcDbEntity
  8
FERRO
 62
   250
100
AcDbLine
 10
862.6144554934342
 20
-1869.180264770616
 30
0.0
 11
908.9710446407211
 21
-1869.180264770616
 31
0.0
  0
LINE
  5
AEBE
102
{ACAD_REACTORS
330
AEBA
102
}
330
18
100
AcDbEntity
  8
FERRO
 62
   250
100
AcDbLine
 10
860.5989516174652
 20
-1867.164760894647
 30
0.0
 11
910.9865485166899
 21
-1867.164760894647
 31
0.0
  0
ARC
  5
AEBF
330
18
100
AcDbEntity
  8
FERRO
 62
   250
100
AcDbCircle
 10
915.3446058810315
 20
-1893.35855934426
 30
0.0
 40
15.11627906976745
100
AcDbArc
 50
0.0
 51
90.0
  0
LINE
  5
AEC0
330
18
100
AcDbEntity
  8
FERRO
 62
   250
100
AcDbLine
 10
930.4608849507987
 20
-1896.327846367902
 30
0.0
 11
916.3523578190162
 21
-1896.327846367902
 31
0.0
  0
LINE
  5
AEC1
330
18
100
AcDbEntity
  8
FERRO
 62
   250
100
AcDbLine
 10
930.4608849507987
 20
-1909.932497530693
 30
0.0
 11
916.3523578190162
 21
-1909.932497530693
 31
0.0
  0
LINE
  5
AEC2
330
18
100
AcDbEntity
  8
FERRO
 62
   250
100
AcDbLine
 10
916.3523578190162
 20
-1897.839474274879
 30
0.0
 11
912.792750067078
 21
-1897.839474274879
 31
0.0
  0
LINE
  5
AEC3
330
18
100
AcDbEntity
  8
FERRO
 62
   250
100
AcDbLine
 10
916.3523578190162
 20
-1908.420869623716
 30
0.0
 11
912.792750067078
 21
-1908.420869623716
 31
0.0
  0
LINE
  5
AEC4
330
18
100
AcDbEntity
  8
FERRO
 62
   250
100
AcDbLine
 10
915.3446058810315
 20
-1878.242280274492
 30
0.0
 11
912.792750067078
 21
-1878.242280274492
 31
0.0
  0
LINE
  5
AEC5
330
18
100
AcDbEntity
  8
FERRO
 62
   250
100
AcDbLine
 10
916.3523578190162
 20
-1896.327846367902
 30
0.0
 11
916.3523578190162
 21
-1897.839474274879
 31
0.0
  0
LINE
  5
AEC6
330
18
100
AcDbEntity
  8
FERRO
 62
   250
100
AcDbLine
 10
916.3523578190162
 20
-1908.420869623716
 30
0.0
 11
916.3523578190162
 21
-1909.932497530693
 31
0.0
  0
HATCH
  5
AEC7
330
18
100
AcDbEntity
  8
AREA166
 62
   250
100
AcDbHatch
 10
0.0
 20
0.0
 30
0.0
210
0.0
220
0.0
230
1.0
  2
SOLID
 70
     1
 71
     0
 91
        2
 92
        7
 72
     0
 73
     1
 93
        4
 10
818.7820583123766
 20
-1555.214324335412
 10
748.7820583123764
 20
-1555.214324335412
 10
748.7820583123766
 20
-1625.214324335412
 10
818.7820583123764
 20
-1625.214324335412
 97
        0
 92
       22
 72
     0
 73
     1
 93
        4
 10
750.7820583123766
 20
-1557.214324335412
 10
816.7820583123766
 20
-1557.214324335412
 10
816.7820583123766
 20
-1623.214324335412
 10
750.7820583123766
 20
-1623.214324335412
 97
        0
 75
     0
 76
     1
 47
0.3651970449718584
 98
        2
 10
749.5496169190578
 20
-1583.658150449992
 10
749.5496169190578
 20
-1583.658150449992
  0
LINE
  5
AEC8
330
18
100
AcDbEntity
  8
FERRO
 62
   250
100
AcDbLine
 10
818.7820583123766
 20
-1625.214324335412
 30
0.0
 11
748.7820583123766
 21
-1625.214324335412
 31
0.0
  0
LINE
  5
AEC9
330
18
100
AcDbEntity
  8
FERRO
 62
   250
100
AcDbLine
 10
748.7820583123766
 20
-1555.214324335412
 30
0.0
 11
818.7820583123766
 21
-1555.214324335412
 31
0.0
  0
LINE
  5
AECA
330
18
100
AcDbEntity
  8
FERRO
 62
   250
100
AcDbLine
 10
816.7820583123766
 20
-1623.214324335412
 30
0.0
 11
750.7820583123766
 21
-1623.214324335412
 31
0.0
  0
LINE
  5
AECB
330
18
100
AcDbEntity
  8
FERRO
 62
   250
100
AcDbLine
 10
750.7820583123766
 20
-1557.214324335412
 30
0.0
 11
816.7820583123766
 21
-1557.214324335412
 31
0.0
  0
LINE
  5
AECC
330
18
100
AcDbEntity
  8
FERRO
 62
   250
100
AcDbLine
 10
748.7820583123766
 20
-1625.214324335412
 30
0.0
 11
748.7820583123766
 21
-1555.214324335412
 31
0.0
  0
LINE
  5
AECD
330
18
100
AcDbEntity
  8
FERRO
 62
   250
100
AcDbLine
 10
750.7820583123766
 20
-1623.214324335412
 30
0.0
 11
750.7820583123766
 21
-1557.214324335412
 31
0.0
  0
HATCH
  5
AED0
330
18
100
AcDbEntity
  8
AREA166
 62
   166
100
AcDbHatch
 10
0.0
 20
0.0
 30
0.0
210
0.0
220
0.0
230
1.0
  2
DOTS
 70
     0
 71
     1
 91
        6
 92
        7
 72
     1
 73
     1
 93
       11
 10
858.272750067084
 20
-1670.239382003189
 42
0.0
 10
867.9626725476978
 20
-1670.23938200319
 42
0.0
 10
867.9626725476978
 20
-1665.39442076288
 42
-0.1427525949938848
 10
854.9980599144038
 20
-1642.395846947144
 42
0.0
 10
854.2369651865298
 20
-1640.415568504925
 42
1.346499099033026
 10
828.5909875211782
 20
-1660.325511860111
 42
-0.242957798666628
 10
840.8308896019615
 20
-1684.027980319153
 42
0.0
 10
840.8308896019615
 20
-1688.193995452533
 42
0.0
 10
854.3967810748297
 20
-1688.193995452533
 42
0.0
 10
854.3967810748299
 20
-1689.647483824626
 42
0.0
 10
858.2727500670777
 20
-1689.647483824626
 42
0.0
 97
       11
330
AED2
330
AF09
330
AED1
330
AEF1
330
AEE0
330
AEE5
330
AEEB
330
AEE9
330
AEED
330
AEEC
330
AEE7
 92
       22
 72
     1
 73
     1
 93
        2
 10
827.2649981290934
 20
-1646.49907192567
 42
-1.0
 10
849.5518198345198
 20
-1646.49907192567
 42
-1.0
 97
        1
330
AEE4
 92
        6
 72
     1
 73
     1
 93
        2
 10
828.7184865011864
 20
-1646.49907192567
 42
-1.0
 10
848.0983314624268
 20
-1646.49907192567
 42
-1.0
 97
        1
330
AEE3
 92
        7
 72
     1
 73
     1
 93
        7
 10
858.2727500670779
 20
-1699.821902429277
 42
0.0
 10
854.3967810748297
 20
-1699.821902429277
 42
0.0
 10
854.3967810748297
 20
-1701.27539080137
 42
0.0
 10
840.8308896019615
 20
-1701.27539080137
 42
0.0
 10
840.8308896019615
 20
-1704.154110685361
 42
0.4142135623730906
 10
855.3657733228918
 20
-1718.688994406291
 42
0.0
 10
858.2727500670777
 20
-1718.68899440629
 42
0.0
 97
        7
330
AEEE
330
AEEF
330
AEEA
330
AEEB
330
AEE8
330
AEF0
330
AEE7
 92
        7
 72
     1
 73
     1
 93
       10
 10
801.3038086556228
 20
-1644.156184800528
 42
0.0
 10
803.5554755002893
 20
-1644.156184800528
 42
0.0
 10
816.3750815681906
 20
-1644.156184800528
 42
0.4142135623730866
 10
824.1270195526865
 20
-1636.404246816032
 42
0.0
 10
824.1270195526864
 20
-1617.024401854792
 42
0.0
 10
820.2820583123767
 20
-1617.024401854792
 42
0.0
 10
820.2820583123767
 20
-1626.714324335412
 42
0.0
 10
799.8503202835297
 20
-1626.714324335412
 42
0.0
 10
799.8503202835297
 20
-1630.59029332766
 42
0.0
 10
801.3038086556225
 20
-1630.59029332766
 42
0.0
 97
       10
330
AEF7
330
AEF5
330
AED4
330
AEDE
330
AEDF
330
AED9
330
AEDA
330
AED6
330
AEE6
330
AEE1
 92
        7
 72
     1
 73
     1
 93
        7
 10
788.2224133067853
 20
-1630.59029332766
 42
0.0
 10
789.6759016788785
 20
-1630.59029332766
 42
0.0
 10
789.6759016788786
 20
-1626.714324335412
 42
0.0
 10
770.8324459092756
 20
-1626.714324335412
 42
0.0
 10
770.8324459092757
 20
-1629.621301079598
 42
0.4142135623730862
 10
785.3673296302059
 20
-1644.156184800528
 42
0.0
 10
788.2224133067855
 20
-1644.156184800529
 42
0.0
 97
        7
330
AEDD
330
AEDC
330
AED4
330
AEDB
330
AED7
330
AEDA
330
AED8
 75
     0
 76
     1
 52
0.0
 41
2.0
 77
     0
 78
     1
 53
0.0
 43
-16.55281449901781
 44
26.91573000903782
 45
1.587499999999999
 46
3.174999999999999
 79
     2
 49
0.0
 49
-3.174999999999999
 47
1.043845980145889
 98
        6
 10
851.6999969427349
 20
-1670.302230525656
 10
851.6999969427349
 20
-1670.302230525656
 10
851.6999969427349
 20
-1670.302230525656
 10
852.7446257309728
 20
-1707.880684927789
 10
808.8701531946128
 20
-1634.811466229265
 10
783.799026597321
 20
-1632.723774962852
  0
ARC
  5
AED1
102
{ACAD_REACTORS
330
AED0
102
}
330
18
100
AcDbEntity
  8
FERRO
 62
   250
100
AcDbCircle
 10
900.9365699908387
 20
-1631.653128684414
 30
0.0
 40
47.1778836290387
100
AcDbArc
 50
193.1620906810393
 51
225.659018360873
  0
LINE
  5
AED2
102
{ACAD_REACTORS
330
AED0
102
}
330
18
100
AcDbEntity
  8
FERRO
 62
   250
100
AcDbLine
 10
858.2727500670777
 20
-1670.239382003189
 30
0.0
 11
867.962672547698
 21
-1670.23938200319
 31
0.0
  0
LINE
  5
AED3
330
18
100
AcDbEntity
  8
FERRO
 62
   250
100
AcDbLine
 10
858.2727500670777
 20
-1670.239382003189
 30
0.0
 11
867.962672547698
 21
-1670.23938200319
 31
0.0
  0
LINE
  5
AED4
102
{ACAD_REACTORS
330
AED0
102
}
330
18
100
AcDbEntity
  8
FERRO
 62
   250
100
AcDbLine
 10
770.8324459092757
 20
-1626.714324335412
 30
0.0
 11
820.2820583123767
 21
-1626.714324335412
 31
0.0
  0
ARC
  5
AED5
330
18
100
AcDbEntity
  8
FERRO
 62
   250
100
AcDbCircle
 10
803.3956135565311
 20
-1668.569528601769
 30
0.0
 40
24.41386719466268
100
AcDbArc
 50
29.9092813388104
 51
89.62482469230222
  0
LINE
  5
AED6
102
{ACAD_REACTORS
330
AED0
102
}
330
18
100
AcDbEntity
  8
FERRO
 62
   250
100
AcDbLine
 10
816.3750815681906
 20
-1644.156184800528
 30
0.0
 11
803.5554755002893
 21
-1644.156184800528
 31
0.0
  0
ARC
  5
AED7
102
{ACAD_REACTORS
330
AED0
102
}
330
18
100
AcDbEntity
  8
FERRO
 62
   250
100
AcDbCircle
 10
785.367329630206
 20
-1629.621301079598
 30
0.0
 40
14.53488372093024
100
AcDbArc
 50
180.0
 51
270.0
  0
LINE
  5
AED8
102
{ACAD_REACTORS
330
AED0
102
}
330
18
100
AcDbEntity
  8
FERRO
 62
   250
100
AcDbLine
 10
788.2224133067855
 20
-1644.156184800528
 30
0.0
 11
788.2224133067855
 21
-1630.59029332766
 31
0.0
  0
LINE
  5
AED9
102
{ACAD_REACTORS
330
AED0
102
}
330
18
100
AcDbEntity
  8
FERRO
 62
   250
100
AcDbLine
 10
801.3038086556228
 20
-1644.156184800528
 30
0.0
 11
801.3038086556228
 21
-1630.59029332766
 31
0.0
  0
LINE
  5
AEDA
102
{ACAD_REACTORS
330
AED0
102
}
330
18
100
AcDbEntity
  8
FERRO
 62
   250
100
AcDbLine
 10
785.367329630206
 20
-1644.156184800528
 30
0.0
 11
803.5554755002893
 21
-1644.156184800528
 31
0.0
  0
LINE
  5
AEDB
102
{ACAD_REACTORS
330
AED0
102
}
330
18
100
AcDbEntity
  8
FERRO
 62
   250
100
AcDbLine
 10
770.8324459092757
 20
-1629.621301079598
 30
0.0
 11
770.8324459092757
 21
-1626.714324335412
 31
0.0
  0
LINE
  5
AEDC
102
{ACAD_REACTORS
330
AED0
102
}
330
18
100
AcDbEntity
  8
FERRO
 62
   250
100
AcDbLine
 10
789.6759016788785
 20
-1630.59029332766
 30
0.0
 11
789.6759016788785
 21
-1626.714324335412
 31
0.0
  0
LINE
  5
AEDD
102
{ACAD_REACTORS
330
AED0
102
}
330
18
100
AcDbEntity
  8
FERRO
 62
   250
100
AcDbLine
 10
788.2224133067855
 20
-1630.59029332766
 30
0.0
 11
789.6759016788785
 21
-1630.59029332766
 31
0.0
  0
LINE
  5
AEDE
102
{ACAD_REACTORS
330
AED0
102
}
330
18
100
AcDbEntity
  8
FERRO
 62
   250
100
AcDbLine
 10
799.8503202835297
 20
-1630.59029332766
 30
0.0
 11
799.8503202835297
 21
-1626.714324335412
 31
0.0
  0
LINE
  5
AEDF
102
{ACAD_REACTORS
330
AED0
102
}
330
18
100
AcDbEntity
  8
FERRO
 62
   250
100
AcDbLine
 10
799.8503202835297
 20
-1630.59029332766
 30
0.0
 11
801.3038086556228
 21
-1630.59029332766
 31
0.0
  0
ARC
  5
AEE0
102
{ACAD_REACTORS
330
AED0
102
}
330
18
100
AcDbEntity
  8
FERRO
 62
   250
100
AcDbCircle
 10
838.4084089818065
 20
-1646.49907192567
 30
0.0
 40
16.95736434108528
100
AcDbArc
 50
21.02362631271439
 51
234.6234598480595
  0
LINE
  5
AEE1
102
{ACAD_REACTORS
330
AED0
102
}
330
18
100
AcDbEntity
  8
FERRO
 62
   250
100
AcDbLine
 10
824.1270195526865
 20
-1636.404246816032
 30
0.0
 11
824.1270195526865
 21
-1617.024401854792
 31
0.0
  0
HATCH
  5
AEE2
330
18
100
AcDbEntity
  8
AREA166
 62
   250
100
AcDbHatch
 10
0.0
 20
0.0
 30
0.0
210
0.0
220
0.0
230
1.0
  2
SOLID
 70
     1
 71
     1
 91
        1
 92
        7
 72
     1
 73
     1
 93
        2
 10
828.7184865011864
 20
-1646.49907192567
 42
1.0
 10
848.0983314624268
 20
-1646.49907192567
 42
1.0
 97
        1
330
AEE3
 75
     0
 76
     1
 47
1.043845980145889
 98
        1
 10
841.6875835318755
 20
-1645.249926043339
  0
CIRCLE
  5
AEE3
102
{ACAD_REACTORS
330
AEE2
330
AED0
102
}
330
18
100
AcDbEntity
  8
FERRO
 62
   250
100
AcDbCircle
 10
838.4084089818065
 20
-1646.49907192567
 30
0.0
 40
9.689922480620161
  0
CIRCLE
  5
AEE4
102
{ACAD_REACTORS
330
AED0
102
}
330
18
100
AcDbEntity
  8
FERRO
 62
   250
100
AcDbCircle
 10
838.4084089818065
 20
-1646.49907192567
 30
0.0
 40
11.14341085271318
  0
ARC
  5
AEE5
102
{ACAD_REACTORS
330
AED0
102
}
330
18
100
AcDbEntity
  8
FERRO
 62
   250
100
AcDbCircle
 10
811.7611221601009
 20
-1684.027980319153
 30
0.0
 40
29.06976744186049
100
AcDbArc
 50
0.0
 51
54.62345984805946
  0
ARC
  5
AEE6
102
{ACAD_REACTORS
330
AED0
102
}
330
18
100
AcDbEntity
  8
FERRO
 62
   250
100
AcDbCircle
 10
816.3750815681906
 20
-1636.404246816032
 30
0.0
 40
7.751937984496128
100
AcDbArc
 50
270.0
 51
0.0
  0
LINE
  5
AEE7
102
{ACAD_REACTORS
330
AED0
102
}
330
18
100
AcDbEntity
  8
FERRO
 62
   250
100
AcDbLine
 10
858.2727500670777
 20
-1670.239382003189
 30
0.0
 11
858.2727500670777
 21
-1718.688994406291
 31
0.0
  0
ARC
  5
AEE8
102
{ACAD_REACTORS
330
AED0
102
}
330
18
100
AcDbEntity
  8
FERRO
 62
   250
100
AcDbCircle
 10
855.3657733228916
 20
-1704.154110685361
 30
0.0
 40
14.53488372093024
100
AcDbArc
 50
180.0
 51
270.0
  0
LINE
  5
AEE9
102
{ACAD_REACTORS
330
AED0
102
}
330
18
100
AcDbEntity
  8
FERRO
 62
   250
100
AcDbLine
 10
840.8308896019615
 20
-1688.193995452533
 30
0.0
 11
854.3967810748297
 21
-1688.193995452533
 31
0.0
  0
LINE
  5
AEEA
102
{ACAD_REACTORS
330
AED0
102
}
330
18
100
AcDbEntity
  8
FERRO
 62
   250
100
AcDbLine
 10
840.8308896019615
 20
-1701.27539080137
 30
0.0
 11
854.3967810748297
 21
-1701.27539080137
 31
0.0
  0
LINE
  5
AEEB
102
{ACAD_REACTORS
330
AED0
102
}
330
18
100
AcDbEntity
  8
FERRO
 62
   250
100
AcDbLine
 10
840.8308896019615
 20
-1684.027980319153
 30
0.0
 11
840.8308896019615
 21
-1704.154110685361
 31
0.0
  0
LINE
  5
AEEC
102
{ACAD_REACTORS
330
AED0
102
}
330
18
100
AcDbEntity
  8
FERRO
 62
   250
100
AcDbLine
 10
854.3967810748297
 20
-1689.647483824626
 30
0.0
 11
858.2727500670777
 21
-1689.647483824626
 31
0.0
  0
LINE
  5
AEED
102
{ACAD_REACTORS
330
AED0
102
}
330
18
100
AcDbEntity
  8
FERRO
 62
   250
100
AcDbLine
 10
854.3967810748297
 20
-1688.193995452533
 30
0.0
 11
854.3967810748297
 21
-1689.647483824626
 31
0.0
  0
LINE
  5
AEEE
102
{ACAD_REACTORS
330
AED0
102
}
330
18
100
AcDbEntity
  8
FERRO
 62
   250
100
AcDbLine
 10
854.3967810748297
 20
-1699.821902429277
 30
0.0
 11
858.2727500670777
 21
-1699.821902429277
 31
0.0
  0
LINE
  5
AEEF
102
{ACAD_REACTORS
330
AED0
102
}
330
18
100
AcDbEntity
  8
FERRO
 62
   250
100
AcDbLine
 10
854.3967810748297
 20
-1699.821902429277
 30
0.0
 11
854.3967810748297
 21
-1701.27539080137
 31
0.0
  0
LINE
  5
AEF0
102
{ACAD_REACTORS
330
AED0
102
}
330
18
100
AcDbEntity
  8
FERRO
 62
   250
100
AcDbLine
 10
855.3657733228916
 20
-1718.688994406291
 30
0.0
 11
858.2727500670777
 21
-1718.688994406291
 31
0.0
  0
LINE
  5
AEF1
102
{ACAD_REACTORS
330
AED0
102
}
330
18
100
AcDbEntity
  8
FERRO
 62
   250
100
AcDbLine
 10
854.2369651865294
 20
-1640.415568504923
 30
0.0
 11
854.9980599144035
 21
-1642.395846947143
 31
0.0
  0
LINE
  5
AEF2
330
18
100
AcDbEntity
  8
FERRO
 62
   250
100
AcDbLine
 10
824.1270195526865
 20
-1617.024401854792
 30
0.0
 11
838.3535538426418
 21
-1629.541796309876
 31
0.0
  0
LINE
  5
AEF3
330
18
100
AcDbEntity
  8
FERRO
 62
   250
100
AcDbLine
 10
818.7820583123766
 20
-1555.214324335412
 30
0.0
 11
818.7820583123766
 21
-1625.214324335412
 31
0.0
  0
LINE
  5
AEF4
330
18
100
AcDbEntity
  8
FERRO
 62
   250
100
AcDbLine
 10
816.7820583123766
 20
-1557.214324335412
 30
0.0
 11
816.7820583123766
 21
-1623.214324335412
 31
0.0
  0
LINE
  5
AEF5
102
{ACAD_REACTORS
330
AED0
102
}
330
18
100
AcDbEntity
  8
FERRO
 62
   250
100
AcDbLine
 10
820.2820583123767
 20
-1626.714324335412
 30
0.0
 11
820.2820583123767
 21
-1617.024401854792
 31
0.0
  0
LINE
  5
AEF6
330
18
100
AcDbEntity
  8
FERRO
 62
   250
100
AcDbLine
 10
820.2820583123767
 20
-1626.714324335412
 30
0.0
 11
820.2820583123767
 21
-1617.024401854792
 31
0.0
  0
LINE
  5
AEF7
102
{ACAD_REACTORS
330
AED0
102
}
330
18
100
AcDbEntity
  8
FERRO
 62
   250
100
AcDbLine
 10
820.2820583123767
 20
-1617.024401854792
 30
0.0
 11
824.1270195526865
 21
-1617.024401854792
 31
0.0
  0
LINE
  5
AEF8
330
18
100
AcDbEntity
  8
FERRO
 62
   250
100
AcDbLine
 10
834.2811589152443
 20
-1629.989014488086
 30
0.0
 11
832.3008804730251
 21
-1630.75010921596
 31
0.0
  0
LINE
  5
AEF9
330
18
100
AcDbEntity
  8
FERRO
 62
   250
100
AcDbLine
 10
860.5989516174652
 20
-1681.836901383035
 30
0.0
 11
910.9865485166899
 21
-1681.836901383035
 31
0.0
  0
LINE
  5
AEFA
330
18
100
AcDbEntity
  8
FERRO
 62
   250
100
AcDbLine
 10
862.6144554934342
 20
-1683.852405259004
 30
0.0
 11
908.9710446407211
 21
-1683.852405259004
 31
0.0
  0
LINE
  5
AEFB
330
18
100
AcDbEntity
  8
FERRO
 62
   250
100
AcDbLine
 10
893.233177702333
 20
-1672.565583553577
 30
0.0
 11
910.9865485166899
 21
-1672.565583553577
 31
0.0
  0
LINE
  5
AEFC
330
18
100
AcDbEntity
  8
FERRO
 62
   250
100
AcDbLine
 10
891.6377113073879
 20
-1671.759382003189
 30
0.0
 11
911.7927500670777
 21
-1671.759382003189
 31
0.0
  0
LINE
  5
AEFD
330
18
100
AcDbEntity
  8
FERRO
100
AcDbLine
 10
871.7927500670775
 20
-1628.25938200319
 30
0.0
 11
871.7927500670775
 21
-1669.75938200319
 31
0.0
  0
LINE
  5
AEFE
330
18
100
AcDbEntity
  8
FERRO
100
AcDbLine
 10
899.7927500670776
 20
-1669.75938200319
 30
0.0
 11
899.7927500670776
 21
-1628.25938200319
 31
0.0
  0
LWPOLYLINE
  5
AEFF
330
18
100
AcDbEntity
  8
FERRO
100
AcDbPolyline
 90
        4
 70
     1
 43
0.0
 10
896.7927500670775
 20
-1645.25938200319
 10
896.7927500670775
 20
-1631.25938200319
 10
874.7927500670776
 20
-1631.25938200319
 10
874.7927500670776
 20
-1645.25938200319
  0
LINE
  5
AF00
330
18
100
AcDbEntity
  8
FERRO
100
AcDbLine
 10
874.7927500670776
 20
-1668.25938200319
 30
0.0
 11
896.7927500670775
 21
-1668.25938200319
 31
0.0
  0
LINE
  5
AF01
330
18
100
AcDbEntity
  8
FERRO
100
AcDbLine
 10
874.7927500670776
 20
-1648.25938200319
 30
0.0
 11
896.7927500670775
 21
-1648.25938200319
 31
0.0
  0
LINE
  5
AF02
330
18
100
AcDbEntity
  8
FERRO
100
AcDbLine
 10
883.2927500670777
 20
-1680.526823863655
 30
0.0
 11
878.0427500670775
 21
-1677.75938200319
 31
0.0
  0
LINE
  5
AF03
330
18
100
AcDbEntity
  8
FERRO
 62
   250
100
AcDbLine
 10
859.5989516174652
 20
-1680.836901383035
 30
0.0
 11
859.5989516174654
 21
-1671.565583553577
 31
0.0
  0
LINE
  5
AF04
330
18
100
AcDbEntity
  8
FERRO
 62
   250
100
AcDbLine
 10
879.9477888267677
 20
-1671.759382003189
 30
0.0
 11
873.4875685085301
 21
-1680.526823863655
 31
0.0
  0
LINE
  5
AF05
330
18
100
AcDbEntity
  8
FERRO
 62
   250
100
AcDbLine
 10
878.3523224318223
 20
-1672.565583553577
 30
0.0
 11
872.486145361239
 21
-1680.526823863655
 31
0.0
  0
LINE
  5
AF06
330
18
100
AcDbEntity
  8
FERRO
 62
   250
100
AcDbLine
 10
873.4875685085301
 20
-1680.526823863655
 30
0.0
 11
872.486145361239
 21
-1680.526823863655
 31
0.0
  0
LINE
  5
AF07
330
18
100
AcDbEntity
  8
FERRO
 62
   250
100
AcDbLine
 10
860.5989516174654
 20
-1672.565583553577
 30
0.0
 11
878.3523224318223
 21
-1672.565583553577
 31
0.0
  0
LINE
  5
AF08
330
18
100
AcDbEntity
  8
FERRO
 62
   250
100
AcDbLine
 10
859.7927500670778
 20
-1671.759382003189
 30
0.0
 11
879.9477888267677
 21
-1671.759382003189
 31
0.0
  0
LINE
  5
AF09
102
{ACAD_REACTORS
330
AED0
102
}
330
18
100
AcDbEntity
  8
FERRO
 62
   250
100
AcDbLine
 10
867.9626725476978
 20
-1665.394420762879
 30
0.0
 11
867.9626725476978
 21
-1670.23938200319
 31
0.0
  0
LINE
  5
AF0A
330
18
100
AcDbEntity
  8
FERRO
100
AcDbLine
 10
874.7927500670776
 20
-1648.25938200319
 30
0.0
 11
874.7927500670776
 21
-1668.25938200319
 31
0.0
  0
LINE
  5
AF0B
330
18
100
AcDbEntity
  8
FERRO
100
AcDbLine
 10
873.2927500670776
 20
-1671.25938200319
 30
0.0
 11
880.5427500670775
 21
-1671.25938200319
 31
0.0
  0
LINE
  5
AF0C
330
18
100
AcDbEntity
  8
FERRO
100
AcDbLine
 10
878.0427500670775
 20
-1677.75938200319
 30
0.0
 11
880.5427500670775
 21
-1678.25938200319
 31
0.0
  0
LINE
  5
AF0D
330
18
100
AcDbEntity
  8
FERRO
100
AcDbLine
 10
880.5427500670775
 20
-1671.25938200319
 30
0.0
 11
880.5427500670775
 21
-1678.25938200319
 31
0.0
  0
LINE
  5
AF0E
330
18
100
AcDbEntity
  8
FERRO
100
AcDbLine
 10
870.7927500670775
 20
-1671.759382003189
 30
0.0
 11
871.7927500670775
 21
-1669.75938200319
 31
0.0
  0
LINE
  5
AF0F
330
18
100
AcDbEntity
  8
FERRO
100
AcDbLine
 10
873.2927500670776
 20
-1671.25938200319
 30
0.0
 11
870.7927500670775
 21
-1671.759382003189
 31
0.0
  0
LINE
  5
AF10
330
18
100
AcDbEntity
  8
FERRO
100
AcDbLine
 10
888.2927500670778
 20
-1680.526823863655
 30
0.0
 11
893.5427500670776
 21
-1677.75938200319
 31
0.0
  0
LINE
  5
AF11
330
18
100
AcDbEntity
  8
FERRO
 62
   250
100
AcDbLine
 10
891.6377113073879
 20
-1671.759382003189
 30
0.0
 11
898.0979316256252
 21
-1680.526823863655
 31
0.0
  0
LINE
  5
AF12
330
18
100
AcDbEntity
  8
FERRO
 62
   250
100
AcDbLine
 10
893.233177702333
 20
-1672.565583553577
 30
0.0
 11
899.0993547729164
 21
-1680.526823863655
 31
0.0
  0
ARC
  5
AF13
330
18
100
AcDbEntity
  8
FERRO
100
AcDbCircle
 10
885.7927500670774
 20
-1692.113163463971
 30
0.0
 40
11.85298550298028
100
AcDbArc
 50
77.82388473721666
 51
102.1761152627833
  0
LINE
  5
AF14
330
18
100
AcDbEntity
  8
FERRO
 62
   250
100
AcDbLine
 10
898.0979316256252
 20
-1680.526823863655
 30
0.0
 11
899.0993547729164
 21
-1680.526823863655
 31
0.0
  0
LINE
  5
AF15
330
18
100
AcDbEntity
  8
FERRO
100
AcDbLine
 10
898.2927500670776
 20
-1671.25938200319
 30
0.0
 11
891.0427500670776
 21
-1671.25938200319
 31
0.0
  0
LINE
  5
AF16
330
18
100
AcDbEntity
  8
FERRO
100
AcDbLine
 10
893.5427500670776
 20
-1677.75938200319
 30
0.0
 11
891.0427500670776
 21
-1678.25938200319
 31
0.0
  0
ARC
  5
AF17
330
18
100
AcDbEntity
  8
FERRO
100
AcDbCircle
 10
885.7927500670777
 20
-1673.790632003189
 30
0.0
 40
3.03125000000001
100
AcDbArc
 50
42.07502205083786
 51
137.9249779491621
  0
LINE
  5
AF18
330
18
100
AcDbEntity
  8
FERRO
100
AcDbLine
 10
888.0427500670775
 20
-1671.759382003189
 30
0.0
 11
888.0427500670775
 21
-1677.25938200319
 31
0.0
  0
LINE
  5
AF19
330
18
100
AcDbEntity
  8
FERRO
100
AcDbLine
 10
883.5427500670775
 20
-1677.25938200319
 30
0.0
 11
888.0427500670775
 21
-1677.25938200319
 31
0.0
  0
LINE
  5
AF1A
330
18
100
AcDbEntity
  8
FERRO
100
AcDbLine
 10
883.5427500670775
 20
-1671.759382003189
 30
0.0
 11
883.5427500670775
 21
-1677.25938200319
 31
0.0
  0
LINE
  5
AF1B
330
18
100
AcDbEntity
  8
FERRO
100
AcDbLine
 10
891.0427500670776
 20
-1678.25938200319
 30
0.0
 11
891.0427500670776
 21
-1671.25938200319
 31
0.0
  0
LINE
  5
AF1C
330
18
100
AcDbEntity
  8
FERRO
100
AcDbLine
 10
896.7927500670775
 20
-1648.25938200319
 30
0.0
 11
896.7927500670775
 21
-1668.25938200319
 31
0.0
  0
LINE
  5
AF1D
330
18
100
AcDbEntity
  8
FERRO
100
AcDbLine
 10
900.7927500670776
 20
-1671.759382003189
 30
0.0
 11
899.7927500670776
 21
-1669.75938200319
 31
0.0
  0
LINE
  5
AF1E
330
18
100
AcDbEntity
  8
FERRO
100
AcDbLine
 10
898.2927500670776
 20
-1671.25938200319
 30
0.0
 11
900.7927500670776
 21
-1671.759382003189
 31
0.0
  0
LINE
  5
AF1F
330
18
100
AcDbEntity
  8
FERRO
100
AcDbLine
 10
897.7927500670775
 20
-1628.25938200319
 30
0.0
 11
874.7927500670776
 21
-1628.25938200319
 31
0.0
  0
LINE
  5
AF20
330
18
100
AcDbEntity
  8
FERRO
100
AcDbLine
 10
880.2624199811875
 20
-1615.7290519173
 30
0.0
 11
879.7320898952978
 21
-1615.19872183141
 31
0.0
  0
LWPOLYLINE
  5
AF21
330
18
100
AcDbEntity
  8
FERRO
100
AcDbPolyline
 90
        3
 70
     0
 43
0.0
 10
874.7927500670776
 20
-1628.25938200319
 10
874.7927500670776
 20
-1622.259382003189
 10
880.2624199811875
 20
-1615.7290519173
  0
LWPOLYLINE
  5
AF22
330
18
100
AcDbEntity
  8
FERRO
100
AcDbPolyline
 90
        3
 70
     0
 43
0.0
 10
871.7927500670775
 20
-1628.25938200319
 10
871.7927500670775
 20
-1621.01674131607
 10
879.7320898952978
 20
-1615.19872183141
  0
LINE
  5
AF23
330
18
100
AcDbEntity
  8
FERRO
100
AcDbLine
 10
897.7927500670775
 20
-1628.25938200319
 30
0.0
 11
899.7927500670776
 21
-1623.25938200319
 31
0.0
  0
LINE
  5
AF24
330
18
100
AcDbEntity
  8
FERRO
100
AcDbLine
 10
899.7927500670776
 20
-1628.25938200319
 30
0.0
 11
899.7927500670776
 21
-1623.25938200319
 31
0.0
  0
LINE
  5
AF25
330
18
100
AcDbEntity
  8
FERRO
 62
   250
100
AcDbLine
 10
910.9865485166899
 20
-1681.836901383035
 30
0.0
 11
910.9865485166899
 21
-1672.565583553577
 31
0.0
  0
HATCH
  5
AF26
330
18
100
AcDbEntity
  8
AREA166
 62
   250
100
AcDbHatch
 10
0.0
 20
0.0
 30
0.0
210
0.0
220
0.0
230
1.0
  2
SOLID
 70
     1
 71
     0
 91
        2
 92
        7
 72
     0
 73
     1
 93
        4
 10
1006.986502219522
 20
-1680.123986609227
 10
956.598905320297
 20
-1680.123986609227
 10
956.598905320297
 20
-1730.506034037484
 10
1006.986502219522
 20
-1730.506034037484
 97
        0
 92
       22
 72
     0
 73
     1
 93
        4
 10
958.6144091962658
 20
-1682.139490485195
 10
1004.970998343553
 20
-1682.139490485195
 10
1004.970998343552
 20
-1728.358597479035
 10
958.6144091962658
 20
-1728.358597479034
 97
        0
 75
     0
 76
     1
 47
0.2932133146534028
 98
        2
 10
957.5160831118639
 20
-1693.423382925444
 10
957.5160831118639
 20
-1693.423382925444
  0
LINE
  5
AF27
102
{ACAD_REACTORS
330
AF64
102
}
330
18
100
AcDbEntity
  8
FERRO
 62
   250
100
AcDbLine
 10
956.5989053202967
 20
-1781.14168928921
 30
0.0
 11
956.598905320297
 21
-1680.123986609227
 31
0.0
  0
LINE
  5
AF28
330
18
100
AcDbEntity
  8
FERRO
 62
   250
100
AcDbLine
 10
955.7927037699094
 20
-1670.046467229382
 30
0.0
 11
955.7927037699094
 21
-1780.899180407676
 31
0.0
  0
LINE
  5
AF29
330
18
100
AcDbEntity
  8
FERRO
 62
   250
100
AcDbLine
 10
958.6144091962658
 20
-1728.496079632482
 30
0.0
 11
958.6144091962658
 21
-1682.139490485196
 31
0.0
  0
LINE
  5
AF2A
330
18
100
AcDbEntity
  8
FERRO
 62
   250
100
AcDbLine
 10
1007.792703769909
 20
-1780.899180407676
 30
0.0
 11
1007.792703769909
 21
-1670.046467229382
 31
0.0
  0
LINE
  5
AF2B
102
{ACAD_REACTORS
330
AF64
102
}
330
18
100
AcDbEntity
  8
FERRO
 62
   250
100
AcDbLine
 10
1006.986502219522
 20
-1781.141689289237
 30
0.0
 11
1006.986502219522
 21
-1680.123986609227
 31
0.0
  0
LINE
  5
AF2C
330
18
100
AcDbEntity
  8
FERRO
 62
   250
100
AcDbLine
 10
1004.970998343553
 20
-1728.496079632482
 30
0.0
 11
1004.970998343553
 21
-1682.139490485196
 31
0.0
  0
MTEXT
  5
AF2D
102
{ACAD_REACTORS
330
AF2E
102
}
330
18
100
AcDbEntity
  8
QUOTE
100
AcDbMText
 10
1045.089434004451
 20
-1824.593737638059
 30
0.0
 40
7.5
 41
0.0
 71
     7
 72
     1
  1
MATERIALE INTERNO\PCOIBENTE Sp.50mm.
 73
     1
 44
1.0
1001
ACAD
1000
MTEXTBEGIN
1070
    73
1070
     1
1070
    44
1040
1.0
1070
    74
1070
     0
1000
MTEXTEND
  0
LEADER
  5
AF2E
330
18
100
AcDbEntity
  8
QUOTE
100
AcDbLeader
  3
STANDARD_WS
 73
     0
 74
     0
 40
22.5
 41
120.0
 76
     2
 10
991.9693621438302
 20
-1838.328676269083
 30
0.0
 10
1042.089434004451
 20
-1827.134005113921
 30
0.0
340
AF2D
210
0.0
220
0.0
230
-1.0
213
0.0
223
-5.540267475861583
233
0.0
1001
ACAD
1000
DSTYLE
1002
{
1070
    40
1040
3.0
1070
    41
1040
1.0
1070
    42
1040
1.5
1070
    43
1040
10.0
1070
    44
1040
0.0
1070
    79
1070
     2
1070
   141
1040
2.0
1070
   147
1040
1.0
1070
   176
1070
   256
1070
   177
1070
   256
1070
   178
1070
   256
1070
   179
1070
     1
1070
   271
1070
     1
1070
   272
1070
     1
1070
   341
1005
A96C
1070
   342
1005
A96C
1002
}
  0
HATCH
  5
AF2F
330
18
100
AcDbEntity
  8
AREA166
 62
   250
100
AcDbHatch
 10
0.0
 20
0.0
 30
0.0
210
0.0
220
0.0
230
1.0
  2
SOLID
 70
     1
 71
     0
 91
        2
 92
        7
 72
     0
 73
     1
 93
        4
 10
1006.986502219522
 20
-1865.457395591806
 10
956.598905320297
 20
-1865.457395591806
 10
956.5989053202967
 20
-1915.839443020063
 10
1006.986502219521
 20
-1915.839443020063
 97
        0
 92
       22
 72
     0
 73
     1
 93
        4
 10
958.6144091962658
 20
-1867.467349996807
 10
1004.970998343552
 20
-1867.467349996808
 10
1004.970998343553
 20
-1913.823939144094
 10
958.6144091962658
 20
-1913.823939144094
 97
        0
 75
     0
 76
     1
 47
0.3426058585364969
 98
        2
 10
957.9979045737443
 20
-1902.300025114755
 10
957.9979045737443
 20
-1902.300025114755
  0
LINE
  5
AF30
330
18
100
AcDbEntity
  8
FERRO
 62
   250
100
AcDbLine
 10
954.7927037699095
 20
-1926.916962399908
 30
0.0
 11
954.7927037699095
 21
-1876.733384715232
 31
0.0
  0
LINE
  5
AF31
330
18
100
AcDbEntity
  8
FERRO
 62
   250
100
AcDbLine
 10
958.6144091962658
 20
-1867.467349996807
 30
0.0
 11
958.6144091962658
 21
-1913.823939144094
 31
0.0
  0
LINE
  5
AF32
330
18
100
AcDbEntity
  8
FERRO
 62
   250
100
AcDbLine
 10
1004.970998343553
 20
-1867.467349996807
 30
0.0
 11
1004.970998343553
 21
-1913.823939144094
 31
0.0
  0
LINE
  5
AF33
330
18
100
AcDbEntity
  8
FERRO
 62
   250
100
AcDbLine
 10
955.7927037699094
 20
-1925.916962399908
 30
0.0
 11
955.7927037699094
 21
-1815.064249221613
 31
0.0
  0
LINE
  5
AF34
102
{ACAD_REACTORS
330
AF61
102
}
330
18
100
AcDbEntity
  8
FERRO
 62
   250
100
AcDbLine
 10
956.5989053202967
 20
-1814.821740340052
 30
0.0
 11
956.598905320297
 21
-1915.839443020063
 31
0.0
  0
LINE
  5
AF35
102
{ACAD_REACTORS
330
AF61
102
}
330
18
100
AcDbEntity
  8
FERRO
 62
   250
100
AcDbLine
 10
1006.986502219522
 20
-1814.821740340052
 30
0.0
 11
1006.986502219522
 21
-1915.839443020063
 31
0.0
  0
LINE
  5
AF36
330
18
100
AcDbEntity
  8
FERRO
 62
   250
100
AcDbLine
 10
1007.792703769909
 20
-1815.064249221613
 30
0.0
 11
1007.792703769909
 21
-1925.916962399908
 31
0.0
  0
LINE
  5
AF37
330
18
100
AcDbEntity
  8
FERRO
100
AcDbLine
 10
993.7927037699092
 20
-1946.416962399908
 30
0.0
 11
995.7927037699091
 21
-1951.416962399908
 31
0.0
  0
LINE
  5
AF38
330
18
100
AcDbEntity
  8
FERRO
100
AcDbLine
 10
994.2927037699091
 20
-1926.416962399908
 30
0.0
 11
996.7927037699091
 21
-1925.916962399908
 31
0.0
  0
LINE
  5
AF39
330
18
100
AcDbEntity
  8
FERRO
 62
   250
100
AcDbLine
 10
956.598905320297
 20
-1915.839443020063
 30
0.0
 11
1006.986502219522
 21
-1915.839443020063
 31
0.0
  0
LINE
  5
AF3A
330
18
100
AcDbEntity
  8
FERRO
 62
   250
100
AcDbLine
 10
958.6144091962658
 20
-1913.823939144094
 30
0.0
 11
1004.970998343553
 21
-1913.823939144094
 31
0.0
  0
LINE
  5
AF3B
330
18
100
AcDbEntity
  8
FERRO
 62
   250
100
AcDbLine
 10
989.2331314051649
 20
-1925.11076084952
 30
0.0
 11
1006.986502219522
 21
-1925.11076084952
 31
0.0
  0
LINE
  5
AF3C
330
18
100
AcDbEntity
  8
FERRO
 62
   250
100
AcDbLine
 10
987.6376650102194
 20
-1925.916962399908
 30
0.0
 11
1007.792703769909
 21
-1925.916962399908
 31
0.0
  0
LINE
  5
AF3D
330
18
100
AcDbEntity
  8
FERRO
100
AcDbLine
 10
969.2927037699091
 20
-1926.416962399908
 30
0.0
 11
976.5427037699092
 21
-1926.416962399908
 31
0.0
  0
LWPOLYLINE
  5
AF3E
330
18
100
AcDbEntity
  8
FERRO
100
AcDbPolyline
 90
        3
 70
     0
 43
0.0
 10
970.7927037699091
 20
-1946.416962399908
 10
970.7927037699091
 20
-1952.416962399908
 10
976.2623736840192
 20
-1958.947292485798
  0
LWPOLYLINE
  5
AF3F
330
18
100
AcDbEntity
  8
FERRO
100
AcDbPolyline
 90
        3
 70
     0
 43
0.0
 10
967.7927037699092
 20
-1946.416962399908
 10
967.7927037699092
 20
-1953.659603087027
 10
975.7320435981293
 20
-1959.477622571688
  0
LINE
  5
AF40
330
18
100
AcDbEntity
  8
FERRO
100
AcDbLine
 10
993.7927037699092
 20
-1946.416962399908
 30
0.0
 11
970.7927037699091
 21
-1946.416962399908
 31
0.0
  0
LWPOLYLINE
  5
AF41
330
18
100
AcDbEntity
  8
FERRO
100
AcDbPolyline
 90
        4
 70
     1
 43
0.0
 10
992.7927037699092
 20
-1929.416962399908
 10
992.7927037699092
 20
-1943.416962399908
 10
970.7927037699091
 20
-1943.416962399908
 10
970.7927037699091
 20
-1929.416962399908
  0
LINE
  5
AF42
330
18
100
AcDbEntity
  8
FERRO
 62
   250
100
AcDbLine
 10
956.5989053202972
 20
-1925.11076084952
 30
0.0
 11
974.3522761346541
 21
-1925.11076084952
 31
0.0
  0
LINE
  5
AF43
330
18
100
AcDbEntity
  8
FERRO
 62
   250
100
AcDbLine
 10
955.7927037699094
 20
-1925.916962399908
 30
0.0
 11
975.9477425295992
 21
-1925.916962399908
 31
0.0
  0
LINE
  5
AF44
330
18
100
AcDbEntity
  8
FERRO
 62
   250
100
AcDbLine
 10
975.9477425295992
 20
-1925.916962399908
 30
0.0
 11
969.4875222113619
 21
-1917.149520539443
 31
0.0
  0
LINE
  5
AF45
330
18
100
AcDbEntity
  8
FERRO
 62
   250
100
AcDbLine
 10
974.3522761346541
 20
-1925.11076084952
 30
0.0
 11
968.4860990640707
 21
-1917.149520539443
 31
0.0
  0
LINE
  5
AF46
330
18
100
AcDbEntity
  8
FERRO
100
AcDbLine
 10
965.3702231497545
 20
-1926.916962399908
 30
0.0
 11
954.7927037699095
 21
-1926.916962399908
 31
0.0
  0
LINE
  5
AF47
330
18
100
AcDbEntity
  8
FERRO
 62
   250
100
AcDbLine
 10
956.598905320297
 20
-1915.839443020063
 30
0.0
 11
956.5989053202972
 21
-1925.11076084952
 31
0.0
  0
LINE
  5
AF48
330
18
100
AcDbEntity
  8
FERRO
100
AcDbLine
 10
966.7927037699092
 20
-1925.916962399908
 30
0.0
 11
967.7927037699092
 21
-1927.916962399908
 31
0.0
  0
LINE
  5
AF49
330
18
100
AcDbEntity
  8
FERRO
100
AcDbLine
 10
969.2927037699091
 20
-1926.416962399908
 30
0.0
 11
966.7927037699092
 21
-1925.916962399908
 31
0.0
  0
LINE
  5
AF4A
330
18
100
AcDbEntity
  8
FERRO
100
AcDbLine
 10
967.7927037699092
 20
-1946.416962399908
 30
0.0
 11
967.7927037699092
 21
-1927.916962399908
 31
0.0
  0
LINE
  5
AF4B
330
18
100
AcDbEntity
  8
FERRO
 62
   250
100
AcDbLine
 10
965.3702231497545
 20
-1932.159741304379
 30
0.0
 11
965.3702231497545
 21
-1926.916962399908
 31
0.0
  0
LINE
  5
AF4C
330
18
100
AcDbEntity
  8
FERRO
 62
   250
100
AcDbLine
 10
969.4875222113619
 20
-1917.149520539443
 30
0.0
 11
968.4860990640707
 21
-1917.149520539443
 31
0.0
  0
LINE
  5
AF4D
330
18
100
AcDbEntity
  8
FERRO
100
AcDbLine
 10
976.2623736840192
 20
-1958.947292485798
 30
0.0
 11
975.7320435981293
 21
-1959.477622571688
 31
0.0
  0
LINE
  5
AF4E
330
18
100
AcDbEntity
  8
FERRO
100
AcDbLine
 10
984.2927037699098
 20
-1917.149520539443
 30
0.0
 11
989.5427037699091
 21
-1919.916962399908
 31
0.0
  0
LINE
  5
AF4F
330
18
100
AcDbEntity
  8
FERRO
100
AcDbLine
 10
976.5427037699092
 20
-1926.416962399908
 30
0.0
 11
976.5427037699092
 21
-1919.416962399908
 31
0.0
  0
LINE
  5
AF50
330
18
100
AcDbEntity
  8
FERRO
100
AcDbLine
 10
979.5427037699091
 20
-1925.916962399908
 30
0.0
 11
979.5427037699091
 21
-1920.416962399908
 31
0.0
  0
LINE
  5
AF51
330
18
100
AcDbEntity
  8
FERRO
100
AcDbLine
 10
984.0427037699091
 20
-1925.916962399908
 30
0.0
 11
984.0427037699091
 21
-1920.416962399908
 31
0.0
  0
ARC
  5
AF52
330
18
100
AcDbEntity
  8
FERRO
100
AcDbCircle
 10
981.7927037699094
 20
-1923.885712399908
 30
0.0
 40
3.03125000000001
100
AcDbArc
 50
222.0750220508378
 51
317.9249779491621
  0
LINE
  5
AF53
330
18
100
AcDbEntity
  8
FERRO
100
AcDbLine
 10
979.5427037699091
 20
-1920.416962399908
 30
0.0
 11
984.0427037699091
 21
-1920.416962399908
 31
0.0
  0
ARC
  5
AF54
330
18
100
AcDbEntity
  8
FERRO
100
AcDbCircle
 10
981.7927037699096
 20
-1905.563180939113
 30
0.0
 40
11.85298550299351
100
AcDbArc
 50
257.8238847372294
 51
282.1761152627706
  0
LINE
  5
AF55
330
18
100
AcDbEntity
  8
FERRO
100
AcDbLine
 10
979.2927037699092
 20
-1917.149520539443
 30
0.0
 11
974.0427037699092
 21
-1919.916962399908
 31
0.0
  0
LINE
  5
AF56
330
18
100
AcDbEntity
  8
FERRO
100
AcDbLine
 10
974.0427037699092
 20
-1919.916962399908
 30
0.0
 11
976.5427037699092
 21
-1919.416962399908
 31
0.0
  0
LINE
  5
AF57
330
18
100
AcDbEntity
  8
FERRO
100
AcDbLine
 10
987.0427037699091
 20
-1919.416962399908
 30
0.0
 11
987.0427037699091
 21
-1926.416962399908
 31
0.0
  0
LINE
  5
AF58
330
18
100
AcDbEntity
  8
FERRO
100
AcDbLine
 10
994.2927037699091
 20
-1926.416962399908
 30
0.0
 11
987.0427037699091
 21
-1926.416962399908
 31
0.0
  0
LINE
  5
AF59
330
18
100
AcDbEntity
  8
FERRO
100
AcDbLine
 10
989.5427037699091
 20
-1919.916962399908
 30
0.0
 11
987.0427037699091
 21
-1919.416962399908
 31
0.0
  0
LINE
  5
AF5A
330
18
100
AcDbEntity
  8
FERRO
 62
   250
100
AcDbLine
 10
987.6376650102194
 20
-1925.916962399908
 30
0.0
 11
994.0978853284571
 21
-1917.149520539443
 31
0.0
  0
LINE
  5
AF5B
330
18
100
AcDbEntity
  8
FERRO
 62
   250
100
AcDbLine
 10
989.2331314051649
 20
-1925.11076084952
 30
0.0
 11
995.0993084757479
 21
-1917.149520539443
 31
0.0
  0
LINE
  5
AF5C
330
18
100
AcDbEntity
  8
FERRO
 62
   250
100
AcDbLine
 10
994.0978853284571
 20
-1917.149520539443
 30
0.0
 11
995.0993084757479
 21
-1917.149520539443
 31
0.0
  0
LINE
  5
AF5D
330
18
100
AcDbEntity
  8
FERRO
 62
   250
100
AcDbLine
 10
1006.986502219522
 20
-1915.839443020063
 30
0.0
 11
1006.986502219522
 21
-1925.11076084952
 31
0.0
  0
LINE
  5
AF5E
330
18
100
AcDbEntity
  8
FERRO
100
AcDbLine
 10
995.7927037699091
 20
-1946.416962399908
 30
0.0
 11
995.7927037699091
 21
-1951.416962399908
 31
0.0
  0
LINE
  5
AF5F
330
18
100
AcDbEntity
  8
FERRO
100
AcDbLine
 10
995.7927037699091
 20
-1927.916962399908
 30
0.0
 11
995.7927037699091
 21
-1946.416962399908
 31
0.0
  0
LINE
  5
AF60
330
18
100
AcDbEntity
  8
FERRO
100
AcDbLine
 10
996.7927037699091
 20
-1925.916962399908
 30
0.0
 11
995.7927037699091
 21
-1927.916962399908
 31
0.0
  0
HATCH
  5
AF61
330
18
100
AcDbEntity
  8
AREA166
 62
   166
100
AcDbHatch
 10
0.0
 20
0.0
 30
0.0
210
0.0
220
0.0
230
1.0
  2
HONEY
 70
     0
 71
     1
 91
        1
 92
        5
 93
        5
 72
     1
 10
956.5989053202969
 20
-1865.457395591806
 11
1006.986502219522
 21
-1865.457395591806
 72
     1
 10
1006.986502219522
 20
-1865.457395591806
 11
1006.986502219522
 21
-1814.821740340052
 72
     4
 94
        3
 73
     0
 74
     0
 95
       12
 96
        8
 40
0.841885679580578
 40
0.8418856795808835
 40
0.8418856795808835
 40
0.8418856795808835
 40
7.982079928829669
 40
18.99429133354001
 40
30.43312192197494
 40
42.04176826085944
 40
52.7098890510601
 40
52.7098890510604
 40
52.7098890510604
 40
52.7098890510604
 10
1006.986502219521
 20
-1814.821740340052
 10
1004.72375902946
 20
-1814.08930019387
 10
999.5029388668248
 20
-1810.711922434453
 10
989.0335846817588
 20
-1811.110207595663
 10
978.4584431850104
 20
-1817.169469888654
 10
967.3670994211036
 20
-1810.983062551937
 10
960.0101108984576
 20
-1813.781619822487
 10
956.5989053202967
 20
-1814.821740340052
 72
     4
 94
        3
 73
     0
 74
     0
 95
        8
 96
        4
 40
0.0
 40
0.0000000000002981
 40
0.0000000000002981
 40
0.0000000000002981
 40
0.8418856795808784
 40
0.8418856795808784
 40
0.8418856795808784
 40
0.8418856795808784
 10
956.5989053202967
 20
-1814.821740340052
 10
956.3297065379773
 20
-1814.903822516098
 10
956.0612051539434
 20
-1814.984035868856
 10
955.7927037699096
 20
-1815.064249221614
 72
     1
 10
956.5989053202969
 20
-1814.822985430014
 11
956.5989053202969
 21
-1865.457395591806
 97
        4
330
AE68
330
AF34
330
AF63
330
AF35
 75
     0
 76
     1
 52
0.0
 41
1.455999999999999
 77
     0
 78
     3
 53
0.0
 43
-55.58520325293421
 44
95.19951872254273
 45
6.934199999999999
 46
4.003461279999999
 79
     2
 49
4.622799999999999
 49
-9.245599999999999
 53
120.0
 43
-55.58520325293421
 44
95.19951872254273
 45
-6.934199171547365
 46
4.003462714922056
 79
     2
 49
4.622799999999977
 49
-9.245599999999955
 53
60.0
 43
-55.58520325293421
 44
95.19951872254273
 45
0.0000008284526355
 46
8.006923994922052
 79
     2
 49
-9.245599999999999
 49
4.622799999999999
 47
0.4674590473530481
 98
        1
 10
974.3945083663392
 20
-1840.173351151261
  0
LINE
  5
AF62
330
18
100
AcDbEntity
  8
FERRO
 62
   250
100
AcDbLine
 10
958.6144091962658
 20
-1867.467349996807
 30
0.0
 11
1004.970998343553
 21
-1867.467349996807
 31
0.0
  0
LINE
  5
AF63
102
{ACAD_REACTORS
330
AF61
102
}
330
18
100
AcDbEntity
  8
FERRO
 62
   250
100
AcDbLine
 10
956.598905320297
 20
-1865.457395591806
 30
0.0
 11
1006.986502219522
 21
-1865.457395591806
 31
0.0
  0
HATCH
  5
AF64
330
18
100
AcDbEntity
  8
AREA166
 62
   166
100
AcDbHatch
 10
0.0
 20
0.0
 30
0.0
210
0.0
220
0.0
230
1.0
  2
HONEY
 70
     0
 71
     1
 91
        1
 92
        5
 93
        4
 72
     4
 94
        3
 73
     0
 74
     0
 95
       12
 96
        8
 40
0.841885679580551
 40
0.8418856795806032
 40
0.8418856795806032
 40
0.8418856795806032
 40
12.45413535531984
 40
27.15457310255352
 40
35.5907967385696
 40
44.29605862002392
 40
53.6922019811449
 40
53.69220198114494
 40
53.69220198114494
 40
53.69220198114494
 10
956.5989053202972
 20
-1781.141689289237
 10
960.3059798533195
 20
-1782.30720295188
 10
968.7242841200307
 20
-1787.316985535902
 10
979.7188386927585
 20
-1778.746142103906
 10
990.2256342686484
 20
-1781.671015090048
 10
998.6616735706196
 20
-1786.894644832704
 10
1004.000072921184
 20
-1782.132373495567
 10
1006.986502219521
 20
-1781.141689289237
 72
     1
 10
1006.986502219522
 20
-1781.141689289237
 11
1006.986502219521
 21
-1730.506034037484
 72
     1
 10
1006.986502219521
 20
-1730.506034037484
 11
956.598905320297
 21
-1730.506034037484
 72
     1
 10
956.598905320297
 20
-1730.506034037484
 11
956.5989053202967
 21
-1781.141689289237
 97
        4
330
AF66
330
AF27
330
AE6A
330
AF2B
 75
     0
 76
     1
 52
0.0
 41
1.455999999999999
 77
     0
 78
     3
 53
0.0
 43
-55.58520325293421
 44
95.19951872254182
 45
6.934199999999999
 46
4.003461279999999
 79
     2
 49
4.622799999999999
 49
-9.245599999999999
 53
120.0
 43
-55.58520325293421
 44
95.19951872254182
 45
-6.934199171547365
 46
4.003462714922056
 79
     2
 49
4.622799999999984
 49
-9.245599999999969
 53
60.0
 43
-55.58520325293421
 44
95.19951872254182
 45
0.0000008284526355
 46
8.006923994922052
 79
     2
 49
-9.245599999999999
 49
4.622799999999999
 47
0.4674590473530481
 98
        1
 10
983.1519111247539
 20
-1762.388159985228
  0
LINE
  5
AF65
330
18
100
AcDbEntity
  8
FERRO
 62
   250
100
AcDbLine
 10
958.6144091962658
 20
-1728.358597479035
 30
0.0
 11
1004.970998343553
 21
-1728.358597479035
 31
0.0
  0
LINE
  5
AF66
102
{ACAD_REACTORS
330
AF64
102
}
330
18
100
AcDbEntity
  8
FERRO
 62
   250
100
AcDbLine
 10
956.598905320297
 20
-1730.506034037484
 30
0.0
 11
1006.986502219522
 21
-1730.506034037484
 31
0.0
  0
LINE
  5
AF67
330
18
100
AcDbEntity
  8
FERRO
 62
   250
100
AcDbLine
 10
951.2616960179714
 20
-1906.936555720163
 30
0.0
 11
954.7927037699095
 21
-1906.936555720163
 31
0.0
  0
LINE
  5
AF68
330
18
100
AcDbEntity
  8
FERRO
 62
   250
100
AcDbLine
 10
951.2616960179714
 20
-1908.44818362714
 30
0.0
 11
951.2616960179714
 21
-1906.936555720163
 31
0.0
  0
LINE
  5
AF69
330
18
100
AcDbEntity
  8
FERRO
 62
   250
100
AcDbLine
 10
951.2616960179714
 20
-1896.355160371326
 30
0.0
 11
954.7927037699095
 21
-1896.355160371326
 31
0.0
  0
LINE
  5
AF6A
330
18
100
AcDbEntity
  8
FERRO
 62
   250
100
AcDbLine
 10
951.2616960179714
 20
-1896.355160371326
 30
0.0
 11
951.2616960179714
 21
-1894.843532464349
 31
0.0
  0
LINE
  5
AF6B
330
18
100
AcDbEntity
  8
FERRO
 62
   250
100
AcDbLine
 10
952.2694479559561
 20
-1876.733384715232
 30
0.0
 11
954.7927037699095
 21
-1876.733384715232
 31
0.0
  0
MTEXT
  5
AF6C
330
18
100
AcDbEntity
  8
QUOTE
100
AcDbMText
 10
999.4223700433662
 20
-1595.852654079504
 30
0.0
 40
5.0
 41
0.0
 71
     7
 72
     1
  1
 {\H1.5x;in caso di incontro\Pcon anta di battuta }
 73
     1
 44
1.0
1001
ACAD
1000
MTEXTBEGIN
1070
    73
1070
     1
1070
    44
1040
1.0
1070
    74
1070
     0
1000
MTEXTEND
  0
LINE
  5
AF6D
330
18
100
AcDbEntity
  8
FERRO
100
AcDbLine
 10
999.9430619043486
 20
-1607.110571746327
 30
0.0
 11
988.4430619043486
 21
-1607.110571746327
 31
0.0
  0
LINE
  5
AF6E
330
18
100
AcDbEntity
  8
FERRO
100
AcDbLine
 10
1001.443061904349
 20
-1602.610571746327
 30
0.0
 11
990.7816892233785
 21
-1602.610571746327
 31
0.0
  0
LINE
  5
AF6F
330
18
100
AcDbEntity
  8
FERRO
 62
   250
100
AcDbLine
 10
958.6144091962658
 20
-1682.139490485195
 30
0.0
 11
1004.970998343553
 21
-1682.139490485196
 31
0.0
  0
LINE
  5
AF70
330
18
100
AcDbEntity
  8
FERRO
 62
   250
100
AcDbLine
 10
956.598905320297
 20
-1680.123986609227
 30
0.0
 11
1006.986502219522
 21
-1680.123986609227
 31
0.0
  0
LINE
  5
AF71
330
18
100
AcDbEntity
  8
FERRO
 62
   250
100
AcDbLine
 10
987.9205351764928
 20
-1670.046467229381
 30
0.0
 11
1007.792703769909
 21
-1670.046467229381
 31
0.0
  0
LINE
  5
AF72
330
18
100
AcDbEntity
  8
FERRO
 62
   250
100
AcDbLine
 10
989.5160015714381
 20
-1670.852668779769
 30
0.0
 11
1006.986502219522
 21
-1670.852668779769
 31
0.0
  0
LINE
  5
AF73
330
18
100
AcDbEntity
  8
FERRO
100
AcDbLine
 10
994.03688990417
 20
-1649.546467229381
 30
0.0
 11
996.03688990417
 21
-1644.546467229381
 31
0.0
  0
LINE
  5
AF74
330
18
100
AcDbEntity
  8
FERRO
100
AcDbLine
 10
994.5368899041699
 20
-1669.546467229381
 30
0.0
 11
997.03688990417
 21
-1670.046467229381
 31
0.0
  0
LINE
  5
AF75
330
18
100
AcDbEntity
  8
QUOTE
  6
Continuous
100
AcDbLine
 10
982.0368899041699
 20
-1644.84729054002
 30
0.0
 11
982.0368899041699
 21
-1625.890989704475
 31
0.0
  0
LINE
  5
AF76
330
18
100
AcDbEntity
  8
FERRO
 62
   250
100
AcDbLine
 10
955.7927037699094
 20
-1670.046467229382
 30
0.0
 11
976.2306126958726
 21
-1670.046467229381
 31
0.0
  0
LINE
  5
AF77
330
18
100
AcDbEntity
  8
FERRO
 62
   250
100
AcDbLine
 10
956.5989053202972
 20
-1670.852668779769
 30
0.0
 11
974.6351463009276
 21
-1670.852668779769
 31
0.0
  0
LWPOLYLINE
  5
AF78
330
18
100
AcDbEntity
  8
FERRO
100
AcDbPolyline
 90
        4
 70
     1
 43
0.0
 10
993.0368899041701
 20
-1666.546467229381
 10
993.0368899041701
 20
-1652.546467229381
 10
971.03688990417
 20
-1652.546467229381
 10
971.03688990417
 20
-1666.546467229381
  0
LINE
  5
AF79
330
18
100
AcDbEntity
  8
FERRO
100
AcDbLine
 10
994.03688990417
 20
-1649.546467229381
 30
0.0
 11
971.03688990417
 21
-1649.546467229381
 31
0.0
  0
LWPOLYLINE
  5
AF7A
330
18
100
AcDbEntity
  8
FERRO
100
AcDbPolyline
 90
        3
 70
     0
 43
0.0
 10
968.0368899041701
 20
-1649.546467229381
 10
968.0368899041701
 20
-1642.303826542262
 10
975.9762297323902
 20
-1636.485807057601
  0
LWPOLYLINE
  5
AF7B
330
18
100
AcDbEntity
  8
FERRO
100
AcDbPolyline
 90
        3
 70
     0
 43
0.0
 10
971.03688990417
 20
-1649.546467229381
 10
971.03688990417
 20
-1643.546467229381
 10
976.50655981828
 20
-1637.016137143491
  0
LINE
  5
AF7C
330
18
100
AcDbEntity
  8
FERRO
100
AcDbLine
 10
969.5368899041699
 20
-1669.546467229381
 30
0.0
 11
976.7868899041699
 21
-1669.546467229381
 31
0.0
  0
LINE
  5
AF7D
330
18
100
AcDbEntity
  8
FERRO
 62
   250
100
AcDbLine
 10
974.6351463009276
 20
-1670.852668779769
 30
0.0
 11
968.768969230344
 21
-1678.813909089846
 31
0.0
  0
LINE
  5
AF7E
330
18
100
AcDbEntity
  8
FERRO
 62
   250
100
AcDbLine
 10
976.2306126958726
 20
-1670.046467229381
 30
0.0
 11
969.7703923776353
 21
-1678.813909089846
 31
0.0
  0
LINE
  5
AF7F
330
18
100
AcDbEntity
  8
FERRO
 62
   250
100
AcDbLine
 10
956.598905320297
 20
-1680.123986609227
 30
0.0
 11
956.5989053202972
 21
-1670.852668779769
 31
0.0
  0
LINE
  5
AF80
330
18
100
AcDbEntity
  8
FERRO
100
AcDbLine
 10
969.5368899041699
 20
-1669.546467229381
 30
0.0
 11
967.0368899041701
 21
-1670.046467229381
 31
0.0
  0
LINE
  5
AF81
330
18
100
AcDbEntity
  8
FERRO
100
AcDbLine
 10
967.0368899041701
 20
-1670.046467229381
 30
0.0
 11
968.0368899041701
 21
-1668.046467229381
 31
0.0
  0
LINE
  5
AF82
330
18
100
AcDbEntity
  8
FERRO
100
AcDbLine
 10
968.0368899041701
 20
-1649.546467229381
 30
0.0
 11
968.0368899041701
 21
-1668.046467229381
 31
0.0
  0
LINE
  5
AF83
330
18
100
AcDbEntity
  8
FERRO
 62
   250
100
AcDbLine
 10
969.7703923776353
 20
-1678.813909089846
 30
0.0
 11
968.768969230344
 21
-1678.813909089846
 31
0.0
  0
ARC
  5
AF84
330
18
100
AcDbEntity
  8
FERRO
100
AcDbCircle
 10
982.0368899041698
 20
-1690.400248690164
 30
0.0
 40
11.85298550298124
100
AcDbArc
 50
77.82388473721666
 51
102.1761152627833
  0
ARC
  5
AF85
330
18
100
AcDbEntity
  8
FERRO
100
AcDbCircle
 10
982.0368899041703
 20
-1672.077717229381
 30
0.0
 40
3.03125000000001
100
AcDbArc
 50
42.07502205083786
 51
137.9249779491621
  0
LINE
  5
AF86
330
18
100
AcDbEntity
  8
FERRO
100
AcDbLine
 10
979.78688990417
 20
-1675.546467229381
 30
0.0
 11
984.28688990417
 21
-1675.546467229381
 31
0.0
  0
LINE
  5
AF87
330
18
100
AcDbEntity
  8
FERRO
100
AcDbLine
 10
976.50655981828
 20
-1637.016137143491
 30
0.0
 11
975.9762297323902
 21
-1636.485807057601
 31
0.0
  0
LINE
  5
AF88
330
18
100
AcDbEntity
  8
FERRO
100
AcDbLine
 10
979.78688990417
 20
-1670.046467229381
 30
0.0
 11
979.78688990417
 21
-1675.546467229381
 31
0.0
  0
LINE
  5
AF89
330
18
100
AcDbEntity
  8
FERRO
100
AcDbLine
 10
976.7868899041699
 20
-1669.546467229381
 30
0.0
 11
976.7868899041699
 21
-1676.546467229381
 31
0.0
  0
LINE
  5
AF8A
330
18
100
AcDbEntity
  8
FERRO
100
AcDbLine
 10
979.5368899041697
 20
-1678.813909089846
 30
0.0
 11
974.2868899041701
 21
-1676.046467229381
 31
0.0
  0
LINE
  5
AF8B
330
18
100
AcDbEntity
  8
FERRO
100
AcDbLine
 10
974.2868899041701
 20
-1676.046467229381
 30
0.0
 11
976.7868899041699
 21
-1676.546467229381
 31
0.0
  0
LINE
  5
AF8C
330
18
100
AcDbEntity
  8
FERRO
100
AcDbLine
 10
984.28688990417
 20
-1670.046467229381
 30
0.0
 11
984.28688990417
 21
-1675.546467229381
 31
0.0
  0
LINE
  5
AF8D
330
18
100
AcDbEntity
  8
FERRO
100
AcDbLine
 10
994.5368899041699
 20
-1669.546467229381
 30
0.0
 11
987.28688990417
 21
-1669.546467229381
 31
0.0
  0
LINE
  5
AF8E
330
18
100
AcDbEntity
  8
FERRO
 62
   250
100
AcDbLine
 10
989.5160015714381
 20
-1670.852668779769
 30
0.0
 11
995.3821786420215
 21
-1678.813909089846
 31
0.0
  0
LINE
  5
AF8F
330
18
100
AcDbEntity
  8
FERRO
 62
   250
100
AcDbLine
 10
987.9205351764928
 20
-1670.046467229381
 30
0.0
 11
994.3807554947301
 21
-1678.813909089846
 31
0.0
  0
LINE
  5
AF90
330
18
100
AcDbEntity
  8
FERRO
100
AcDbLine
 10
989.78688990417
 20
-1676.046467229381
 30
0.0
 11
987.28688990417
 21
-1676.546467229381
 31
0.0
  0
LINE
  5
AF91
330
18
100
AcDbEntity
  8
FERRO
100
AcDbLine
 10
987.28688990417
 20
-1676.546467229381
 30
0.0
 11
987.28688990417
 21
-1669.546467229381
 31
0.0
  0
LINE
  5
AF92
330
18
100
AcDbEntity
  8
FERRO
100
AcDbLine
 10
984.53688990417
 20
-1678.813909089846
 30
0.0
 11
989.78688990417
 21
-1676.046467229381
 31
0.0
  0
LINE
  5
AF93
330
18
100
AcDbEntity
  8
FERRO
 62
   250
100
AcDbLine
 10
994.3807554947301
 20
-1678.813909089846
 30
0.0
 11
995.3821786420215
 21
-1678.813909089846
 31
0.0
  0
LINE
  5
AF94
330
18
100
AcDbEntity
  8
FERRO
100
AcDbLine
 10
969.4430619043487
 20
-1587.610571746327
 30
0.0
 11
981.4430619043488
 21
-1587.610571746327
 31
0.0
  0
LINE
  5
AF95
330
18
100
AcDbEntity
  8
FERRO
100
AcDbLine
 10
967.9430619043486
 20
-1607.110571746327
 30
0.0
 11
977.9430619043488
 21
-1607.110571746327
 31
0.0
  0
ARC
  5
AF96
330
18
100
AcDbEntity
  8
FERRO
100
AcDbCircle
 10
965.7667861730363
 20
-1582.851592331376
 30
0.0
 40
18.67812845101637
100
AcDbArc
 50
0.8070109016220818
 51
87.92504820553231
  0
LWPOLYLINE
  5
AF97
330
18
100
AcDbEntity
  8
FERRO
100
AcDbPolyline
 90
        5
 70
     0
 43
0.0
 10
969.4430619043487
 20
-1585.610571746327
 10
969.4430619043487
 20
-1567.610571746327
 42
-0.3421714355369481
 10
981.4430619043488
 20
-1582.610571746327
 10
981.4430619043488
 20
-1585.610571746327
 10
969.4430619043487
 20
-1585.610571746327
  0
LINE
  5
AF98
330
18
100
AcDbEntity
  8
FERRO
100
AcDbLine
 10
969.4430619043487
 20
-1602.610571746327
 30
0.0
 11
985.0371265768409
 21
-1602.610571746327
 31
0.0
  0
LINE
  5
AF99
330
18
100
AcDbEntity
  8
FERRO
100
AcDbLine
 10
966.4430619043487
 20
-1607.610571746327
 30
0.0
 11
966.4430619043487
 21
-1564.185710793986
 31
0.0
  0
LINE
  5
AF9A
330
18
100
AcDbEntity
  8
FERRO
100
AcDbLine
 10
967.9430619043486
 20
-1607.110571746327
 30
0.0
 11
966.4430619043487
 21
-1607.610571746327
 31
0.0
  0
LINE
  5
AF9B
330
18
100
AcDbEntity
  8
FERRO
100
AcDbLine
 10
969.4430619043487
 20
-1602.610571746327
 30
0.0
 11
969.4430619043487
 21
-1587.610571746327
 31
0.0
  0
LINE
  5
AF9C
330
18
100
AcDbEntity
  8
FERRO
100
AcDbLine
 10
984.4430619043487
 20
-1582.588519640538
 30
0.0
 11
984.4430619043487
 21
-1587.313513205548
 31
0.0
  0
ARC
  5
AF9D
330
18
100
AcDbEntity
  8
FERRO
100
AcDbCircle
 10
990.7816892233784
 20
-1598.610571746327
 30
0.0
 40
7.0
100
AcDbArc
 50
191.3099324740253
 51
214.8499045790382
  0
ARC
  5
AF9E
330
18
100
AcDbEntity
  8
FERRO
100
AcDbCircle
 10
983.193061904349
 20
-1609.641821746327
 30
0.0
 40
3.03125000000001
100
AcDbArc
 50
42.07502205083786
 51
137.9249779491621
  0
ARC
  5
AF9F
330
18
100
AcDbEntity
  8
FERRO
100
AcDbCircle
 10
983.1930619043484
 20
-1627.964353207109
 30
0.0
 40
11.85298550298124
100
AcDbArc
 50
77.82388473721666
 51
102.1761152627833
  0
LINE
  5
AFA0
330
18
100
AcDbEntity
  8
FERRO
100
AcDbLine
 10
980.9430619043487
 20
-1613.110571746327
 30
0.0
 11
985.4430619043487
 21
-1613.110571746327
 31
0.0
  0
HATCH
  5
AFA1
330
18
100
AcDbEntity
  8
QUOTE
100
AcDbHatch
 10
0.0
 20
0.0
 30
0.0
210
0.0
220
0.0
230
1.0
  2
SOLID
 70
     1
 71
     0
 91
        1
 92
        7
 72
     0
 73
     1
 93
        4
 10
985.0368899041697
 20
-1625.890989704475
 10
982.0368899041699
 20
-1625.890989704475
 10
979.03688990417
 20
-1625.890989704475
 10
982.0368899041699
 20
-1621.390989704475
 97
        0
 75
     0
 76
     1
 47
0.1485008354686718
 98
        1
 10
981.8392679385452
 20
-1624.688657642509
  0
LINE
  5
AFA2
330
18
100
AcDbEntity
  8
QUOTE
100
AcDbLine
 10
985.0368899041701
 20
-1625.890989704475
 30
0.0
 11
982.0368899041699
 21
-1625.890989704475
 31
0.0
  0
LINE
  5
AFA3
330
18
100
AcDbEntity
  8
QUOTE
100
AcDbLine
 10
982.0368899041699
 20
-1621.390989704475
 30
0.0
 11
985.0368899041701
 21
-1625.890989704475
 31
0.0
  0
LINE
  5
AFA4
330
18
100
AcDbEntity
  8
FERRO
100
AcDbLine
 10
977.9430619043488
 20
-1607.110571746327
 30
0.0
 11
977.9430619043488
 21
-1614.110571746327
 31
0.0
  0
LINE
  5
AFA5
330
18
100
AcDbEntity
  8
FERRO
100
AcDbLine
 10
980.6930619043482
 20
-1616.378013606792
 30
0.0
 11
975.4430619043487
 21
-1613.610571746327
 31
0.0
  0
LINE
  5
AFA6
330
18
100
AcDbEntity
  8
FERRO
100
AcDbLine
 10
975.4430619043487
 20
-1613.610571746327
 30
0.0
 11
977.9430619043488
 21
-1614.110571746327
 31
0.0
  0
LINE
  5
AFA7
330
18
100
AcDbEntity
  8
FERRO
100
AcDbLine
 10
980.9430619043487
 20
-1607.610571746327
 30
0.0
 11
980.9430619043487
 21
-1613.110571746327
 31
0.0
  0
LINE
  5
AFA8
330
18
100
AcDbEntity
  8
QUOTE
100
AcDbLine
 10
982.0368899041699
 20
-1621.390989704475
 30
0.0
 11
979.03688990417
 21
-1625.890989704475
 31
0.0
  0
LINE
  5
AFA9
330
18
100
AcDbEntity
  8
QUOTE
100
AcDbLine
 10
979.03688990417
 20
-1625.890989704475
 30
0.0
 11
982.0368899041699
 21
-1625.890989704475
 31
0.0
  0
LINE
  5
AFAA
330
18
100
AcDbEntity
  8
FERRO
100
AcDbLine
 10
981.4430619043488
 20
-1587.610571746327
 30
0.0
 11
983.9176244935424
 21
-1599.983384692294
 31
0.0
  0
LINE
  5
AFAB
330
18
100
AcDbEntity
  8
FERRO
100
AcDbLine
 10
988.4430619043486
 20
-1614.110571746327
 30
0.0
 11
988.4430619043486
 21
-1607.110571746327
 31
0.0
  0
LINE
  5
AFAC
330
18
100
AcDbEntity
  8
FERRO
100
AcDbLine
 10
985.6930619043486
 20
-1616.378013606792
 30
0.0
 11
990.9430619043487
 21
-1613.610571746327
 31
0.0
  0
LINE
  5
AFAD
330
18
100
AcDbEntity
  8
FERRO
100
AcDbLine
 10
990.9430619043487
 20
-1613.610571746327
 30
0.0
 11
988.4430619043486
 21
-1614.110571746327
 31
0.0
  0
LINE
  5
AFAE
330
18
100
AcDbEntity
  8
FERRO
100
AcDbLine
 10
985.4430619043487
 20
-1607.610571746327
 30
0.0
 11
985.4430619043487
 21
-1613.110571746327
 31
0.0
  0
ARC
  5
AFAF
330
18
100
AcDbEntity
  8
FERRO
100
AcDbCircle
 10
990.7816892233784
 20
-1598.610571746327
 30
0.0
 40
4.0
100
AcDbArc
 50
191.3099324740253
 51
270.0
  0
LINE
  5
AFB0
330
18
100
AcDbEntity
  8
FERRO
100
AcDbLine
 10
984.4430619043487
 20
-1587.313513205548
 30
0.0
 11
986.8593665206148
 21
-1599.39503628688
 31
0.0
  0
LINE
  5
AFB1
330
18
100
AcDbEntity
  8
FERRO
 62
   250
100
AcDbLine
 10
1006.986502219522
 20
-1680.123986609227
 30
0.0
 11
1006.986502219522
 21
-1670.852668779769
 31
0.0
  0
LINE
  5
AFB2
330
18
100
AcDbEntity
  8
FERRO
100
AcDbLine
 10
996.03688990417
 20
-1649.546467229381
 30
0.0
 11
996.03688990417
 21
-1644.546467229381
 31
0.0
  0
LINE
  5
AFB3
330
18
100
AcDbEntity
  8
FERRO
100
AcDbLine
 10
997.03688990417
 20
-1670.046467229381
 30
0.0
 11
996.03688990417
 21
-1668.046467229381
 31
0.0
  0
LINE
  5
AFB4
330
18
100
AcDbEntity
  8
FERRO
100
AcDbLine
 10
996.03688990417
 20
-1668.046467229381
 30
0.0
 11
996.03688990417
 21
-1649.546467229381
 31
0.0
  0
LINE
  5
AFB5
330
18
100
AcDbEntity
  8
FERRO
100
AcDbLine
 10
1001.443061904349
 20
-1607.610571746327
 30
0.0
 11
1001.443061904349
 21
-1602.610571746327
 31
0.0
  0
LINE
  5
AFB6
330
18
100
AcDbEntity
  8
FERRO
100
AcDbLine
 10
999.9430619043486
 20
-1607.110571746327
 30
0.0
 11
1001.443061904349
 21
-1607.610571746327
 31
0.0
  0
LEADER
  5
AFE1
330
18
100
AcDbEntity
  8
QUOTE
100
AcDbLeader
  3
STANDARD_WS
 73
     0
 75
     1
 40
26.66666666666668
 41
71.66666666666667
 76
     3
 10
749.2076672357447
 20
-1600.114163809063
 30
0.0
 10
720.3366824805621
 20
-1623.365402743781
 30
0.0
 10
717.336682480562
 20
-1623.365402743781
 30
0.0
340
AFE2
213
-3.0
223
-0.9001029535534144
233
0.0
1001
ACAD
1000
DSTYLE
1002
{
1070
    40
1040
3.0
1070
    41
1040
1.0
1070
    42
1040
1.5
1070
    43
1040
10.0
1070
    44
1040
0.0
1070
    79
1070
     2
1070
   141
1040
2.0
1070
   147
1040
1.0
1070
   176
1070
   256
1070
   177
1070
   256
1070
   178
1070
   256
1070
   179
1070
     1
1070
   271
1070
     1
1070
   272
1070
     1
1070
   341
1005
A96C
1070
   342
1005
A96C
1002
}
  0
MTEXT
  5
AFE2
102
{ACAD_REACTORS
330
AFE1
102
}
330
18
100
AcDbEntity
  8
QUOTE
100
AcDbMText
 10
717.336682480562
 20
-1606.131966456894
 30
0.0
 40
10.0
 41
0.0
 71
     6
 72
     1
  1
tubolare\P70x70x2
 73
     1
 44
1.0
1001
ACAD
1000
MTEXTBEGIN
1070
    73
1070
     1
1070
    44
1040
1.0
1070
    74
1070
     0
1000
MTEXTEND
  0
HATCH
  5
AFE3
330
18
100
AcDbEntity
  8
AREA166
 62
   250
100
AcDbHatch
 10
0.0
 20
0.0
 30
0.0
210
0.0
220
0.0
230
1.0
  2
ANSI35
 70
     0
 71
     0
 91
        1
 92
        7
 72
     0
 73
     1
 93
        4
 10
730.0788454991329
 20
-1449.023492580561
 10
1000.061716168652
 20
-1444.234495891242
 10
1009.176270976733
 20
-1554.714324335412
 10
716.6278405432815
 20
-1554.714324335412
 97
        0
 75
     0
 76
     1
 52
0.0
 41
3.0
 77
     0
 78
     2
 53
135.0
 43
1732.666443325444
 44
29.49695229100189
 45
13.47038418160372
 46
13.47038418160373
 79
     0
 53
135.0
 43
1719.196053325445
 44
29.49695229100189
 45
13.47038418160372
 46
13.47038418160373
 79
     4
 49
23.8125
 49
-4.762499999999999
 49
0.0
 49
-4.762499999999999
 47
1.596332312396799
 98
        1
 10
848.296197311672
 20
-1533.629105509399
  0
LINE
  5
AFE4
330
18
100
AcDbEntity
  8
0
 62
     7
100
AcDbLine
 10
1008.792703769909
 20
-1555.214324335413
 30
0.0
 11
718.414815972116
 21
-1554.714324335413
 31
0.0
  0
LINE
  5
AFE5
330
18
100
AcDbEntity
  8
FERRO
100
AcDbLine
 10
1008.792703769909
 20
-1555.214324335413
 30
0.0
 11
1008.792703769909
 21
-1450.101591117841
 31
0.0
  0
LWPOLYLINE
  5
B071
330
18
100
AcDbEntity
  8
FERRO
100
AcDbPolyline
 90
        4
 70
     1
 43
0.0
 10
859.7927500670778
 20
-1907.629877173717
 10
859.7927500670778
 20
-1900.629877173717
 10
834.7927500670778
 20
-1900.629877173717
 10
834.7927500670778
 20
-1907.629877173717
  0
LINE
  5
B072
330
18
100
AcDbEntity
  8
FERRO
100
AcDbLine
 10
842.7927500670778
 20
-1900.629877173717
 30
0.0
 11
842.7927500670778
 21
-1907.629877173717
 31
0.0
  0
LINE
  5
B073
102
{ACAD_REACTORS
330
B08D
102
}
330
18
100
AcDbEntity
  8
FERRO
  6
TRATTEGGIATA2
100
AcDbLine
 10
1057.986502219522
 20
-1680.123986609227
 30
0.0
 11
1015.665781316707
 21
-1653.932841222765
 31
0.0
  0
LINE
  5
B074
102
{ACAD_REACTORS
330
B08D
102
}
330
18
100
AcDbEntity
  8
FERRO
  6
TRATTEGGIATA2
100
AcDbLine
 10
1007.792703769909
 20
-1746.134808970673
 30
0.0
 11
1071.986502219522
 21
-1746.123986609227
 31
0.0
  0
LINE
  5
B075
102
{ACAD_REACTORS
330
B08D
102
}
330
18
100
AcDbEntity
  8
FERRO
  6
TRATTEGGIATA2
100
AcDbLine
 10
1007.792703769909
 20
-1680.123986609227
 30
0.0
 11
1071.986502219522
 21
-1680.123986609227
 31
0.0
  0
LINE
  5
B076
102
{ACAD_REACTORS
330
B08D
102
}
330
18
100
AcDbEntity
  8
FERRO
  6
TRATTEGGIATA2
100
AcDbLine
 10
1076.986502219522
 20
-1692.123986609226
 30
0.0
 11
1076.986502219522
 21
-1794.872294642036
 31
0.0
  0
LINE
  5
B077
102
{ACAD_REACTORS
330
B08D
102
}
330
18
100
AcDbEntity
  8
FERRO
  6
TRATTEGGIATA2
 62
   250
100
AcDbLine
 10
1071.986502219522
 20
-1680.123986609227
 30
0.0
 11
1071.986502219522
 21
-1746.123986609227
 31
0.0
  0
LINE
  5
B078
102
{ACAD_REACTORS
330
B08D
102
}
330
18
100
AcDbEntity
  8
FERRO
  6
TRATTEGGIATA2
100
AcDbLine
 10
1064.986502219522
 20
-1746.123986609227
 30
0.0
 11
1064.986502219522
 21
-1793.373503229983
 31
0.0
  0
LINE
  5
B079
102
{ACAD_REACTORS
330
B08D
102
}
330
18
100
AcDbEntity
  8
FERRO
  6
TRATTEGGIATA2
 62
   250
100
AcDbLine
 10
1076.986502219522
 20
-1692.123986609226
 30
0.0
 11
1071.986502219522
 21
-1692.123986609226
 31
0.0
  0
LINE
  5
B07A
102
{ACAD_REACTORS
330
B08D
102
}
330
18
100
AcDbEntity
  8
FERRO
  6
TRATTEGGIATA2
 62
   250
100
AcDbLine
 10
1064.986502219522
 20
-1793.373503229983
 30
0.0
 11
1076.986502219522
 21
-1794.872294642036
 31
0.0
  0
ARC
  5
B07B
102
{ACAD_REACTORS
330
B08D
102
}
330
18
100
AcDbEntity
  8
FERRO
  6
TRATTEGGIATA2
100
AcDbCircle
 10
1072.986502219522
 20
-1680.123986609227
 30
0.0
 40
63.02095795426401
100
AcDbArc
 50
155.4432575579849
 51
180.0
  0
LINE
  5
B07C
102
{ACAD_REACTORS
330
B08C
102
}
330
18
100
AcDbEntity
  8
FERRO
  6
TRATTEGGIATA2
100
AcDbLine
 10
1076.986502219522
 20
-1903.839443020063
 30
0.0
 11
1076.986502219522
 21
-1832.262043170104
 31
0.0
  0
LINE
  5
B07D
102
{ACAD_REACTORS
330
B08C
102
}
330
18
100
AcDbEntity
  8
FERRO
  6
TRATTEGGIATA2
 62
   250
100
AcDbLine
 10
1064.986502219522
 20
-1830.760834582157
 30
0.0
 11
1076.986502219522
 21
-1832.262043170104
 31
0.0
  0
LINE
  5
B07E
102
{ACAD_REACTORS
330
B08C
102
}
330
18
100
AcDbEntity
  8
FERRO
  6
TRATTEGGIATA2
100
AcDbLine
 10
1064.986502219522
 20
-1879.839443020063
 30
0.0
 11
1064.986502219522
 21
-1830.760834582157
 31
0.0
  0
LINE
  5
B07F
102
{ACAD_REACTORS
330
B08C
102
}
330
18
100
AcDbEntity
  8
FERRO
  6
TRATTEGGIATA2
100
AcDbLine
 10
1007.792703769909
 20
-1879.829373039572
 30
0.0
 11
1071.986502219522
 21
-1879.839443020063
 31
0.0
  0
LINE
  5
B080
102
{ACAD_REACTORS
330
B08C
102
}
330
18
100
AcDbEntity
  8
FERRO
  6
TRATTEGGIATA2
100
AcDbLine
 10
1007.792703769909
 20
-1915.839443020063
 30
0.0
 11
1071.986502219522
 21
-1915.839443020063
 31
0.0
  0
LINE
  5
B081
102
{ACAD_REACTORS
330
B08C
102
}
330
18
100
AcDbEntity
  8
FERRO
  6
TRATTEGGIATA2
 62
   250
100
AcDbLine
 10
1071.986502219522
 20
-1915.839443020063
 30
0.0
 11
1071.986502219522
 21
-1879.839443020063
 31
0.0
  0
LINE
  5
B082
102
{ACAD_REACTORS
330
B08C
102
}
330
18
100
AcDbEntity
  8
FERRO
  6
TRATTEGGIATA2
 62
   250
100
AcDbLine
 10
1076.986502219522
 20
-1903.839443020063
 30
0.0
 11
1071.986502219522
 21
-1903.839443020063
 31
0.0
  0
MTEXT
  5
B091
330
18
100
AcDbEntity
  8
FERRO
100
AcDbMText
 10
1038.636114369912
 20
-1633.799251691872
 30
0.0
 40
7.5
 41
0.0
 71
     1
 72
     1
  1

 73
     1
 44
1.0
1001
ACAD
1000
MTEXTBEGIN
1070
    73
1070
     1
1070
    44
1040
1.0
1070
    74
1070
     0
1000
MTEXTEND
  0
MTEXT
  5
B094
330
18
100
AcDbEntity
  8
QUOTE
100
AcDbMText
 10
741.5777559723806
 20
-1873.198863298476
 30
0.0
 40
7.5
 41
0.0
 71
     7
 72
     1
  1
maniglia fissa
 73
     1
 44
1.0
1001
ACAD
1000
MTEXTBEGIN
1070
    73
1070
     1
1070
    44
1040
1.0
1070
    74
1070
     0
1000
MTEXTEND
  0
LEADER
  5
B095
330
18
100
AcDbEntity
  8
QUOTE
100
AcDbLeader
  3
STANDARD_WS
 76
     2
 10
834.7927500670778
 20
-1900.629877173717
 30
0.0
 10
814.5906772587704
 20
-1874.746341738245
 30
0.0
213
0.0
223
-3.75
233
0.0
1001
ACAD
1000
DSTYLE
1002
{
1070
    77
1070
     0
1070
    40
1040
3.0
1070
    41
1040
1.0
1070
    42
1040
1.5
1070
    43
1040
10.0
1070
    44
1040
0.0
1070
    79
1070
     2
1070
   141
1040
2.0
1070
   147
1040
1.0
1070
   176
1070
   256
1070
   177
1070
   256
1070
   178
1070
   256
1070
   179
1070
     1
1070
   271
1070
     1
1070
   272
1070
     1
1070
   341
1005
A96C
1070
   342
1005
A96C
1002
}
  0
LWPOLYLINE
  5
B0B4
330
18
100
AcDbEntity
  8
FERRO
  6
TRATTEGGIATA2
100
AcDbPolyline
 90
        4
 70
     1
 43
0.0
 10
936.5877766291166
 20
-1708.129396851863
 10
936.5877766291166
 20
-1758.129396851863
 10
941.5877766291167
 20
-1758.129396851863
 10
941.5877766291167
 20
-1708.129396851863
  0
LWPOLYLINE
  5
B0B5
330
18
100
AcDbEntity
  8
FERRO
  6
TRATTEGGIATA2
100
AcDbPolyline
 90
        4
 70
     1
 43
0.0
 10
951.5877766291167
 20
-1708.129396851863
 10
951.5877766291167
 20
-1703.129396851863
 10
936.5877766291166
 20
-1703.129396851863
 10
936.5877766291166
 20
-1708.129396851863
  0
LWPOLYLINE
  5
B0B6
330
18
100
AcDbEntity
  8
FERRO
  6
TRATTEGGIATA2
100
AcDbPolyline
 90
        4
 70
     1
 43
0.0
 10
956.598905320297
 20
-1695.123986609227
 10
956.598905320297
 20
-1716.134807094499
 10
951.5877766291167
 20
-1716.134807094499
 10
951.5877766291167
 20
-1695.123986609227
  0
MTEXT
  5
B0B7
330
18
100
AcDbEntity
  8
QUOTE
100
AcDbMText
 10
1038.255066686012
 20
-1651.361016275735
 30
0.0
 40
8.0
 41
0.0
 71
     7
 72
     1
  1
{\fTimes New Roman|b0|i0|c0|p18;su eventuale anta spezzata:\P} {\H0.8794x;antipanico con \P\H0.5686x; \H1.759x;maniglia esterna }
 73
     1
 44
1.0
1001
ACAD
1000
MTEXTBEGIN
1070
    73
1070
     1
1070
    44
1040
1.0
1070
    74
1070
     0
1000
MTEXTEND
  0
LEADER
  5
B0B8
330
18
100
AcDbEntity
  8
QUOTE
100
AcDbLeader
  3
STANDARD_WS
 73
     0
 75
     1
 40
7.5
 76
     3
 10
1018.683834630093
 20
-1682.966279220971
 30
0.0
 10
1075.748899527179
 20
-1651.361016275735
 30
0.0
 10
1072.748899527179
 20
-1651.361016275735
 30
0.0
340
B0B9
213
504.2231541654451
223
-198.7621488323275
233
0.0
1001
ACAD
1000
DSTYLE
1002
{
1070
    77
1070
     0
1070
    40
1040
3.0
1070
    41
1040
1.0
1070
    42
1040
1.5
1070
    43
1040
10.0
1070
    44
1040
0.0
1070
    79
1070
     2
1070
   141
1040
2.0
1070
   147
1040
1.0
1070
   176
1070
   256
1070
   177
1070
   256
1070
   178
1070
   256
1070
   179
1070
     1
1070
   271
1070
     1
1070
   272
1070
     1
1070
   341
1005
A96C
1070
   342
1005
A96C
1002
}
  0
MTEXT
  5
B0B9
102
{ACAD_REACTORS
330
B0B8
102
}
330
18
100
AcDbEntity
  8
FERRO
100
AcDbMText
 10
565.5257453617341
 20
-1452.598867443407
 30
0.0
 40
7.5
 41
0.0
 71
     1
 72
     1
  1

 73
     1
 44
1.0
1001
ACAD
1000
MTEXTBEGIN
1070
    73
1070
     1
1070
    44
1040
1.0
1070
    74
1070
     0
1000
MTEXTEND
  0
VIEWPORT
  5
32
102
{ACAD_XDICTIONARY
360
B13B
102
}
330
15
100
AcDbEntity
 67
     1
  8
0
100
AcDbViewport
 10
7.258166969147005
 20
4.25
 30
0.0
 40
14.51633393829401
 41
8.5
 68
     2
 69
     1
 12
7.258166969147005
 22
4.25
 13
0.0
 23
0.0
 14
10.0
 24
10.0
 15
10.0
 25
10.0
 16
0.0
 26
0.0
 36
1.0
 17
0.0
 27
0.0
 37
0.0
 42
50.0
 43
0.0
 44
0.0
 45
8.5
 50
0.0
 51
0.0
 72
   100
 90
    32800
  1

281
     0
 71
     1
 74
     0
110
0.0
120
0.0
130
0.0
111
1.0
121
0.0
131
0.0
112
0.0
122
1.0
132
0.0
 79
     0
146
0.0
  0
VIEWPORT
  5
35
102
{ACAD_XDICTIONARY
360
B13D
102
}
330
15
100
AcDbEntity
 67
     1
  8
QUOTE
100
AcDbViewport
 10
5.5
 20
4.25
 30
0.0
 40
11.0
 41
8.5
 68
     1
 69
     2
 12
148.5
 22
105.0
 13
0.0
 23
0.0
 14
7.0
 24
7.0
 15
7.0
 25
7.0
 16
0.0
 26
0.0
 36
1.0
 17
0.0
 27
0.0
 37
0.0
 42
50.0
 43
0.0
 44
0.0
 45
234.0126404494382
 50
0.0
 51
0.0
 72
   100
 90
    32800
  1

281
     0
 71
     1
 74
     0
110
0.0
120
0.0
130
0.0
111
1.0
121
0.0
131
0.0
112
0.0
122
1.0
132
0.0
 79
     0
146
0.0
  0
ENDSEC
  0
SECTION
  2
OBJECTS
  0
DICTIONARY
  5
C
330
0
100
AcDbDictionary
281
     1
  3
ACAD_CIP_PREVIOUS_PRODUCT_INFO
350
B119
  3
ACAD_COLOR
350
B0F7
  3
ACAD_DETAILVIEWSTYLE
350
B110
  3
ACAD_GROUP
350
D
  3
ACAD_LAYOUT
350
A2C4
  3
ACAD_MATERIAL
350
B0C5
  3
ACAD_MLEADERSTYLE
350
B10C
  3
ACAD_MLINESTYLE
350
1B
  3
ACAD_PLOTSETTINGS
350
A2C5
  3
ACAD_PLOTSTYLENAME
350
A2C2
  3
ACAD_SCALELIST
350
B0FA
  3
ACAD_SECTIONVIEWSTYLE
350
B10E
  3
ACAD_TABLESTYLE
350
B0F8
  3
ACAD_VISUALSTYLE
350
B0DE
  3
AcadDim
350
B092
  3
ACDB_RECOMPOSE_DATA
350
B139
  3
ACDBVARIABLEDICTIONARY
350
36
  3
CONTENTDICTIONARY
350
23
  3
DWGPROPS
350
B13A
  0
DICTIONARY
  5
B11A
330
E
100
AcDbDictionary
280
     1
281
     1
  3
ADSK_XREC_LAYER_RECONCILED
360
B11B
  0
DICTIONARY
  5
B11C
330
33
100
AcDbDictionary
280
     1
281
     1
  3
ADSK_XREC_LAYER_RECONCILED
360
B11D
  0
DICTIONARY
  5
B11E
330
43
100
AcDbDictionary
280
     1
281
     1
  3
ADSK_XREC_LAYER_RECONCILED
360
B11F
  0
DICTIONARY
  5
B120
330
59
100
AcDbDictionary
280
     1
281
     1
  3
ADSK_XREC_LAYER_RECONCILED
360
B121
  0
DICTIONARY
  5
B122
330
5AF
100
AcDbDictionary
280
     1
281
     1
  3
ADSK_XREC_LAYER_RECONCILED
360
B123
  0
DICTIONARY
  5
B124
330
185F
100
AcDbDictionary
280
     1
281
     1
  3
ADSK_XREC_LAYER_RECONCILED
360
B125
  0
DICTIONARY
  5
B126
330
2DBD
100
AcDbDictionary
280
     1
281
     1
  3
ADSK_XREC_LAYER_RECONCILED
360
B127
  0
DICTIONARY
  5
B128
330
A388
100
AcDbDictionary
280
     1
281
     1
  3
ADSK_XREC_LAYER_RECONCILED
360
B129
  0
DICTIONARY
  5
B12A
330
A46E
100
AcDbDictionary
280
     1
281
     1
  3
ADSK_XREC_LAYER_RECONCILED
360
B12B
  0
DICTIONARY
  5
B12C
330
A6D9
100
AcDbDictionary
280
     1
281
     1
  3
ADSK_XREC_LAYER_RECONCILED
360
B12D
  0
DICTIONARY
  5
B13B
330
32
100
AcDbDictionary
280
     1
281
     1
  3
ACAD_XREC_ROUNDTRIP
360
B13C
  0
DICTIONARY
  5
B13D
330
35
100
AcDbDictionary
280
     1
281
     1
  3
ACAD_XREC_ROUNDTRIP
360
B13E
  0
XRECORD
  5
B119
102
{ACAD_REACTORS
330
C
102
}
330
C
100
AcDbXrecord
280
     1
300
ACDLT
300
2013
300
ACDLT_F_S
  0
DICTIONARY
  5
B0F7
102
{ACAD_REACTORS
330
C
102
}
330
C
100
AcDbDictionary
281
     1
  0
DICTIONARY
  5
B110
102
{ACAD_REACTORS
330
C
102
}
330
C
100
AcDbDictionary
281
     1
  3
Metric50
350
B111
  0
DICTIONARY
  5
D
102
{ACAD_REACTORS
330
C
102
}
330
C
100
AcDbDictionary
281
     1
  3
*A1
350
B08C
  3
*A2
350
B08D
  0
DICTIONARY
  5
A2C4
102
{ACAD_REACTORS
330
C
102
}
330
C
100
AcDbDictionary
281
     1
  3
Layout1
350
A2C7
  3
Model
350
A2C6
  0
DICTIONARY
  5
B0C5
102
{ACAD_REACTORS
330
C
102
}
330
C
100
AcDbDictionary
281
     1
  3
ByBlock
350
B0CE
  3
ByLayer
350
B0C6
  3
Global
350
B0D6
  0
DICTIONARY
  5
B10C
102
{ACAD_REACTORS
330
C
102
}
330
C
100
AcDbDictionary
281
     1
  3
Standard
350
B10D
  0
DICTIONARY
  5
1B
102
{ACAD_REACTORS
330
C
102
}
330
C
100
AcDbDictionary
281
     1
  3
STANDARD
350
1C
  0
DICTIONARY
  5
A2C5
102
{ACAD_REACTORS
330
C
102
}
330
C
100
AcDbDictionary
281
     1
  0
ACDBDICTIONARYWDFLT
  5
A2C2
102
{ACAD_REACTORS
330
C
102
}
330
C
100
AcDbDictionary
281
     1
  3
Normal
350
A2C3
100
AcDbDictionaryWithDefault
340
A2C3
  0
DICTIONARY
  5
B0FA
102
{ACAD_REACTORS
330
C
102
}
330
C
100
AcDbDictionary
281
     1
  3
A0
350
B0FB
  3
A1
350
B0FC
  3
A2
350
B0FD
  3
A3
350
B0FE
  3
A4
350
B0FF
  3
A5
350
B100
  3
A6
350
B101
  3
A7
350
B102
  3
A8
350
B103
  3
A9
350
B104
  3
B0
350
B105
  3
B1
350
B106
  3
B2
350
B107
  3
B3
350
B108
  3
B4
350
B109
  3
B5
350
B10A
  3
B6
350
B10B
  0
DICTIONARY
  5
B10E
102
{ACAD_REACTORS
330
C
102
}
330
C
100
AcDbDictionary
281
     1
  3
Metric50
350
B10F
  0
DICTIONARY
  5
B0F8
102
{ACAD_REACTORS
330
C
102
}
330
C
100
AcDbDictionary
281
     1
  3
Standard
350
B0F9
  0
DICTIONARY
  5
B0DE
102
{ACAD_REACTORS
330
C
102
}
330
C
100
AcDbDictionary
281
     1
  3
2dWireframe
350
B0E4
  3
Basic
350
B0E3
  3
Brighten
350
B0EA
  3
ColorChange
350
B0EE
  3
Conceptual
350
B0E7
  3
Dim
350
B0E9
  3
EdgeColorOff
350
B0F6
  3
Facepattern
350
B0ED
  3
Flat
350
B0DF
  3
FlatWithEdges
350
B0E0
  3
Gouraud
350
B0E1
  3
GouraudWithEdges
350
B0E2
  3
Hidden
350
B0E6
  3
JitterOff
350
B0F4
  3
Linepattern
350
B0EC
  3
OverhangOff
350
B0F5
  3
Realistic
350
B0E8
  3
Shaded
350
B0F3
  3
Shaded with edges
350
B0F2
  3
Shades of Gray
350
B0EF
  3
Sketchy
350
B0F0
  3
Thicken
350
B0EB
  3
Wireframe
350
B0E5
  3
X-Ray
350
B0F1
  0
XRECORD
  5
B092
102
{ACAD_REACTORS
330
C
102
}
330
C
100
AcDbXrecord
280
     1
 90
   990106
  3

 60
     0
 61
     0
 62
     1
 63
     3
 64
     0
 65
     0
 66
     0
 67
     3
 68
     1
 69
     0
 70
     0
 71
     0
 72
     0
 40
0.0
170
     0
  0
XRECORD
  5
B139
102
{ACAD_REACTORS
330
C
102
}
330
C
100
AcDbXrecord
280
     1
 90
        1
330
B0F9
  0
DICTIONARY
  5
36
102
{ACAD_REACTORS
330
C
102
}
330
C
100
AcDbDictionary
281
     1
  3
CANNOSCALE
350
B132
  3
CMLEADERSTYLE
350
B12F
  3
CTABLESTYLE
350
B12E
  3
CVIEWDETAILSTYLE
350
B130
  3
CVIEWSECTIONSTYLE
350
B131
  3
DIMADEC
350
37
  3
DIMASSOC
350
B134
  3
INDEXCTL
350
B133
  3
SORTENTS
350
10E
  3
XCLIPFRAME
350
B135
  0
DICTIONARY
  5
23
102
{ACAD_REACTORS
330
C
102
}
330
C
100
AcDbDictionary
281
     1
  0
XRECORD
  5
B13A
102
{ACAD_REACTORS
330
C
102
}
330
C
100
AcDbXrecord
280
     1
  1
DWGPROPS COOKIE
  2

  3

  4

  6

  7

  8
demom
  9

300
=
301
=
302
=
303
=
304
=
305
=
306
=
307
=
308
=
309
=
 40
0.2574298611111111
 41
2451513.764827315
 42
2457730.483964086
  1

 90
        0
  0
XRECORD
  5
B11B
102
{ACAD_REACTORS
330
B11A
102
}
330
B11A
100
AcDbXrecord
280
     1
290
     1
  0
XRECORD
  5
B11D
102
{ACAD_REACTORS
330
B11C
102
}
330
B11C
100
AcDbXrecord
280
     1
290
     1
  0
XRECORD
  5
B11F
102
{ACAD_REACTORS
330
B11E
102
}
330
B11E
100
AcDbXrecord
280
     1
290
     1
  0
XRECORD
  5
B121
102
{ACAD_REACTORS
330
B120
102
}
330
B120
100
AcDbXrecord
280
     1
290
     1
  0
XRECORD
  5
B123
102
{ACAD_REACTORS
330
B122
102
}
330
B122
100
AcDbXrecord
280
     1
290
     1
  0
XRECORD
  5
B125
102
{ACAD_REACTORS
330
B124
102
}
330
B124
100
AcDbXrecord
280
     1
290
     1
  0
XRECORD
  5
B127
102
{ACAD_REACTORS
330
B126
102
}
330
B126
100
AcDbXrecord
280
     1
290
     1
  0
XRECORD
  5
B129
102
{ACAD_REACTORS
330
B128
102
}
330
B128
100
AcDbXrecord
280
     1
290
     1
  0
XRECORD
  5
B12B
102
{ACAD_REACTORS
330
B12A
102
}
330
B12A
100
AcDbXrecord
280
     1
290
     1
  0
XRECORD
  5
B12D
102
{ACAD_REACTORS
330
B12C
102
}
330
B12C
100
AcDbXrecord
280
     1
290
     1
  0
XRECORD
  5
B13C
102
{ACAD_REACTORS
330
B13B
102
}
330
B13B
100
AcDbXrecord
280
     1
102
SHADEPLOT
 70
     0
  0
XRECORD
  5
B13E
102
{ACAD_REACTORS
330
B13D
102
}
330
B13D
100
AcDbXrecord
280
     1
102
SHADEPLOT
 70
     0
  0
ACDBDETAILVIEWSTYLE
  5
B111
102
{ACAD_REACTORS
330
B110
102
}
330
B110
100
AcDbModelDocViewStyle
 70
     0
  3
Metric50
290
     0
100
AcDbDetailViewStyle
 70
     0
 71
     0
 90
        3
 71
     1
340
F
 40
5.0
340
0
 40
5.0
300

 40
0.0
280
     1
 71
     2
340
14
 90
       25
 71
     3
340
F
 40
5.0
 90
        0
 40
15.0
 90
        1
300
%<\AcVar ViewDetailId>% (%<\AcVar ViewScale \f "%sn">%)
 71
     4
340
14
 90
       25
340
14
 90
       25
280
     0
  0
GROUP
  5
B08C
102
{ACAD_REACTORS
330
D
102
}
330
D
100
AcDbGroup
300

 70
     1
 71
     1
340
B07F
340
B080
340
B081
340
B07E
340
B07C
340
B082
340
B07D
  0
GROUP
  5
B08D
102
{ACAD_REACTORS
330
D
102
}
330
D
100
AcDbGroup
300

 70
     1
 71
     1
340
B077
340
B076
340
B074
340
B078
340
B075
340
B073
340
B07B
340
B079
340
B07A
  0
LAYOUT
  5
A2C7
102
{ACAD_XDICTIONARY
360
B141
102
}
102
{ACAD_REACTORS
330
A2C4
102
}
330
A2C4
100
AcDbPlotSettings
  1

  2
EPSON Stylus COLOR 1520
  4

  6

 40
0.0
 41
0.0
 42
0.0
 43
0.0
 44
0.0
 45
0.0
 46
0.0
 47
0.0
 48
0.0
 49
0.0
140
0.0
141
0.0
142
1.0
143
1.0
 70
   688
 72
     0
 73
     0
 74
     5
  7
aclt.ctb
 75
    16
147
1.0
148
0.0
149
0.0
100
AcDbLayout
  1
Layout1
 70
     1
 71
     1
 10
0.0
 20
0.0
 11
11.0
 21
8.5
 12
0.0
 22
0.0
 32
0.0
 14
0.0
 24
0.0
 34
0.0
 15
11.0
 25
8.5
 35
0.0
146
0.0
 13
0.0
 23
0.0
 33
0.0
 16
1.0
 26
0.0
 36
0.0
 17
0.0
 27
1.0
 37
0.0
 76
     0
330
15
331
35
  0
LAYOUT
  5
A2C6
102
{ACAD_XDICTIONARY
360
B13F
102
}
102
{ACAD_REACTORS
330
A2C4
102
}
330
A2C4
100
AcDbPlotSettings
  1

  2
HP LaserJet 4100 PCL 6
  4
A4
  6

 40
4.233333110809326
 41
4.910679340362548
 42
4.910659790039062
 43
4.23333740234375
 44
209.9733276367187
 45
296.9259948730469
 46
0.27
 47
9.22
 48
568.455106347372
 49
-2172.627871729547
140
1169.31381472806
141
-1364.580649053193
142
1.0
143
3.0
 70
 11940
 72
     1
 73
     0
 74
     4
  7
aclt.ctb
 75
     0
147
0.3333333333333333
148
-568.455106347372
149
2172.627871729547
100
AcDbLayout
  1
Model
 70
     1
 71
     0
 10
0.0
 20
0.0
 11
12.0
 21
9.0
 12
0.0
 22
0.0
 32
0.0
 14
0.0
 24
0.0
 34
0.0
 15
0.0
 25
0.0
 35
0.0
146
0.0
 13
0.0
 23
0.0
 33
0.0
 16
1.0
 26
0.0
 36
0.0
 17
0.0
 27
1.0
 37
0.0
 76
     0
330
18
331
B0C3
  0
MATERIAL
  5
B0CE
102
{ACAD_XDICTIONARY
360
B0CF
102
}
102
{ACAD_REACTORS
330
B0C5
102
}
330
B0C5
100
AcDbMaterial
  1
ByBlock
 72
     0
 43
0.0208333333333333
 43
0.0
 43
0.0
 43
0.0
 43
0.0
 43
0.0208333333333333
 43
0.0
 43
0.0
 43
0.0
 43
0.0
 43
1.0
 43
0.0
 43
0.0
 43
0.0
 43
0.0
 43
1.0
 77
     0
 47
0.0208333333333333
 47
0.0
 47
0.0
 47
0.0
 47
0.0
 47
0.0208333333333333
 47
0.0
 47
0.0
 47
0.0
 47
0.0
 47
1.0
 47
0.0
 47
0.0
 47
0.0
 47
0.0
 47
1.0
171
     0
 49
0.0208333333333333
 49
0.0
 49
0.0
 49
0.0
 49
0.0
 49
0.0208333333333333
 49
0.0
 49
0.0
 49
0.0
 49
0.0
 49
1.0
 49
0.0
 49
0.0
 49
0.0
 49
0.0
 49
1.0
175
     0
142
0.0208333333333333
142
0.0
142
0.0
142
0.0
142
0.0
142
0.0208333333333333
142
0.0
142
0.0
142
0.0
142
0.0
142
1.0
142
0.0
142
0.0
142
0.0
142
0.0
142
1.0
179
     0
144
0.0208333333333333
144
0.0
144
0.0
144
0.0
144
0.0
144
0.0208333333333333
144
0.0
144
0.0
144
0.0
144
0.0
144
1.0
144
0.0
144
0.0
144
0.0
144
0.0
144
1.0
147
0.0208333333333333
147
0.0
147
0.0
147
0.0
147
0.0
147
0.0208333333333333
147
0.0
147
0.0
147
0.0
147
0.0
147
1.0
147
0.0
147
0.0
147
0.0
147
0.0
147
1.0
  0
MATERIAL
  5
B0C6
102
{ACAD_XDICTIONARY
360
B0C7
102
}
102
{ACAD_REACTORS
330
B0C5
102
}
330
B0C5
100
AcDbMaterial
  1
ByLayer
 72
     0
 43
0.0208333333333333
 43
0.0
 43
0.0
 43
0.0
 43
0.0
 43
0.0208333333333333
 43
0.0
 43
0.0
 43
0.0
 43
0.0
 43
1.0
 43
0.0
 43
0.0
 43
0.0
 43
0.0
 43
1.0
 77
     0
 47
0.0208333333333333
 47
0.0
 47
0.0
 47
0.0
 47
0.0
 47
0.0208333333333333
 47
0.0
 47
0.0
 47
0.0
 47
0.0
 47
1.0
 47
0.0
 47
0.0
 47
0.0
 47
0.0
 47
1.0
171
     0
 49
0.0208333333333333
 49
0.0
 49
0.0
 49
0.0
 49
0.0
 49
0.0208333333333333
 49
0.0
 49
0.0
 49
0.0
 49
0.0
 49
1.0
 49
0.0
 49
0.0
 49
0.0
 49
0.0
 49
1.0
175
     0
142
0.0208333333333333
142
0.0
142
0.0
142
0.0
142
0.0
142
0.0208333333333333
142
0.0
142
0.0
142
0.0
142
0.0
142
1.0
142
0.0
142
0.0
142
0.0
142
0.0
142
1.0
179
     0
144
0.0208333333333333
144
0.0
144
0.0
144
0.0
144
0.0
144
0.0208333333333333
144
0.0
144
0.0
144
0.0
144
0.0
144
1.0
144
0.0
144
0.0
144
0.0
144
0.0
144
1.0
147
0.0208333333333333
147
0.0
147
0.0
147
0.0
147
0.0
147
0.0208333333333333
147
0.0
147
0.0
147
0.0
147
0.0
147
1.0
147
0.0
147
0.0
147
0.0
147
0.0
147
1.0
  0
MATERIAL
  5
B0D6
102
{ACAD_XDICTIONARY
360
B0D7
102
}
102
{ACAD_REACTORS
330
B0C5
102
}
330
B0C5
100
AcDbMaterial
  1
Global
 72
     0
 43
0.0208333333333333
 43
0.0
 43
0.0
 43
0.0
 43
0.0
 43
0.0208333333333333
 43
0.0
 43
0.0
 43
0.0
 43
0.0
 43
1.0
 43
0.0
 43
0.0
 43
0.0
 43
0.0
 43
1.0
 77
     0
 47
0.0208333333333333
 47
0.0
 47
0.0
 47
0.0
 47
0.0
 47
0.0208333333333333
 47
0.0
 47
0.0
 47
0.0
 47
0.0
 47
1.0
 47
0.0
 47
0.0
 47
0.0
 47
0.0
 47
1.0
171
     0
 49
0.0208333333333333
 49
0.0
 49
0.0
 49
0.0
 49
0.0
 49
0.0208333333333333
 49
0.0
 49
0.0
 49
0.0
 49
0.0
 49
1.0
 49
0.0
 49
0.0
 49
0.0
 49
0.0
 49
1.0
175
     0
142
0.0208333333333333
142
0.0
142
0.0
142
0.0
142
0.0
142
0.0208333333333333
142
0.0
142
0.0
142
0.0
142
0.0
142
1.0
142
0.0
142
0.0
142
0.0
142
0.0
142
1.0
179
     0
144
0.0208333333333333
144
0.0
144
0.0
144
0.0
144
0.0
144
0.0208333333333333
144
0.0
144
0.0
144
0.0
144
0.0
144
1.0
144
0.0
144
0.0
144
0.0
144
0.0
144
1.0
147
0.0208333333333333
147
0.0
147
0.0
147
0.0
147
0.0
147
0.0208333333333333
147
0.0
147
0.0
147
0.0
147
0.0
147
1.0
147
0.0
147
0.0
147
0.0
147
0.0
147
1.0
  0
MLEADERSTYLE
  5
B10D
102
{ACAD_XDICTIONARY
360
B178
102
}
102
{ACAD_REACTORS
330
B10C
102
}
330
B10C
100
AcDbMLeaderStyle
170
     2
171
     1
172
     0
 90
        2
 40
0.0
 41
0.0
173
     1
 91
-1056964608
340
12
 92
       -2
290
     1
 42
2.0
291
     1
 43
0.36
  3
Standard
 44
4.0
300

342
F
174
     1
178
     6
175
     1
176
     0
 93
-1056964608
 45
4.0
292
     0
297
     0
 46
4.0
 94
-1056964608
 47
1.0
 49
1.0
140
1.0
293
     1
141
0.0
294
     1
177
     0
142
1.0
295
     0
296
     0
143
0.125
1001
ACAD_MLEADERVER
1070
     2
  0
MLINESTYLE
  5
1C
102
{ACAD_REACTORS
330
1B
102
}
330
1B
100
AcDbMlineStyle
  2
STANDARD
 70
     0
  3

 62
   256
 51
90.0
 52
90.0
 71
     2
 49
0.5
 62
   256
  6
BYLAYER
 49
-0.5
 62
   256
  6
BYLAYER
  0
ACDBPLACEHOLDER
  5
A2C3
102
{ACAD_REACTORS
330
A2C2
102
}
330
A2C2
  0
SCALE
  5
B0FB
102
{ACAD_REACTORS
330
B0FA
102
}
330
B0FA
100
AcDbScale
 70
     0
300
1:1
140
1.0
141
1.0
290
     1
  0
SCALE
  5
B0FC
102
{ACAD_REACTORS
330
B0FA
102
}
330
B0FA
100
AcDbScale
 70
     0
300
1:2
140
1.0
141
2.0
290
     0
  0
SCALE
  5
B0FD
102
{ACAD_REACTORS
330
B0FA
102
}
330
B0FA
100
AcDbScale
 70
     0
300
1:4
140
1.0
141
4.0
290
     0
  0
SCALE
  5
B0FE
102
{ACAD_REACTORS
330
B0FA
102
}
330
B0FA
100
AcDbScale
 70
     0
300
1:5
140
1.0
141
5.0
290
     0
  0
SCALE
  5
B0FF
102
{ACAD_REACTORS
330
B0FA
102
}
330
B0FA
100
AcDbScale
 70
     0
300
1:8
140
1.0
141
8.0
290
     0
  0
SCALE
  5
B100
102
{ACAD_REACTORS
330
B0FA
102
}
330
B0FA
100
AcDbScale
 70
     0
300
1:10
140
1.0
141
10.0
290
     0
  0
SCALE
  5
B101
102
{ACAD_REACTORS
330
B0FA
102
}
330
B0FA
100
AcDbScale
 70
     0
300
1:16
140
1.0
141
16.0
290
     0
  0
SCALE
  5
B102
102
{ACAD_REACTORS
330
B0FA
102
}
330
B0FA
100
AcDbScale
 70
     0
300
1:20
140
1.0
141
20.0
290
     0
  0
SCALE
  5
B103
102
{ACAD_REACTORS
330
B0FA
102
}
330
B0FA
100
AcDbScale
 70
     0
300
1:30
140
1.0
141
30.0
290
     0
  0
SCALE
  5
B104
102
{ACAD_REACTORS
330
B0FA
102
}
330
B0FA
100
AcDbScale
 70
     0
300
1:40
140
1.0
141
40.0
290
     0
  0
SCALE
  5
B105
102
{ACAD_REACTORS
330
B0FA
102
}
330
B0FA
100
AcDbScale
 70
     0
300
1:50
140
1.0
141
50.0
290
     0
  0
SCALE
  5
B106
102
{ACAD_REACTORS
330
B0FA
102
}
330
B0FA
100
AcDbScale
 70
     0
300
1:100
140
1.0
141
100.0
290
     0
  0
SCALE
  5
B107
102
{ACAD_REACTORS
330
B0FA
102
}
330
B0FA
100
AcDbScale
 70
     0
300
2:1
140
2.0
141
1.0
290
     0
  0
SCALE
  5
B108
102
{ACAD_REACTORS
330
B0FA
102
}
330
B0FA
100
AcDbScale
 70
     0
300
4:1
140
4.0
141
1.0
290
     0
  0
SCALE
  5
B109
102
{ACAD_REACTORS
330
B0FA
102
}
330
B0FA
100
AcDbScale
 70
     0
300
8:1
140
8.0
141
1.0
290
     0
  0
SCALE
  5
B10A
102
{ACAD_REACTORS
330
B0FA
102
}
330
B0FA
100
AcDbScale
 70
     0
300
10:1
140
10.0
141
1.0
290
     0
  0
SCALE
  5
B10B
102
{ACAD_REACTORS
330
B0FA
102
}
330
B0FA
100
AcDbScale
 70
     0
300
100:1
140
100.0
141
1.0
290
     0
  0
ACDBSECTIONVIEWSTYLE
  5
B10F
102
{ACAD_REACTORS
330
B10E
102
}
330
B10E
100
AcDbModelDocViewStyle
 70
     0
  3
Metric50
290
     0
100
AcDbSectionViewStyle
 70
     0
 71
     0
 90
      102
 71
     1
340
F
 40
5.0
340
0
340
0
 40
5.0
300
I, O, Q, S, X, Z
 40
10.0
 90
        0
 40
2.5
 90
        0
 71
     2
340
14
 90
       25
340
14
 90
       50
 40
5.0
 40
2.5
 40
5.0
 71
     3
340
F
 40
5.0
 90
        0
 40
15.0
 90
        1
300
%<\AcVar ViewSectionStartId>%-%<\AcVar ViewSectionEndId>% (%<\AcVar ViewScale \f "%sn">%)
 71
     4
300
ANSI31
 40
1.0
 90
        0
290
     0
290
     0
 90
        6
 40
0.0
 40
1.570796326794896
 40
0.2617993877991494
 40
1.308996938995747
 40
-0.2617993877991494
 40
1.832595714594046
  0
TABLESTYLE
  5
B0F9
102
{ACAD_XDICTIONARY
360
B137
102
}
102
{ACAD_REACTORS
330
B0F8
102
}
330
B0F8
100
AcDbTableStyle
  3
Standard
 70
     0
 71
     0
 40
1.5
 41
1.5
280
     0
281
     0
  7
STANDARD
140
4.5
170
     2
 62
     0
 63
     7
283
     0
274
    -2
284
     1
 64
     0
275
    -2
285
     1
 65
     0
276
    -2
286
     1
 66
     0
277
    -2
287
     1
 67
     0
278
    -2
288
     1
 68
     0
279
    -2
289
     1
 69
     0
  7
STANDARD
140
6.0
170
     5
 62
     0
 63
     7
283
     0
274
    -2
284
     1
 64
     0
275
    -2
285
     1
 65
     0
276
    -2
286
     1
 66
     0
277
    -2
287
     1
 67
     0
278
    -2
288
     1
 68
     0
279
    -2
289
     1
 69
     0
  7
STANDARD
140
4.5
170
     5
 62
     0
 63
     7
283
     0
274
    -2
284
     1
 64
     0
275
    -2
285
     1
 65
     0
276
    -2
286
     1
 66
     0
277
    -2
287
     1
 67
     0
278
    -2
288
     1
 68
     0
279
    -2
289
     1
 69
     0
  0
VISUALSTYLE
  5
B0E4
102
{ACAD_XDICTIONARY
360
B150
102
}
102
{ACAD_REACTORS
330
B0DE
102
}
330
B0DE
100
AcDbVisualStyle
  2
2dWireframe
 70
     4
 71
     0
 72
     2
 73
     0
 90
        0
 40
-0.6
 41
-30.0
 62
     5
 63
     7
 74
     1
 91
        4
 64
     7
 65
   257
 75
     1
175
     1
 42
1.0
 92
        0
 66
   257
 43
1.0
 76
     1
 77
     6
 78
     2
 67
     7
 79
     5
170
     0
171
     0
290
     0
174
     0
 93
        1
 44
0.0
173
     0
291
     0
 45
0.0
1001
ACAD
1000
AcDbSavedByObjectVersion
1070
     0
  0
VISUALSTYLE
  5
B0E3
102
{ACAD_XDICTIONARY
360
B14E
102
}
102
{ACAD_REACTORS
330
B0DE
102
}
330
B0DE
100
AcDbVisualStyle
  2
Basic
 70
     7
 71
     1
 72
     0
 73
     1
 90
        0
 40
-0.6
 41
-30.0
 62
     5
 63
     7
 74
     0
 91
        4
 64
     7
 65
   257
 75
     1
175
     1
 42
1.0
 92
        8
 66
     7
 43
1.0
 76
     1
 77
     6
 78
     2
 67
     7
 79
     5
170
     0
171
     0
290
     0
174
     0
 93
        1
 44
0.0
173
     0
291
     1
 45
0.0
1001
ACAD
1000
AcDbSavedByObjectVersion
1070
     0
  0
VISUALSTYLE
  5
B0EA
102
{ACAD_XDICTIONARY
360
B15C
102
}
102
{ACAD_REACTORS
330
B0DE
102
}
330
B0DE
100
AcDbVisualStyle
  2
Brighten
 70
    12
 71
     2
 72
     2
 73
     0
 90
        0
 40
-0.6
 41
-30.0
 62
     5
 63
     7
 74
     1
 91
        4
 64
     7
 65
   257
 75
     1
175
     1
 42
1.0
 92
        8
 66
     7
 43
1.0
 76
     1
 77
     6
 78
     2
 67
     7
 79
     5
170
     0
171
     0
290
     0
174
     0
 93
        1
 44
50.0
173
     0
291
     1
 45
0.0
1001
ACAD
1000
AcDbSavedByObjectVersion
1070
     0
  0
VISUALSTYLE
  5
B0EE
102
{ACAD_XDICTIONARY
360
B164
102
}
102
{ACAD_REACTORS
330
B0DE
102
}
330
B0DE
100
AcDbVisualStyle
  2
ColorChange
 70
    16
 71
     2
 72
     2
 73
     3
 90
        0
 40
-0.6
 41
-30.0
 62
     5
 63
     8
 74
     1
 91
        4
 64
     7
 65
   257
 75
     1
175
     1
 42
1.0
 92
        8
 66
     8
 43
1.0
 76
     1
 77
     6
 78
     2
 67
     7
 79
     5
170
     0
171
     0
290
     0
174
     0
 93
        1
 44
0.0
173
     0
291
     1
 45
0.0
1001
ACAD
1000
AcDbSavedByObjectVersion
1070
     0
  0
VISUALSTYLE
  5
B0E7
102
{ACAD_XDICTIONARY
360
B156
102
}
102
{ACAD_REACTORS
330
B0DE
102
}
330
B0DE
100
AcDbVisualStyle
  2
Conceptual
 70
     9
 71
     3
 72
     2
 73
     0
 90
        0
 40
-0.6
 41
-30.0
 62
     5
 63
     7
 74
     2
 91
        2
 64
     7
 65
   257
 75
     1
175
     1
 42
179.0
 92
        8
 66
     7
 43
1.0
 76
     1
 77
     6
 78
     2
 67
     7
 79
     3
170
     0
171
     0
290
     0
174
     0
 93
        1
 44
0.0
173
     0
291
     0
 45
0.0
1001
ACAD
1000
AcDbSavedByObjectVersion
1070
     0
  0
VISUALSTYLE
  5
B0E9
102
{ACAD_XDICTIONARY
360
B15A
102
}
102
{ACAD_REACTORS
330
B0DE
102
}
330
B0DE
100
AcDbVisualStyle
  2
Dim
 70
    11
 71
     2
 72
     2
 73
     0
 90
        0
 40
-0.6
 41
-30.0
 62
     5
 63
     7
 74
     1
 91
        4
 64
     7
 65
   257
 75
     1
175
     1
 42
1.0
 92
        8
 66
     7
 43
1.0
 76
     1
 77
     6
 78
     2
 67
     7
 79
     5
170
     0
171
     0
290
     0
174
     0
 93
        1
 44
-50.0
173
     0
291
     1
 45
0.0
1001
ACAD
1000
AcDbSavedByObjectVersion
1070
     0
  0
VISUALSTYLE
  5
B0F6
102
{ACAD_XDICTIONARY
360
B174
102
}
102
{ACAD_REACTORS
330
B0DE
102
}
330
B0DE
100
AcDbVisualStyle
  2
EdgeColorOff
 70
    22
 71
     2
 72
     2
 73
     0
 90
        0
 40
-0.6
 41
-30.0
 62
     5
 63
     7
 74
     1
 91
        4
 64
     7
 65
   257
 75
     1
175
     1
 42
1.0
 92
        8
 66
     7
 43
1.0
 76
     1
 77
     6
 78
     2
 67
     7
 79
     5
170
     0
171
     0
290
     0
174
     0
 93
        1
 44
0.0
173
     0
291
     1
 45
0.0
1001
ACAD
1000
AcDbSavedByObjectVersion
1070
     0
  0
VISUALSTYLE
  5
B0ED
102
{ACAD_XDICTIONARY
360
B162
102
}
102
{ACAD_REACTORS
330
B0DE
102
}
330
B0DE
100
AcDbVisualStyle
  2
Facepattern
 70
    15
 71
     2
 72
     2
 73
     0
 90
        0
 40
-0.6
 41
-30.0
 62
     5
 63
     7
 74
     1
 91
        4
 64
     7
 65
   257
 75
     1
175
     1
 42
1.0
 92
        8
 66
     7
 43
1.0
 76
     1
 77
     6
 78
     2
 67
     7
 79
     5
170
     0
171
     0
290
     0
174
     0
 93
        1
 44
0.0
173
     0
291
     1
 45
0.0
1001
ACAD
1000
AcDbSavedByObjectVersion
1070
     0
  0
VISUALSTYLE
  5
B0DF
102
{ACAD_XDICTIONARY
360
B146
102
}
102
{ACAD_REACTORS
330
B0DE
102
}
330
B0DE
100
AcDbVisualStyle
  2
Flat
 70
     0
 71
     2
 72
     1
 73
     1
 90
        2
 40
-0.6
 41
30.0
 62
     5
 63
     7
 74
     0
 91
        0
 64
     7
 65
   257
 75
     1
175
     1
 42
1.0
 92
        8
 66
     7
 43
1.0
 76
     1
 77
     6
 78
     2
 67
     7
 79
     5
170
     0
171
     0
290
     0
174
     0
 93
       13
 44
0.0
173
     0
291
     1
 45
0.0
1001
ACAD
1000
AcDbSavedByObjectVersion
1070
     0
  0
VISUALSTYLE
  5
B0E0
102
{ACAD_XDICTIONARY
360
B148
102
}
102
{ACAD_REACTORS
330
B0DE
102
}
330
B0DE
100
AcDbVisualStyle
  2
FlatWithEdges
 70
     1
 71
     2
 72
     1
 73
     1
 90
        2
 40
-0.6
 41
30.0
 62
     5
 63
     7
 74
     1
 91
        0
 64
     7
 65
   257
 75
     1
175
     1
 42
1.0
 92
        0
 66
   257
 43
1.0
 76
     1
 77
     6
 78
     2
 67
     7
 79
     5
170
     0
171
     0
290
     0
174
     0
 93
       13
 44
0.0
173
     0
291
     1
 45
0.0
1001
ACAD
1000
AcDbSavedByObjectVersion
1070
     0
  0
VISUALSTYLE
  5
B0E1
102
{ACAD_XDICTIONARY
360
B14A
102
}
102
{ACAD_REACTORS
330
B0DE
102
}
330
B0DE
100
AcDbVisualStyle
  2
Gouraud
 70
     2
 71
     2
 72
     2
 73
     1
 90
        2
 40
-0.6
 41
30.0
 62
     5
 63
     7
 74
     0
 91
        0
 64
     7
 65
   257
 75
     1
175
     1
 42
1.0
 92
        0
 66
     7
 43
1.0
 76
     1
 77
     6
 78
     2
 67
     7
 79
     5
170
     0
171
     0
290
     0
174
     0
 93
       13
 44
0.0
173
     0
291
     1
 45
0.0
1001
ACAD
1000
AcDbSavedByObjectVersion
1070
     0
  0
VISUALSTYLE
  5
B0E2
102
{ACAD_XDICTIONARY
360
B14C
102
}
102
{ACAD_REACTORS
330
B0DE
102
}
330
B0DE
100
AcDbVisualStyle
  2
GouraudWithEdges
 70
     3
 71
     2
 72
     2
 73
     1
 90
        2
 40
-0.6
 41
30.0
 62
     5
 63
     7
 74
     1
 91
        0
 64
     7
 65
   257
 75
     1
175
     1
 42
1.0
 92
        0
 66
   257
 43
1.0
 76
     1
 77
     6
 78
     2
 67
     7
 79
     5
170
     0
171
     0
290
     0
174
     0
 93
       13
 44
0.0
173
     0
291
     1
 45
0.0
1001
ACAD
1000
AcDbSavedByObjectVersion
1070
     0
  0
VISUALSTYLE
  5
B0E6
102
{ACAD_XDICTIONARY
360
B154
102
}
102
{ACAD_REACTORS
330
B0DE
102
}
330
B0DE
100
AcDbVisualStyle
  2
Hidden
 70
     6
 71
     1
 72
     2
 73
     2
 90
        0
 40
-0.6
 41
-30.0
 62
     5
 63
     7
 74
     2
 91
        2
 64
     7
 65
   257
 75
     2
175
     1
 42
40.0
 92
        0
 66
   257
 43
1.0
 76
     1
 77
     6
 78
     2
 67
     7
 79
     3
170
     0
171
     0
290
     0
174
     0
 93
        1
 44
0.0
173
     0
291
     0
 45
0.0
1001
ACAD
1000
AcDbSavedByObjectVersion
1070
     0
  0
VISUALSTYLE
  5
B0F4
102
{ACAD_XDICTIONARY
360
B170
102
}
102
{ACAD_REACTORS
330
B0DE
102
}
330
B0DE
100
AcDbVisualStyle
  2
JitterOff
 70
    20
 71
     2
 72
     2
 73
     0
 90
        0
 40
-0.6
 41
-30.0
 62
     5
 63
     7
 74
     1
 91
        4
 64
     7
 65
   257
 75
     1
175
     1
 42
1.0
 92
       10
 66
     7
 43
1.0
 76
     1
 77
     6
 78
     2
 67
     7
 79
     5
170
     0
171
     0
290
     0
174
     0
 93
        1
 44
0.0
173
     0
291
     1
 45
0.0
1001
ACAD
1000
AcDbSavedByObjectVersion
1070
     0
  0
VISUALSTYLE
  5
B0EC
102
{ACAD_XDICTIONARY
360
B160
102
}
102
{ACAD_REACTORS
330
B0DE
102
}
330
B0DE
100
AcDbVisualStyle
  2
Linepattern
 70
    14
 71
     2
 72
     2
 73
     0
 90
        0
 40
-0.6
 41
-30.0
 62
     5
 63
     7
 74
     1
 91
        4
 64
     7
 65
   257
 75
     7
175
     7
 42
1.0
 92
        8
 66
     7
 43
1.0
 76
     1
 77
     6
 78
     2
 67
     7
 79
     5
170
     0
171
     0
290
     0
174
     0
 93
        1
 44
0.0
173
     0
291
     1
 45
0.0
1001
ACAD
1000
AcDbSavedByObjectVersion
1070
     0
  0
VISUALSTYLE
  5
B0F5
102
{ACAD_XDICTIONARY
360
B172
102
}
102
{ACAD_REACTORS
330
B0DE
102
}
330
B0DE
100
AcDbVisualStyle
  2
OverhangOff
 70
    21
 71
     2
 72
     2
 73
     0
 90
        0
 40
-0.6
 41
-30.0
 62
     5
 63
     7
 74
     1
 91
        4
 64
     7
 65
   257
 75
     1
175
     1
 42
1.0
 92
        9
 66
     7
 43
1.0
 76
     1
 77
     6
 78
     2
 67
     7
 79
     5
170
     0
171
     0
290
     0
174
     0
 93
        1
 44
0.0
173
     0
291
     1
 45
0.0
1001
ACAD
1000
AcDbSavedByObjectVersion
1070
     0
  0
VISUALSTYLE
  5
B0E8
102
{ACAD_XDICTIONARY
360
B158
102
}
102
{ACAD_REACTORS
330
B0DE
102
}
330
B0DE
100
AcDbVisualStyle
  2
Realistic
 70
     8
 71
     2
 72
     3
 73
     0
 90
        2
 40
-0.6
 41
30.0
 62
     5
 63
     7
 74
     0
 91
        0
 64
     7
 65
   257
 75
     1
175
     1
 42
1.0
 92
        8
 66
   257
 43
1.0
 76
     1
 77
     6
 78
     2
 67
     7
 79
     3
170
     0
171
     0
290
     0
174
     0
 93
       13
 44
0.0
173
     0
291
     0
 45
0.0
1001
ACAD
1000
AcDbSavedByObjectVersion
1070
     0
  0
VISUALSTYLE
  5
B0F3
102
{ACAD_XDICTIONARY
360
B16E
102
}
102
{ACAD_REACTORS
330
B0DE
102
}
330
B0DE
100
AcDbVisualStyle
  2
Shaded
 70
    27
 71
     2
 72
     2
 73
     1
 90
        2
 40
-0.6
 41
30.0
 62
     5
 63
     7
 74
     0
 91
        4
 64
     7
 65
   257
 75
     1
175
     1
 42
1.0
 92
        8
 66
   257
 43
1.0
 76
     1
 77
     6
 78
     2
 67
     8
 79
     3
170
     0
171
     0
290
     0
174
     0
 93
        5
 44
0.0
173
     0
291
     0
 45
0.0
1001
ACAD
1000
AcDbSavedByObjectVersion
1070
     0
  0
VISUALSTYLE
  5
B0F2
102
{ACAD_XDICTIONARY
360
B16C
102
}
102
{ACAD_REACTORS
330
B0DE
102
}
330
B0DE
100
AcDbVisualStyle
  2
Shaded with edges
 70
    26
 71
     2
 72
     2
 73
     1
 90
        2
 40
-0.6
 41
30.0
 62
     5
 63
     7
 74
     1
 91
       10
 64
     7
 65
   257
 75
     2
175
     1
 42
1.0
 92
        8
 66
   257
 43
1.0
 76
     1
 77
     6
 78
     2
 67
     7
 79
     3
170
     0
171
     0
290
     0
174
     0
 93
        5
 44
0.0
173
     0
291
     0
 45
0.0
1001
ACAD
1000
AcDbSavedByObjectVersion
1070
     0
  0
VISUALSTYLE
  5
B0EF
102
{ACAD_XDICTIONARY
360
B166
102
}
102
{ACAD_REACTORS
330
B0DE
102
}
330
B0DE
100
AcDbVisualStyle
  2
Shades of Gray
 70
    23
 71
     2
 72
     2
 73
     3
 90
        0
 40
-0.6
 41
-30.0
 62
     5
 63
     7
 74
     2
 91
        2
 64
     7
 65
     7
 75
     1
175
     1
 42
40.0
 92
        8
 66
     7
 43
1.0
 76
     1
 77
     6
 78
     2
 67
     7
 79
     3
170
     0
171
     0
290
     0
174
     0
 93
        1
 44
0.0
173
     0
291
     0
 45
0.0
1001
ACAD
1000
AcDbSavedByObjectVersion
1070
     0
  0
VISUALSTYLE
  5
B0F0
102
{ACAD_XDICTIONARY
360
B168
102
}
102
{ACAD_REACTORS
330
B0DE
102
}
330
B0DE
100
AcDbVisualStyle
  2
Sketchy
 70
    24
 71
     1
 72
     2
 73
     2
 90
        0
 40
-0.6
 41
-30.0
 62
     5
 63
     7
 74
     2
 91
        2
 64
     7
 65
     7
 75
     1
175
     1
 42
40.0
 92
       11
 66
     7
 43
1.0
 76
     1
 77
     6
 78
     2
 67
     7
 79
     6
170
     0
171
     0
290
     0
174
     0
 93
        1
 44
0.0
173
     0
291
     0
 45
0.0
1001
ACAD
1000
AcDbSavedByObjectVersion
1070
     0
  0
VISUALSTYLE
  5
B0EB
102
{ACAD_XDICTIONARY
360
B15E
102
}
102
{ACAD_REACTORS
330
B0DE
102
}
330
B0DE
100
AcDbVisualStyle
  2
Thicken
 70
    13
 71
     2
 72
     2
 73
     0
 90
        0
 40
-0.6
 41
-30.0
 62
     5
 63
     7
 74
     1
 91
        4
 64
     7
 65
   257
 75
     1
175
     1
 42
1.0
 92
       12
 66
     7
 43
1.0
 76
     1
 77
     6
 78
     2
 67
     7
 79
     5
170
     0
171
     0
290
     0
174
     0
 93
        1
 44
0.0
173
     0
291
     1
 45
0.0
1001
ACAD
1000
AcDbSavedByObjectVersion
1070
     0
  0
VISUALSTYLE
  5
B0E5
102
{ACAD_XDICTIONARY
360
B152
102
}
102
{ACAD_REACTORS
330
B0DE
102
}
330
B0DE
100
AcDbVisualStyle
  2
Wireframe
 70
     5
 71
     0
 72
     2
 73
     0
 90
        0
 40
-0.6
 41
-30.0
 62
     5
 63
     7
 74
     1
 91
        4
 64
     7
 65
   257
 75
     1
175
     1
 42
1.0
 92
        0
 66
   257
 43
1.0
 76
     1
 77
     6
 78
     2
 67
     7
 79
     3
170
     0
171
     0
290
     0
174
     0
 93
        1
 44
0.0
173
     0
291
     0
 45
0.0
1001
ACAD
1000
AcDbSavedByObjectVersion
1070
     0
  0
VISUALSTYLE
  5
B0F1
102
{ACAD_XDICTIONARY
360
B16A
102
}
102
{ACAD_REACTORS
330
B0DE
102
}
330
B0DE
100
AcDbVisualStyle
  2
X-Ray
 70
    25
 71
     2
 72
     2
 73
     1
 90
        1
 40
0.5
 41
-30.0
 62
     5
 63
     7
 74
     1
 91
        0
 64
     7
 65
   257
 75
     1
175
     1
 42
1.0
 92
        8
 66
     7
 43
1.0
 76
     1
 77
     6
 78
     2
 67
     7
 79
     3
170
     0
171
     0
290
     0
174
     0
 93
       13
 44
0.0
173
     0
291
     0
 45
0.0
1001
ACAD
1000
AcDbSavedByObjectVersion
1070
     0
  0
DICTIONARYVAR
  5
B132
102
{ACAD_REACTORS
330
36
102
}
330
36
100
DictionaryVariables
280
     0
  1
1:1
  0
DICTIONARYVAR
  5
B12F
102
{ACAD_REACTORS
330
36
102
}
330
36
100
DictionaryVariables
280
     0
  1
STANDARD
  0
DICTIONARYVAR
  5
B12E
102
{ACAD_REACTORS
330
36
102
}
330
36
100
DictionaryVariables
280
     0
  1
STANDARD
  0
DICTIONARYVAR
  5
B130
102
{ACAD_REACTORS
330
36
102
}
330
36
100
DictionaryVariables
280
     0
  1
Metric50
  0
DICTIONARYVAR
  5
B131
102
{ACAD_REACTORS
330
36
102
}
330
36
100
DictionaryVariables
280
     0
  1
Metric50
  0
DICTIONARYVAR
  5
37
102
{ACAD_REACTORS
330
36
102
}
330
36
100
DictionaryVariables
280
     0
  1
0
  0
DICTIONARYVAR
  5
B134
102
{ACAD_REACTORS
330
36
102
}
330
36
100
DictionaryVariables
280
     0
  1
1
  0
DICTIONARYVAR
  5
B133
102
{ACAD_REACTORS
330
36
102
}
330
36
100
DictionaryVariables
280
     0
  1
0
  0
DICTIONARYVAR
  5
10E
102
{ACAD_REACTORS
330
36
102
}
330
36
100
DictionaryVariables
280
     0
  1
96
  0
DICTIONARYVAR
  5
B135
102
{ACAD_REACTORS
330
36
102
}
330
36
100
DictionaryVariables
280
     0
  1
2
  0
DICTIONARY
  5
B141
330
A2C7
100
AcDbDictionary
280
     1
281
     1
  3
ACAD_XREC_ROUNDTRIP
360
B142
  0
DICTIONARY
  5
B13F
330
A2C6
100
AcDbDictionary
280
     1
281
     1
  3
ACAD_XREC_ROUNDTRIP
360
B140
  0
DICTIONARY
  5
B0CF
330
B0CE
100
AcDbDictionary
280
     1
281
     1
  3
ACAD_XREC_ROUNDTRIP
360
B144
  3
BUMPTILE
360
B0D1
  3
DIFFUSETILE
360
B0D0
  3
OPACITYTILE
360
B0D4
  3
REFLECTIONTILE
360
B0D3
  3
REFRACTIONTILE
360
B0D5
  3
SPECULARTILE
360
B0D2
  0
DICTIONARY
  5
B0C7
330
B0C6
100
AcDbDictionary
280
     1
281
     1
  3
ACAD_XREC_ROUNDTRIP
360
B143
  3
BUMPTILE
360
B0C9
  3
DIFFUSETILE
360
B0C8
  3
OPACITYTILE
360
B0CC
  3
REFLECTIONTILE
360
B0CB
  3
REFRACTIONTILE
360
B0CD
  3
SPECULARTILE
360
B0CA
  0
DICTIONARY
  5
B0D7
330
B0D6
100
AcDbDictionary
280
     1
281
     1
  3
ACAD_XREC_ROUNDTRIP
360
B145
  3
BUMPTILE
360
B0D9
  3
DIFFUSETILE
360
B0D8
  3
OPACITYTILE
360
B0DC
  3
REFLECTIONTILE
360
B0DB
  3
REFRACTIONTILE
360
B0DD
  3
SPECULARTILE
360
B0DA
  0
DICTIONARY
  5
B178
330
B10D
100
AcDbDictionary
280
     1
281
     1
  3
ACAD_XREC_ROUNDTRIP
360
B179
  0
DICTIONARY
  5
B137
330
B0F9
100
AcDbDictionary
280
     1
281
     1
  3
ACAD_ROUNDTRIP_2008_TABLESTYLE_CELLSTYLEMAP
360
B138
  3
ACAD_XREC_ROUNDTRIP
360
B176
  0
DICTIONARY
  5
B150
330
B0E4
100
AcDbDictionary
280
     1
281
     1
  3
ACAD_XREC_ROUNDTRIP
360
B151
  0
DICTIONARY
  5
B14E
330
B0E3
100
AcDbDictionary
280
     1
281
     1
  3
ACAD_XREC_ROUNDTRIP
360
B14F
  0
DICTIONARY
  5
B15C
330
B0EA
100
AcDbDictionary
280
     1
281
     1
  3
ACAD_XREC_ROUNDTRIP
360
B15D
  0
DICTIONARY
  5
B164
330
B0EE
100
AcDbDictionary
280
     1
281
     1
  3
ACAD_XREC_ROUNDTRIP
360
B165
  0
DICTIONARY
  5
B156
330
B0E7
100
AcDbDictionary
280
     1
281
     1
  3
ACAD_XREC_ROUNDTRIP
360
B157
  0
DICTIONARY
  5
B15A
330
B0E9
100
AcDbDictionary
280
     1
281
     1
  3
ACAD_XREC_ROUNDTRIP
360
B15B
  0
DICTIONARY
  5
B174
330
B0F6
100
AcDbDictionary
280
     1
281
     1
  3
ACAD_XREC_ROUNDTRIP
360
B175
  0
DICTIONARY
  5
B162
330
B0ED
100
AcDbDictionary
280
     1
281
     1
  3
ACAD_XREC_ROUNDTRIP
360
B163
  0
DICTIONARY
  5
B146
330
B0DF
100
AcDbDictionary
280
     1
281
     1
  3
ACAD_XREC_ROUNDTRIP
360
B147
  0
DICTIONARY
  5
B148
330
B0E0
100
AcDbDictionary
280
     1
281
     1
  3
ACAD_XREC_ROUNDTRIP
360
B149
  0
DICTIONARY
  5
B14A
330
B0E1
100
AcDbDictionary
280
     1
281
     1
  3
ACAD_XREC_ROUNDTRIP
360
B14B
  0
DICTIONARY
  5
B14C
330
B0E2
100
AcDbDictionary
280
     1
281
     1
  3
ACAD_XREC_ROUNDTRIP
360
B14D
  0
DICTIONARY
  5
B154
330
B0E6
100
AcDbDictionary
280
     1
281
     1
  3
ACAD_XREC_ROUNDTRIP
360
B155
  0
DICTIONARY
  5
B170
330
B0F4
100
AcDbDictionary
280
     1
281
     1
  3
ACAD_XREC_ROUNDTRIP
360
B171
  0
DICTIONARY
  5
B160
330
B0EC
100
AcDbDictionary
280
     1
281
     1
  3
ACAD_XREC_ROUNDTRIP
360
B161
  0
DICTIONARY
  5
B172
330
B0F5
100
AcDbDictionary
280
     1
281
     1
  3
ACAD_XREC_ROUNDTRIP
360
B173
  0
DICTIONARY
  5
B158
330
B0E8
100
AcDbDictionary
280
     1
281
     1
  3
ACAD_XREC_ROUNDTRIP
360
B159
  0
DICTIONARY
  5
B16E
330
B0F3
100
AcDbDictionary
280
     1
281
     1
  3
ACAD_XREC_ROUNDTRIP
360
B16F
  0
DICTIONARY
  5
B16C
330
B0F2
100
AcDbDictionary
280
     1
281
     1
  3
ACAD_XREC_ROUNDTRIP
360
B16D
  0
DICTIONARY
  5
B166
330
B0EF
100
AcDbDictionary
280
     1
281
     1
  3
ACAD_XREC_ROUNDTRIP
360
B167
  0
DICTIONARY
  5
B168
330
B0F0
100
AcDbDictionary
280
     1
281
     1
  3
ACAD_XREC_ROUNDTRIP
360
B169
  0
DICTIONARY
  5
B15E
330
B0EB
100
AcDbDictionary
280
     1
281
     1
  3
ACAD_XREC_ROUNDTRIP
360
B15F
  0
DICTIONARY
  5
B152
330
B0E5
100
AcDbDictionary
280
     1
281
     1
  3
ACAD_XREC_ROUNDTRIP
360
B153
  0
DICTIONARY
  5
B16A
330
B0F1
100
AcDbDictionary
280
     1
281
     1
  3
ACAD_XREC_ROUNDTRIP
360
B16B
  0
XRECORD
  5
B142
102
{ACAD_REACTORS
330
B141
102
}
330
B141
100
AcDbXrecord
280
     1
102
SHADEPLOT
 70
     0
102
SHADEPLOTRESLEVEL
 70
     2
102
SHADEPLOTCUSTOMDPI
 70
   300
  0
XRECORD
  5
B140
102
{ACAD_REACTORS
330
B13F
102
}
330
B13F
100
AcDbXrecord
280
     1
102
SHADEPLOT
 70
     0
102
SHADEPLOTRESLEVEL
 70
     2
102
SHADEPLOTCUSTOMDPI
 70
   300
  0
XRECORD
  5
B144
102
{ACAD_REACTORS
330
B0CF
102
}
330
B0CF
100
AcDbXrecord
280
     1
102
MATERIAL
148
0.0
149
0.0
149
0.0
 93
        0
 94
      127
282
     0
 72
     0
 77
     0
171
     0
175
     0
179
     0
273
     0
  0
XRECORD
  5
B0D1
102
{ACAD_REACTORS
330
B0CF
102
}
330
B0CF
100
AcDbXrecord
280
     1
270
     1
271
     1
  0
XRECORD
  5
B0D0
102
{ACAD_REACTORS
330
B0CF
102
}
330
B0CF
100
AcDbXrecord
280
     1
270
     1
271
     1
  0
XRECORD
  5
B0D4
102
{ACAD_REACTORS
330
B0CF
102
}
330
B0CF
100
AcDbXrecord
280
     1
270
     1
271
     1
  0
XRECORD
  5
B0D3
102
{ACAD_REACTORS
330
B0CF
102
}
330
B0CF
100
AcDbXrecord
280
     1
270
     1
271
     1
  0
XRECORD
  5
B0D5
102
{ACAD_REACTORS
330
B0CF
102
}
330
B0CF
100
AcDbXrecord
280
     1
270
     1
271
     1
  0
XRECORD
  5
B0D2
102
{ACAD_REACTORS
330
B0CF
102
}
330
B0CF
100
AcDbXrecord
280
     1
270
     1
271
     1
  0
XRECORD
  5
B143
102
{ACAD_REACTORS
330
B0C7
102
}
330
B0C7
100
AcDbXrecord
280
     1
102
MATERIAL
148
0.0
149
0.0
149
0.0
 93
        0
 94
      127
282
     0
 72
     0
 77
     0
171
     0
175
     0
179
     0
273
     0
  0
XRECORD
  5
B0C9
102
{ACAD_REACTORS
330
B0C7
102
}
330
B0C7
100
AcDbXrecord
280
     1
270
     1
271
     1
  0
XRECORD
  5
B0C8
102
{ACAD_REACTORS
330
B0C7
102
}
330
B0C7
100
AcDbXrecord
280
     1
270
     1
271
     1
  0
XRECORD
  5
B0CC
102
{ACAD_REACTORS
330
B0C7
102
}
330
B0C7
100
AcDbXrecord
280
     1
270
     1
271
     1
  0
XRECORD
  5
B0CB
102
{ACAD_REACTORS
330
B0C7
102
}
330
B0C7
100
AcDbXrecord
280
     1
270
     1
271
     1
  0
XRECORD
  5
B0CD
102
{ACAD_REACTORS
330
B0C7
102
}
330
B0C7
100
AcDbXrecord
280
     1
270
     1
271
     1
  0
XRECORD
  5
B0CA
102
{ACAD_REACTORS
330
B0C7
102
}
330
B0C7
100
AcDbXrecord
280
     1
270
     1
271
     1
  0
XRECORD
  5
B145
102
{ACAD_REACTORS
330
B0D7
102
}
330
B0D7
100
AcDbXrecord
280
     1
102
MATERIAL
148
0.0
149
0.0
149
0.0
 93
        0
 94
      127
282
     0
 72
     0
 77
     0
171
     0
175
     0
179
     0
273
     0
  0
XRECORD
  5
B0D9
102
{ACAD_REACTORS
330
B0D7
102
}
330
B0D7
100
AcDbXrecord
280
     1
270
     1
271
     1
  0
XRECORD
  5
B0D8
102
{ACAD_REACTORS
330
B0D7
102
}
330
B0D7
100
AcDbXrecord
280
     1
270
     1
271
     1
  0
XRECORD
  5
B0DC
102
{ACAD_REACTORS
330
B0D7
102
}
330
B0D7
100
AcDbXrecord
280
     1
270
     1
271
     1
  0
XRECORD
  5
B0DB
102
{ACAD_REACTORS
330
B0D7
102
}
330
B0D7
100
AcDbXrecord
280
     1
270
     1
271
     1
  0
XRECORD
  5
B0DD
102
{ACAD_REACTORS
330
B0D7
102
}
330
B0D7
100
AcDbXrecord
280
     1
270
     1
271
     1
  0
XRECORD
  5
B0DA
102
{ACAD_REACTORS
330
B0D7
102
}
330
B0D7
100
AcDbXrecord
280
     1
270
     1
271
     1
  0
XRECORD
  5
B179
102
{ACAD_REACTORS
330
B178
102
}
330
B178
100
AcDbXrecord
280
     1
102
ACAD_ROUNDTRIP_2012_MLEADER_STYLE
298
     1
  0
CELLSTYLEMAP
  5
B138
102
{ACAD_REACTORS
330
B137
102
}
330
B137
100
AcDbCellStyleMap
 90
        3
300
CELLSTYLE
  1
TABLEFORMAT_BEGIN
 90
        5
170
     1
 91
        0
 92
    32768
 62
   257
 93
        1
300
CONTENTFORMAT
  1
CONTENTFORMAT_BEGIN
 90
        0
 91
        0
 92
      512
 93
        0
300

 40
0.0
140
1.0
 94
        5
 62
     0
340
F
144
6.0
309
CONTENTFORMAT_END
171
     1
301
MARGIN
  1
CELLMARGIN_BEGIN
 40
1.5
 40
1.5
 40
1.5
 40
1.5
 40
4.5
 40
4.5
309
CELLMARGIN_END
 94
        6
 95
        1
302
GRIDFORMAT
  1
GRIDFORMAT_BEGIN
 90
        0
 91
        1
 62
     0
 92
       -2
340
0
 93
        0
 40
1.125
309
GRIDFORMAT_END
 95
        2
302
GRIDFORMAT
  1
GRIDFORMAT_BEGIN
 90
        0
 91
        1
 62
     0
 92
       -2
340
0
 93
        0
 40
1.125
309
GRIDFORMAT_END
 95
        4
302
GRIDFORMAT
  1
GRIDFORMAT_BEGIN
 90
        0
 91
        1
 62
     0
 92
       -2
340
0
 93
        0
 40
1.125
309
GRIDFORMAT_END
 95
        8
302
GRIDFORMAT
  1
GRIDFORMAT_BEGIN
 90
        0
 91
        1
 62
     0
 92
       -2
340
0
 93
        0
 40
1.125
309
GRIDFORMAT_END
 95
       16
302
GRIDFORMAT
  1
GRIDFORMAT_BEGIN
 90
        0
 91
        1
 62
     0
 92
       -2
340
0
 93
        0
 40
1.125
309
GRIDFORMAT_END
 95
       32
302
GRIDFORMAT
  1
GRIDFORMAT_BEGIN
 90
        0
 91
        1
 62
     0
 92
       -2
340
0
 93
        0
 40
1.125
309
GRIDFORMAT_END
309
TABLEFORMAT_END
  1
CELLSTYLE_BEGIN
 90
        1
 91
        1
300
_TITLE
309
CELLSTYLE_END
300
CELLSTYLE
  1
TABLEFORMAT_BEGIN
 90
        5
170
     1
 91
        0
 92
        0
 62
   257
 93
        1
300
CONTENTFORMAT
  1
CONTENTFORMAT_BEGIN
 90
        0
 91
        0
 92
      512
 93
        0
300

 40
0.0
140
1.0
 94
        5
 62
     0
340
F
144
4.5
309
CONTENTFORMAT_END
171
     1
301
MARGIN
  1
CELLMARGIN_BEGIN
 40
1.5
 40
1.5
 40
1.5
 40
1.5
 40
4.5
 40
4.5
309
CELLMARGIN_END
 94
        6
 95
        1
302
GRIDFORMAT
  1
GRIDFORMAT_BEGIN
 90
        0
 91
        1
 62
     0
 92
       -2
340
0
 93
        0
 40
1.125
309
GRIDFORMAT_END
 95
        2
302
GRIDFORMAT
  1
GRIDFORMAT_BEGIN
 90
        0
 91
        1
 62
     0
 92
       -2
340
0
 93
        0
 40
1.125
309
GRIDFORMAT_END
 95
        4
302
GRIDFORMAT
  1
GRIDFORMAT_BEGIN
 90
        0
 91
        1
 62
     0
 92
       -2
340
0
 93
        0
 40
1.125
309
GRIDFORMAT_END
 95
        8
302
GRIDFORMAT
  1
GRIDFORMAT_BEGIN
 90
        0
 91
        1
 62
     0
 92
       -2
340
0
 93
        0
 40
1.125
309
GRIDFORMAT_END
 95
       16
302
GRIDFORMAT
  1
GRIDFORMAT_BEGIN
 90
        0
 91
        1
 62
     0
 92
       -2
340
0
 93
        0
 40
1.125
309
GRIDFORMAT_END
 95
       32
302
GRIDFORMAT
  1
GRIDFORMAT_BEGIN
 90
        0
 91
        1
 62
     0
 92
       -2
340
0
 93
        0
 40
1.125
309
GRIDFORMAT_END
309
TABLEFORMAT_END
  1
CELLSTYLE_BEGIN
 90
        2
 91
        1
300
_HEADER
309
CELLSTYLE_END
300
CELLSTYLE
  1
TABLEFORMAT_BEGIN
 90
        5
170
     1
 91
        0
 92
        0
 62
   257
 93
        1
300
CONTENTFORMAT
  1
CONTENTFORMAT_BEGIN
 90
        0
 91
        0
 92
      512
 93
        0
300

 40
0.0
140
1.0
 94
        2
 62
     0
340
F
144
4.5
309
CONTENTFORMAT_END
171
     1
301
MARGIN
  1
CELLMARGIN_BEGIN
 40
1.5
 40
1.5
 40
1.5
 40
1.5
 40
4.5
 40
4.5
309
CELLMARGIN_END
 94
        6
 95
        1
302
GRIDFORMAT
  1
GRIDFORMAT_BEGIN
 90
        0
 91
        1
 62
     0
 92
       -2
340
0
 93
        0
 40
1.125
309
GRIDFORMAT_END
 95
        2
302
GRIDFORMAT
  1
GRIDFORMAT_BEGIN
 90
        0
 91
        1
 62
     0
 92
       -2
340
0
 93
        0
 40
1.125
309
GRIDFORMAT_END
 95
        4
302
GRIDFORMAT
  1
GRIDFORMAT_BEGIN
 90
        0
 91
        1
 62
     0
 92
       -2
340
0
 93
        0
 40
1.125
309
GRIDFORMAT_END
 95
        8
302
GRIDFORMAT
  1
GRIDFORMAT_BEGIN
 90
        0
 91
        1
 62
     0
 92
       -2
340
0
 93
        0
 40
1.125
309
GRIDFORMAT_END
 95
       16
302
GRIDFORMAT
  1
GRIDFORMAT_BEGIN
 90
        0
 91
        1
 62
     0
 92
       -2
340
0
 93
        0
 40
1.125
309
GRIDFORMAT_END
 95
       32
302
GRIDFORMAT
  1
GRIDFORMAT_BEGIN
 90
        0
 91
        1
 62
     0
 92
       -2
340
0
 93
        0
 40
1.125
309
GRIDFORMAT_END
309
TABLEFORMAT_END
  1
CELLSTYLE_BEGIN
 90
        3
 91
        2
300
_DATA
309
CELLSTYLE_END
  0
XRECORD
  5
B176
102
{ACAD_REACTORS
330
B137
102
}
330
B137
100
AcDbXrecord
280
     1
102
ACAD_ROUNDTRIP_PRE2007_TABLESTYLE
 90
      512
 91
        0
  1

 92
      512
 93
        0
  2

 94
      512
 95
        0
  3

  0
XRECORD
  5
B151
102
{ACAD_REACTORS
330
B150
102
}
330
B150
100
AcDbXrecord
280
     1
102
RTVSPost2010Prop28
280
     1
102
RTVSPost2010PropOp28
 70
     1
102
RTVSPost2010Prop29
280
     1
102
RTVSPost2010PropOp29
 70
     1
102
RTVSPost2010Prop30
280
     0
102
RTVSPost2010PropOp30
 70
     1
102
RTVSPost2010Prop31
280
     0
102
RTVSPost2010PropOp31
 70
     1
102
RTVSPost2010Prop32
280
     0
102
RTVSPost2010PropOp32
 70
     1
102
RTVSPost2010Prop33
280
     0
102
RTVSPost2010PropOp33
 70
     1
102
RTVSPost2010Prop34
280
     0
102
RTVSPost2010PropOp34
 70
     1
102
RTVSPost2010Prop35
280
     0
102
RTVSPost2010PropOp35
 70
     1
102
RTVSPost2010Prop36
280
     0
102
RTVSPost2010PropOp36
 70
     1
102
RTVSPost2010Prop37
 90
       50
102
RTVSPost2010PropOp37
 70
     1
102
RTVSPost2010Prop38
140
0.0
102
RTVSPost2010PropOp38
 70
     1
102
RTVSPost2010Prop39
140
1.0
102
RTVSPost2010PropOp39
 70
     1
102
RTVSPost2010Prop40
 90
        0
102
RTVSPost2010PropOp40
 70
     1
102
RTVSPost2010Prop41ColorIndex
 90
       18
102
RTVSPost2010Prop41ColorRGB
 90
        0
102
RTVSPost2010PropOp41
 70
     1
102
RTVSPost2010Prop42
 90
       50
102
RTVSPost2010PropOp42
 70
     1
102
RTVSPost2010Prop43
 90
        3
102
RTVSPost2010PropOp43
 70
     1
102
RTVSPost2010Prop44ColorIndex
 90
        5
102
RTVSPost2010Prop44ColorRGB
 90
      255
102
RTVSPost2010PropOp44
 70
     1
102
RTVSPost2010Prop45
280
     0
102
RTVSPost2010PropOp45
 70
     1
102
RTVSPost2010Prop46
 90
       50
102
RTVSPost2010PropOp46
 70
     1
102
RTVSPost2010Prop47
 90
       50
102
RTVSPost2010PropOp47
 70
     1
102
RTVSPost2010Prop48
 90
       50
102
RTVSPost2010PropOp48
 70
     1
102
RTVSPost2010Prop49
280
     0
102
RTVSPost2010PropOp49
 70
     1
102
RTVSPost2010Prop50
 90
       50
102
RTVSPost2010PropOp50
 70
     1
102
RTVSPost2010Prop51ColorIndex
 90
      256
102
RTVSPost2010Prop51ColorRGB
 90
-16777216
102
RTVSPost2010PropOp51
 70
     0
102
RTVSPost2010Prop52
140
1.0
102
RTVSPost2010PropOp52
 70
     0
102
RTVSPost2010Prop53
 90
        2
102
RTVSPost2010PropOp53
 70
     1
102
RTVSPost2010Prop54
  1
strokes_ogs.tif
102
RTVSPost2010PropOp54
 70
     1
102
RTVSPost2010Prop55
280
     0
102
RTVSPost2010PropOp55
 70
     1
102
RTVSPost2010Prop56
140
1.0
102
RTVSPost2010PropOp56
 70
     1
102
RTVSPost2010Prop57
140
1.0
102
RTVSPost2010PropOp57
 70
     1
102
RTVSPropertyOp0
 70
     1
102
RTVSPropertyOp1
 70
     1
102
RTVSPropertyOp2
 70
     1
102
RTVSPropertyOp3
 70
     1
102
RTVSPropertyOp4
 70
     1
102
RTVSPropertyOp5
 70
     1
102
RTVSPropertyOp6
 70
     1
102
RTVSPropertyOp7
 70
     1
102
RTVSPropertyOp8
 70
     1
102
RTVSPropertyOp9
 70
     1
102
RTVSPropertyOp10
 70
     1
102
RTVSPropertyOp11
 70
     1
102
RTVSPropertyOp12
 70
     1
102
RTVSPropertyOp13
 70
     1
102
RTVSPropertyOp14
 70
     1
102
RTVSPropertyOp15
 70
     1
102
RTVSPropertyOp16
 70
     1
102
RTVSPropertyOp17
 70
     1
102
RTVSPropertyOp18
 70
     1
102
RTVSPropertyOp19
 70
     1
102
RTVSPropertyOp20
 70
     1
102
RTVSPropertyOp21
 70
     1
102
RTVSPropertyOp22
 70
     1
102
RTVSPropertyOp23
 70
     1
102
RTVSPropertyOp24
 70
     1
102
RTVSPropertyOp25
 70
     1
102
RTVSPropertyOp26
 70
     1
102
RTVSPropertyOp27
 70
     1
102
RTVSPropertyOp28
 70
     1
102
RTVSPropertyOp29
 70
     1
102
RTVSPropertyOp30
 70
     1
102
RTVSPropertyOp31
 70
     1
102
RTVSPropertyOp32
 70
     1
102
RTVSPropertyOp33
 70
     1
102
RTVSPropertyOp34
 70
     1
102
RTVSPropertyOp35
 70
     1
102
RTVSPropertyOp36
 70
     1
102
RTVSPropertyOp37
 70
     1
102
RTVSPropertyOp38
 70
     1
102
RTVSPropertyOp39
 70
     1
102
RTVSPropertyOp40
 70
     1
102
RTVSPropertyOp41
 70
     1
102
RTVSPropertyOp42
 70
     1
102
RTVSPropertyOp43
 70
     1
102
RTVSPropertyOp44
 70
     1
102
RTVSPropertyOp45
 70
     1
102
RTVSPropertyOp46
 70
     1
102
RTVSPropertyOp47
 70
     1
102
RTVSPropertyOp48
 70
     1
102
RTVSPropertyOp49
 70
     1
102
RTVSPropertyOp50
 70
     1
102
RTVSPropertyOp51
 70
     0
102
RTVSPropertyOp52
 70
     0
102
RTVSPropertyOp53
 70
     1
102
RTVSPropertyOp54
 70
     1
102
RTVSPropertyOp55
 70
     1
102
RTVSPropertyOp56
 70
     1
102
RTVSPropertyOp57
 70
     1
102
RTVSPropertyOp58
 70
     1
102
RTVSPropertyOp59
 70
     1
102
RTVSPropertyOp60
 70
     1
102
RTVSPropertyOp61
 70
     1
102
RTVSPropertyOp62
 70
     1
  0
XRECORD
  5
B14F
102
{ACAD_REACTORS
330
B14E
102
}
330
B14E
100
AcDbXrecord
280
     1
102
RTVSPost2010Prop28
280
     0
102
RTVSPost2010PropOp28
 70
     1
102
RTVSPost2010Prop29
280
     1
102
RTVSPost2010PropOp29
 70
     1
102
RTVSPost2010Prop30
280
     1
102
RTVSPost2010PropOp30
 70
     1
102
RTVSPost2010Prop31
280
     0
102
RTVSPost2010PropOp31
 70
     1
102
RTVSPost2010Prop32
280
     0
102
RTVSPost2010PropOp32
 70
     1
102
RTVSPost2010Prop33
280
     0
102
RTVSPost2010PropOp33
 70
     1
102
RTVSPost2010Prop34
280
     0
102
RTVSPost2010PropOp34
 70
     1
102
RTVSPost2010Prop35
280
     0
102
RTVSPost2010PropOp35
 70
     1
102
RTVSPost2010Prop36
280
     0
102
RTVSPost2010PropOp36
 70
     1
102
RTVSPost2010Prop37
 90
       50
102
RTVSPost2010PropOp37
 70
     1
102
RTVSPost2010Prop38
140
0.0
102
RTVSPost2010PropOp38
 70
     1
102
RTVSPost2010Prop39
140
1.0
102
RTVSPost2010PropOp39
 70
     1
102
RTVSPost2010Prop40
 90
        0
102
RTVSPost2010PropOp40
 70
     1
102
RTVSPost2010Prop41ColorIndex
 90
       18
102
RTVSPost2010Prop41ColorRGB
 90
        0
102
RTVSPost2010PropOp41
 70
     1
102
RTVSPost2010Prop42
 90
       50
102
RTVSPost2010PropOp42
 70
     1
102
RTVSPost2010Prop43
 90
        3
102
RTVSPost2010PropOp43
 70
     1
102
RTVSPost2010Prop44ColorIndex
 90
        5
102
RTVSPost2010Prop44ColorRGB
 90
      255
102
RTVSPost2010PropOp44
 70
     1
102
RTVSPost2010Prop45
280
     0
102
RTVSPost2010PropOp45
 70
     1
102
RTVSPost2010Prop46
 90
       50
102
RTVSPost2010PropOp46
 70
     1
102
RTVSPost2010Prop47
 90
       50
102
RTVSPost2010PropOp47
 70
     1
102
RTVSPost2010Prop48
 90
       50
102
RTVSPost2010PropOp48
 70
     1
102
RTVSPost2010Prop49
280
     0
102
RTVSPost2010PropOp49
 70
     1
102
RTVSPost2010Prop50
 90
       50
102
RTVSPost2010PropOp50
 70
     1
102
RTVSPost2010Prop51ColorIndex
 90
      256
102
RTVSPost2010Prop51ColorRGB
 90
-16777216
102
RTVSPost2010PropOp51
 70
     0
102
RTVSPost2010Prop52
140
1.0
102
RTVSPost2010PropOp52
 70
     0
102
RTVSPost2010Prop53
 90
        2
102
RTVSPost2010PropOp53
 70
     1
102
RTVSPost2010Prop54
  1
strokes_ogs.tif
102
RTVSPost2010PropOp54
 70
     1
102
RTVSPost2010Prop55
280
     0
102
RTVSPost2010PropOp55
 70
     1
102
RTVSPost2010Prop56
140
1.0
102
RTVSPost2010PropOp56
 70
     1
102
RTVSPost2010Prop57
140
1.0
102
RTVSPost2010PropOp57
 70
     1
102
RTVSPropertyOp0
 70
     1
102
RTVSPropertyOp1
 70
     1
102
RTVSPropertyOp2
 70
     1
102
RTVSPropertyOp3
 70
     1
102
RTVSPropertyOp4
 70
     1
102
RTVSPropertyOp5
 70
     1
102
RTVSPropertyOp6
 70
     1
102
RTVSPropertyOp7
 70
     1
102
RTVSPropertyOp8
 70
     1
102
RTVSPropertyOp9
 70
     1
102
RTVSPropertyOp10
 70
     1
102
RTVSPropertyOp11
 70
     1
102
RTVSPropertyOp12
 70
     1
102
RTVSPropertyOp13
 70
     1
102
RTVSPropertyOp14
 70
     1
102
RTVSPropertyOp15
 70
     1
102
RTVSPropertyOp16
 70
     1
102
RTVSPropertyOp17
 70
     1
102
RTVSPropertyOp18
 70
     1
102
RTVSPropertyOp19
 70
     1
102
RTVSPropertyOp20
 70
     1
102
RTVSPropertyOp21
 70
     1
102
RTVSPropertyOp22
 70
     1
102
RTVSPropertyOp23
 70
     1
102
RTVSPropertyOp24
 70
     1
102
RTVSPropertyOp25
 70
     1
102
RTVSPropertyOp26
 70
     1
102
RTVSPropertyOp27
 70
     1
102
RTVSPropertyOp28
 70
     1
102
RTVSPropertyOp29
 70
     1
102
RTVSPropertyOp30
 70
     1
102
RTVSPropertyOp31
 70
     1
102
RTVSPropertyOp32
 70
     1
102
RTVSPropertyOp33
 70
     1
102
RTVSPropertyOp34
 70
     1
102
RTVSPropertyOp35
 70
     1
102
RTVSPropertyOp36
 70
     1
102
RTVSPropertyOp37
 70
     1
102
RTVSPropertyOp38
 70
     1
102
RTVSPropertyOp39
 70
     1
102
RTVSPropertyOp40
 70
     1
102
RTVSPropertyOp41
 70
     1
102
RTVSPropertyOp42
 70
     1
102
RTVSPropertyOp43
 70
     1
102
RTVSPropertyOp44
 70
     1
102
RTVSPropertyOp45
 70
     1
102
RTVSPropertyOp46
 70
     1
102
RTVSPropertyOp47
 70
     1
102
RTVSPropertyOp48
 70
     1
102
RTVSPropertyOp49
 70
     1
102
RTVSPropertyOp50
 70
     1
102
RTVSPropertyOp51
 70
     0
102
RTVSPropertyOp52
 70
     0
102
RTVSPropertyOp53
 70
     1
102
RTVSPropertyOp54
 70
     1
102
RTVSPropertyOp55
 70
     1
102
RTVSPropertyOp56
 70
     1
102
RTVSPropertyOp57
 70
     1
102
RTVSPropertyOp58
 70
     1
102
RTVSPropertyOp59
 70
     1
102
RTVSPropertyOp60
 70
     1
102
RTVSPropertyOp61
 70
     1
102
RTVSPropertyOp62
 70
     1
  0
XRECORD
  5
B15D
102
{ACAD_REACTORS
330
B15C
102
}
330
B15C
100
AcDbXrecord
280
     1
102
RTVSPost2010Prop28
280
     0
102
RTVSPost2010PropOp28
 70
     1
102
RTVSPost2010Prop29
280
     1
102
RTVSPost2010PropOp29
 70
     1
102
RTVSPost2010Prop30
280
     1
102
RTVSPost2010PropOp30
 70
     1
102
RTVSPost2010Prop31
280
     0
102
RTVSPost2010PropOp31
 70
     1
102
RTVSPost2010Prop32
280
     0
102
RTVSPost2010PropOp32
 70
     1
102
RTVSPost2010Prop33
280
     0
102
RTVSPost2010PropOp33
 70
     1
102
RTVSPost2010Prop34
280
     0
102
RTVSPost2010PropOp34
 70
     1
102
RTVSPost2010Prop35
280
     0
102
RTVSPost2010PropOp35
 70
     1
102
RTVSPost2010Prop36
280
     0
102
RTVSPost2010PropOp36
 70
     1
102
RTVSPost2010Prop37
 90
       50
102
RTVSPost2010PropOp37
 70
     1
102
RTVSPost2010Prop38
140
0.0
102
RTVSPost2010PropOp38
 70
     1
102
RTVSPost2010Prop39
140
1.0
102
RTVSPost2010PropOp39
 70
     1
102
RTVSPost2010Prop40
 90
        0
102
RTVSPost2010PropOp40
 70
     1
102
RTVSPost2010Prop41ColorIndex
 90
       18
102
RTVSPost2010Prop41ColorRGB
 90
        0
102
RTVSPost2010PropOp41
 70
     1
102
RTVSPost2010Prop42
 90
       50
102
RTVSPost2010PropOp42
 70
     1
102
RTVSPost2010Prop43
 90
        3
102
RTVSPost2010PropOp43
 70
     1
102
RTVSPost2010Prop44ColorIndex
 90
        5
102
RTVSPost2010Prop44ColorRGB
 90
      255
102
RTVSPost2010PropOp44
 70
     1
102
RTVSPost2010Prop45
280
     0
102
RTVSPost2010PropOp45
 70
     1
102
RTVSPost2010Prop46
 90
       50
102
RTVSPost2010PropOp46
 70
     1
102
RTVSPost2010Prop47
 90
       50
102
RTVSPost2010PropOp47
 70
     1
102
RTVSPost2010Prop48
 90
       50
102
RTVSPost2010PropOp48
 70
     1
102
RTVSPost2010Prop49
280
     0
102
RTVSPost2010PropOp49
 70
     1
102
RTVSPost2010Prop50
 90
       50
102
RTVSPost2010PropOp50
 70
     1
102
RTVSPost2010Prop51ColorIndex
 90
      256
102
RTVSPost2010Prop51ColorRGB
 90
-16777216
102
RTVSPost2010PropOp51
 70
     0
102
RTVSPost2010Prop52
140
1.0
102
RTVSPost2010PropOp52
 70
     0
102
RTVSPost2010Prop53
 90
        2
102
RTVSPost2010PropOp53
 70
     1
102
RTVSPost2010Prop54
  1
strokes_ogs.tif
102
RTVSPost2010PropOp54
 70
     1
102
RTVSPost2010Prop55
280
     0
102
RTVSPost2010PropOp55
 70
     1
102
RTVSPost2010Prop56
140
1.0
102
RTVSPost2010PropOp56
 70
     1
102
RTVSPost2010Prop57
140
1.0
102
RTVSPost2010PropOp57
 70
     1
102
RTVSPropertyOp0
 70
     1
102
RTVSPropertyOp1
 70
     1
102
RTVSPropertyOp2
 70
     1
102
RTVSPropertyOp3
 70
     1
102
RTVSPropertyOp4
 70
     1
102
RTVSPropertyOp5
 70
     1
102
RTVSPropertyOp6
 70
     1
102
RTVSPropertyOp7
 70
     1
102
RTVSPropertyOp8
 70
     1
102
RTVSPropertyOp9
 70
     1
102
RTVSPropertyOp10
 70
     1
102
RTVSPropertyOp11
 70
     1
102
RTVSPropertyOp12
 70
     1
102
RTVSPropertyOp13
 70
     1
102
RTVSPropertyOp14
 70
     1
102
RTVSPropertyOp15
 70
     1
102
RTVSPropertyOp16
 70
     1
102
RTVSPropertyOp17
 70
     1
102
RTVSPropertyOp18
 70
     1
102
RTVSPropertyOp19
 70
     1
102
RTVSPropertyOp20
 70
     1
102
RTVSPropertyOp21
 70
     1
102
RTVSPropertyOp22
 70
     1
102
RTVSPropertyOp23
 70
     1
102
RTVSPropertyOp24
 70
     1
102
RTVSPropertyOp25
 70
     1
102
RTVSPropertyOp26
 70
     1
102
RTVSPropertyOp27
 70
     1
102
RTVSPropertyOp28
 70
     1
102
RTVSPropertyOp29
 70
     1
102
RTVSPropertyOp30
 70
     1
102
RTVSPropertyOp31
 70
     1
102
RTVSPropertyOp32
 70
     1
102
RTVSPropertyOp33
 70
     1
102
RTVSPropertyOp34
 70
     1
102
RTVSPropertyOp35
 70
     1
102
RTVSPropertyOp36
 70
     1
102
RTVSPropertyOp37
 70
     1
102
RTVSPropertyOp38
 70
     1
102
RTVSPropertyOp39
 70
     1
102
RTVSPropertyOp40
 70
     1
102
RTVSPropertyOp41
 70
     1
102
RTVSPropertyOp42
 70
     1
102
RTVSPropertyOp43
 70
     1
102
RTVSPropertyOp44
 70
     1
102
RTVSPropertyOp45
 70
     1
102
RTVSPropertyOp46
 70
     1
102
RTVSPropertyOp47
 70
     1
102
RTVSPropertyOp48
 70
     1
102
RTVSPropertyOp49
 70
     1
102
RTVSPropertyOp50
 70
     1
102
RTVSPropertyOp51
 70
     0
102
RTVSPropertyOp52
 70
     0
102
RTVSPropertyOp53
 70
     1
102
RTVSPropertyOp54
 70
     1
102
RTVSPropertyOp55
 70
     1
102
RTVSPropertyOp56
 70
     1
102
RTVSPropertyOp57
 70
     1
102
RTVSPropertyOp58
 70
     1
102
RTVSPropertyOp59
 70
     1
102
RTVSPropertyOp60
 70
     1
102
RTVSPropertyOp61
 70
     1
102
RTVSPropertyOp62
 70
     1
  0
XRECORD
  5
B165
102
{ACAD_REACTORS
330
B164
102
}
330
B164
100
AcDbXrecord
280
     1
102
RTVSPost2010Prop28
280
     0
102
RTVSPost2010PropOp28
 70
     1
102
RTVSPost2010Prop29
280
     1
102
RTVSPost2010PropOp29
 70
     1
102
RTVSPost2010Prop30
280
     1
102
RTVSPost2010PropOp30
 70
     1
102
RTVSPost2010Prop31
280
     0
102
RTVSPost2010PropOp31
 70
     1
102
RTVSPost2010Prop32
280
     0
102
RTVSPost2010PropOp32
 70
     1
102
RTVSPost2010Prop33
280
     0
102
RTVSPost2010PropOp33
 70
     1
102
RTVSPost2010Prop34
280
     0
102
RTVSPost2010PropOp34
 70
     1
102
RTVSPost2010Prop35
280
     0
102
RTVSPost2010PropOp35
 70
     1
102
RTVSPost2010Prop36
280
     0
102
RTVSPost2010PropOp36
 70
     1
102
RTVSPost2010Prop37
 90
       50
102
RTVSPost2010PropOp37
 70
     1
102
RTVSPost2010Prop38
140
0.0
102
RTVSPost2010PropOp38
 70
     1
102
RTVSPost2010Prop39
140
1.0
102
RTVSPost2010PropOp39
 70
     1
102
RTVSPost2010Prop40
 90
        0
102
RTVSPost2010PropOp40
 70
     1
102
RTVSPost2010Prop41ColorIndex
 90
       18
102
RTVSPost2010Prop41ColorRGB
 90
        0
102
RTVSPost2010PropOp41
 70
     1
102
RTVSPost2010Prop42
 90
       50
102
RTVSPost2010PropOp42
 70
     1
102
RTVSPost2010Prop43
 90
        3
102
RTVSPost2010PropOp43
 70
     1
102
RTVSPost2010Prop44ColorIndex
 90
        5
102
RTVSPost2010Prop44ColorRGB
 90
      255
102
RTVSPost2010PropOp44
 70
     1
102
RTVSPost2010Prop45
280
     0
102
RTVSPost2010PropOp45
 70
     1
102
RTVSPost2010Prop46
 90
       50
102
RTVSPost2010PropOp46
 70
     1
102
RTVSPost2010Prop47
 90
       50
102
RTVSPost2010PropOp47
 70
     1
102
RTVSPost2010Prop48
 90
       50
102
RTVSPost2010PropOp48
 70
     1
102
RTVSPost2010Prop49
280
     0
102
RTVSPost2010PropOp49
 70
     1
102
RTVSPost2010Prop50
 90
       50
102
RTVSPost2010PropOp50
 70
     1
102
RTVSPost2010Prop51ColorIndex
 90
      256
102
RTVSPost2010Prop51ColorRGB
 90
-16777216
102
RTVSPost2010PropOp51
 70
     0
102
RTVSPost2010Prop52
140
1.0
102
RTVSPost2010PropOp52
 70
     0
102
RTVSPost2010Prop53
 90
        2
102
RTVSPost2010PropOp53
 70
     1
102
RTVSPost2010Prop54
  1
strokes_ogs.tif
102
RTVSPost2010PropOp54
 70
     1
102
RTVSPost2010Prop55
280
     0
102
RTVSPost2010PropOp55
 70
     1
102
RTVSPost2010Prop56
140
1.0
102
RTVSPost2010PropOp56
 70
     1
102
RTVSPost2010Prop57
140
1.0
102
RTVSPost2010PropOp57
 70
     1
102
RTVSPropertyOp0
 70
     1
102
RTVSPropertyOp1
 70
     1
102
RTVSPropertyOp2
 70
     1
102
RTVSPropertyOp3
 70
     1
102
RTVSPropertyOp4
 70
     1
102
RTVSPropertyOp5
 70
     1
102
RTVSPropertyOp6
 70
     1
102
RTVSPropertyOp7
 70
     1
102
RTVSPropertyOp8
 70
     1
102
RTVSPropertyOp9
 70
     1
102
RTVSPropertyOp10
 70
     1
102
RTVSPropertyOp11
 70
     1
102
RTVSPropertyOp12
 70
     1
102
RTVSPropertyOp13
 70
     1
102
RTVSPropertyOp14
 70
     1
102
RTVSPropertyOp15
 70
     1
102
RTVSPropertyOp16
 70
     1
102
RTVSPropertyOp17
 70
     1
102
RTVSPropertyOp18
 70
     1
102
RTVSPropertyOp19
 70
     1
102
RTVSPropertyOp20
 70
     1
102
RTVSPropertyOp21
 70
     1
102
RTVSPropertyOp22
 70
     1
102
RTVSPropertyOp23
 70
     1
102
RTVSPropertyOp24
 70
     1
102
RTVSPropertyOp25
 70
     1
102
RTVSPropertyOp26
 70
     1
102
RTVSPropertyOp27
 70
     1
102
RTVSPropertyOp28
 70
     1
102
RTVSPropertyOp29
 70
     1
102
RTVSPropertyOp30
 70
     1
102
RTVSPropertyOp31
 70
     1
102
RTVSPropertyOp32
 70
     1
102
RTVSPropertyOp33
 70
     1
102
RTVSPropertyOp34
 70
     1
102
RTVSPropertyOp35
 70
     1
102
RTVSPropertyOp36
 70
     1
102
RTVSPropertyOp37
 70
     1
102
RTVSPropertyOp38
 70
     1
102
RTVSPropertyOp39
 70
     1
102
RTVSPropertyOp40
 70
     1
102
RTVSPropertyOp41
 70
     1
102
RTVSPropertyOp42
 70
     1
102
RTVSPropertyOp43
 70
     1
102
RTVSPropertyOp44
 70
     1
102
RTVSPropertyOp45
 70
     1
102
RTVSPropertyOp46
 70
     1
102
RTVSPropertyOp47
 70
     1
102
RTVSPropertyOp48
 70
     1
102
RTVSPropertyOp49
 70
     1
102
RTVSPropertyOp50
 70
     1
102
RTVSPropertyOp51
 70
     0
102
RTVSPropertyOp52
 70
     0
102
RTVSPropertyOp53
 70
     1
102
RTVSPropertyOp54
 70
     1
102
RTVSPropertyOp55
 70
     1
102
RTVSPropertyOp56
 70
     1
102
RTVSPropertyOp57
 70
     1
102
RTVSPropertyOp58
 70
     1
102
RTVSPropertyOp59
 70
     1
102
RTVSPropertyOp60
 70
     1
102
RTVSPropertyOp61
 70
     1
102
RTVSPropertyOp62
 70
     1
  0
XRECORD
  5
B157
102
{ACAD_REACTORS
330
B156
102
}
330
B156
100
AcDbXrecord
280
     1
102
RTVSPost2010Prop28
280
     0
102
RTVSPost2010PropOp28
 70
     1
102
RTVSPost2010Prop29
280
     1
102
RTVSPost2010PropOp29
 70
     1
102
RTVSPost2010Prop30
280
     1
102
RTVSPost2010PropOp30
 70
     1
102
RTVSPost2010Prop31
280
     0
102
RTVSPost2010PropOp31
 70
     1
102
RTVSPost2010Prop32
280
     0
102
RTVSPost2010PropOp32
 70
     1
102
RTVSPost2010Prop33
280
     0
102
RTVSPost2010PropOp33
 70
     1
102
RTVSPost2010Prop34
280
     0
102
RTVSPost2010PropOp34
 70
     1
102
RTVSPost2010Prop35
280
     0
102
RTVSPost2010PropOp35
 70
     1
102
RTVSPost2010Prop36
280
     0
102
RTVSPost2010PropOp36
 70
     1
102
RTVSPost2010Prop37
 90
       50
102
RTVSPost2010PropOp37
 70
     1
102
RTVSPost2010Prop38
140
0.0
102
RTVSPost2010PropOp38
 70
     1
102
RTVSPost2010Prop39
140
1.0
102
RTVSPost2010PropOp39
 70
     1
102
RTVSPost2010Prop40
 90
        0
102
RTVSPost2010PropOp40
 70
     1
102
RTVSPost2010Prop41ColorIndex
 90
       18
102
RTVSPost2010Prop41ColorRGB
 90
        0
102
RTVSPost2010PropOp41
 70
     1
102
RTVSPost2010Prop42
 90
       50
102
RTVSPost2010PropOp42
 70
     1
102
RTVSPost2010Prop43
 90
        3
102
RTVSPost2010PropOp43
 70
     1
102
RTVSPost2010Prop44ColorIndex
 90
        5
102
RTVSPost2010Prop44ColorRGB
 90
      255
102
RTVSPost2010PropOp44
 70
     1
102
RTVSPost2010Prop45
280
     0
102
RTVSPost2010PropOp45
 70
     1
102
RTVSPost2010Prop46
 90
       50
102
RTVSPost2010PropOp46
 70
     1
102
RTVSPost2010Prop47
 90
       50
102
RTVSPost2010PropOp47
 70
     1
102
RTVSPost2010Prop48
 90
       50
102
RTVSPost2010PropOp48
 70
     1
102
RTVSPost2010Prop49
280
     0
102
RTVSPost2010PropOp49
 70
     1
102
RTVSPost2010Prop50
 90
       50
102
RTVSPost2010PropOp50
 70
     1
102
RTVSPost2010Prop51ColorIndex
 90
      256
102
RTVSPost2010Prop51ColorRGB
 90
-16777216
102
RTVSPost2010PropOp51
 70
     0
102
RTVSPost2010Prop52
140
1.0
102
RTVSPost2010PropOp52
 70
     0
102
RTVSPost2010Prop53
 90
        2
102
RTVSPost2010PropOp53
 70
     1
102
RTVSPost2010Prop54
  1
strokes_ogs.tif
102
RTVSPost2010PropOp54
 70
     1
102
RTVSPost2010Prop55
280
     0
102
RTVSPost2010PropOp55
 70
     1
102
RTVSPost2010Prop56
140
1.0
102
RTVSPost2010PropOp56
 70
     1
102
RTVSPost2010Prop57
140
1.0
102
RTVSPost2010PropOp57
 70
     1
102
RTVSPropertyOp0
 70
     1
102
RTVSPropertyOp1
 70
     1
102
RTVSPropertyOp2
 70
     1
102
RTVSPropertyOp3
 70
     1
102
RTVSPropertyOp4
 70
     1
102
RTVSPropertyOp5
 70
     1
102
RTVSPropertyOp6
 70
     1
102
RTVSPropertyOp7
 70
     1
102
RTVSPropertyOp8
 70
     1
102
RTVSPropertyOp9
 70
     1
102
RTVSPropertyOp10
 70
     1
102
RTVSPropertyOp11
 70
     1
102
RTVSPropertyOp12
 70
     1
102
RTVSPropertyOp13
 70
     1
102
RTVSPropertyOp14
 70
     1
102
RTVSPropertyOp15
 70
     1
102
RTVSPropertyOp16
 70
     1
102
RTVSPropertyOp17
 70
     1
102
RTVSPropertyOp18
 70
     1
102
RTVSPropertyOp19
 70
     1
102
RTVSPropertyOp20
 70
     1
102
RTVSPropertyOp21
 70
     1
102
RTVSPropertyOp22
 70
     1
102
RTVSPropertyOp23
 70
     1
102
RTVSPropertyOp24
 70
     1
102
RTVSPropertyOp25
 70
     1
102
RTVSPropertyOp26
 70
     1
102
RTVSPropertyOp27
 70
     1
102
RTVSPropertyOp28
 70
     1
102
RTVSPropertyOp29
 70
     1
102
RTVSPropertyOp30
 70
     1
102
RTVSPropertyOp31
 70
     1
102
RTVSPropertyOp32
 70
     1
102
RTVSPropertyOp33
 70
     1
102
RTVSPropertyOp34
 70
     1
102
RTVSPropertyOp35
 70
     1
102
RTVSPropertyOp36
 70
     1
102
RTVSPropertyOp37
 70
     1
102
RTVSPropertyOp38
 70
     1
102
RTVSPropertyOp39
 70
     1
102
RTVSPropertyOp40
 70
     1
102
RTVSPropertyOp41
 70
     1
102
RTVSPropertyOp42
 70
     1
102
RTVSPropertyOp43
 70
     1
102
RTVSPropertyOp44
 70
     1
102
RTVSPropertyOp45
 70
     1
102
RTVSPropertyOp46
 70
     1
102
RTVSPropertyOp47
 70
     1
102
RTVSPropertyOp48
 70
     1
102
RTVSPropertyOp49
 70
     1
102
RTVSPropertyOp50
 70
     1
102
RTVSPropertyOp51
 70
     0
102
RTVSPropertyOp52
 70
     0
102
RTVSPropertyOp53
 70
     1
102
RTVSPropertyOp54
 70
     1
102
RTVSPropertyOp55
 70
     1
102
RTVSPropertyOp56
 70
     1
102
RTVSPropertyOp57
 70
     1
102
RTVSPropertyOp58
 70
     1
102
RTVSPropertyOp59
 70
     1
102
RTVSPropertyOp60
 70
     1
102
RTVSPropertyOp61
 70
     1
102
RTVSPropertyOp62
 70
     1
  0
XRECORD
  5
B15B
102
{ACAD_REACTORS
330
B15A
102
}
330
B15A
100
AcDbXrecord
280
     1
102
RTVSPost2010Prop28
280
     0
102
RTVSPost2010PropOp28
 70
     1
102
RTVSPost2010Prop29
280
     1
102
RTVSPost2010PropOp29
 70
     1
102
RTVSPost2010Prop30
280
     1
102
RTVSPost2010PropOp30
 70
     1
102
RTVSPost2010Prop31
280
     0
102
RTVSPost2010PropOp31
 70
     1
102
RTVSPost2010Prop32
280
     0
102
RTVSPost2010PropOp32
 70
     1
102
RTVSPost2010Prop33
280
     0
102
RTVSPost2010PropOp33
 70
     1
102
RTVSPost2010Prop34
280
     0
102
RTVSPost2010PropOp34
 70
     1
102
RTVSPost2010Prop35
280
     0
102
RTVSPost2010PropOp35
 70
     1
102
RTVSPost2010Prop36
280
     0
102
RTVSPost2010PropOp36
 70
     1
102
RTVSPost2010Prop37
 90
       50
102
RTVSPost2010PropOp37
 70
     1
102
RTVSPost2010Prop38
140
0.0
102
RTVSPost2010PropOp38
 70
     1
102
RTVSPost2010Prop39
140
1.0
102
RTVSPost2010PropOp39
 70
     1
102
RTVSPost2010Prop40
 90
        0
102
RTVSPost2010PropOp40
 70
     1
102
RTVSPost2010Prop41ColorIndex
 90
       18
102
RTVSPost2010Prop41ColorRGB
 90
        0
102
RTVSPost2010PropOp41
 70
     1
102
RTVSPost2010Prop42
 90
       50
102
RTVSPost2010PropOp42
 70
     1
102
RTVSPost2010Prop43
 90
        3
102
RTVSPost2010PropOp43
 70
     1
102
RTVSPost2010Prop44ColorIndex
 90
        5
102
RTVSPost2010Prop44ColorRGB
 90
      255
102
RTVSPost2010PropOp44
 70
     1
102
RTVSPost2010Prop45
280
     0
102
RTVSPost2010PropOp45
 70
     1
102
RTVSPost2010Prop46
 90
       50
102
RTVSPost2010PropOp46
 70
     1
102
RTVSPost2010Prop47
 90
       50
102
RTVSPost2010PropOp47
 70
     1
102
RTVSPost2010Prop48
 90
       50
102
RTVSPost2010PropOp48
 70
     1
102
RTVSPost2010Prop49
280
     0
102
RTVSPost2010PropOp49
 70
     1
102
RTVSPost2010Prop50
 90
       50
102
RTVSPost2010PropOp50
 70
     1
102
RTVSPost2010Prop51ColorIndex
 90
      256
102
RTVSPost2010Prop51ColorRGB
 90
-16777216
102
RTVSPost2010PropOp51
 70
     0
102
RTVSPost2010Prop52
140
1.0
102
RTVSPost2010PropOp52
 70
     0
102
RTVSPost2010Prop53
 90
        2
102
RTVSPost2010PropOp53
 70
     1
102
RTVSPost2010Prop54
  1
strokes_ogs.tif
102
RTVSPost2010PropOp54
 70
     1
102
RTVSPost2010Prop55
280
     0
102
RTVSPost2010PropOp55
 70
     1
102
RTVSPost2010Prop56
140
1.0
102
RTVSPost2010PropOp56
 70
     1
102
RTVSPost2010Prop57
140
1.0
102
RTVSPost2010PropOp57
 70
     1
102
RTVSPropertyOp0
 70
     1
102
RTVSPropertyOp1
 70
     1
102
RTVSPropertyOp2
 70
     1
102
RTVSPropertyOp3
 70
     1
102
RTVSPropertyOp4
 70
     1
102
RTVSPropertyOp5
 70
     1
102
RTVSPropertyOp6
 70
     1
102
RTVSPropertyOp7
 70
     1
102
RTVSPropertyOp8
 70
     1
102
RTVSPropertyOp9
 70
     1
102
RTVSPropertyOp10
 70
     1
102
RTVSPropertyOp11
 70
     1
102
RTVSPropertyOp12
 70
     1
102
RTVSPropertyOp13
 70
     1
102
RTVSPropertyOp14
 70
     1
102
RTVSPropertyOp15
 70
     1
102
RTVSPropertyOp16
 70
     1
102
RTVSPropertyOp17
 70
     1
102
RTVSPropertyOp18
 70
     1
102
RTVSPropertyOp19
 70
     1
102
RTVSPropertyOp20
 70
     1
102
RTVSPropertyOp21
 70
     1
102
RTVSPropertyOp22
 70
     1
102
RTVSPropertyOp23
 70
     1
102
RTVSPropertyOp24
 70
     1
102
RTVSPropertyOp25
 70
     1
102
RTVSPropertyOp26
 70
     1
102
RTVSPropertyOp27
 70
     1
102
RTVSPropertyOp28
 70
     1
102
RTVSPropertyOp29
 70
     1
102
RTVSPropertyOp30
 70
     1
102
RTVSPropertyOp31
 70
     1
102
RTVSPropertyOp32
 70
     1
102
RTVSPropertyOp33
 70
     1
102
RTVSPropertyOp34
 70
     1
102
RTVSPropertyOp35
 70
     1
102
RTVSPropertyOp36
 70
     1
102
RTVSPropertyOp37
 70
     1
102
RTVSPropertyOp38
 70
     1
102
RTVSPropertyOp39
 70
     1
102
RTVSPropertyOp40
 70
     1
102
RTVSPropertyOp41
 70
     1
102
RTVSPropertyOp42
 70
     1
102
RTVSPropertyOp43
 70
     1
102
RTVSPropertyOp44
 70
     1
102
RTVSPropertyOp45
 70
     1
102
RTVSPropertyOp46
 70
     1
102
RTVSPropertyOp47
 70
     1
102
RTVSPropertyOp48
 70
     1
102
RTVSPropertyOp49
 70
     1
102
RTVSPropertyOp50
 70
     1
102
RTVSPropertyOp51
 70
     0
102
RTVSPropertyOp52
 70
     0
102
RTVSPropertyOp53
 70
     1
102
RTVSPropertyOp54
 70
     1
102
RTVSPropertyOp55
 70
     1
102
RTVSPropertyOp56
 70
     1
102
RTVSPropertyOp57
 70
     1
102
RTVSPropertyOp58
 70
     1
102
RTVSPropertyOp59
 70
     1
102
RTVSPropertyOp60
 70
     1
102
RTVSPropertyOp61
 70
     1
102
RTVSPropertyOp62
 70
     1
  0
XRECORD
  5
B175
102
{ACAD_REACTORS
330
B174
102
}
330
B174
100
AcDbXrecord
280
     1
102
RTVSPost2010Prop28
280
     0
102
RTVSPost2010PropOp28
 70
     0
102
RTVSPost2010Prop29
280
     1
102
RTVSPost2010PropOp29
 70
     0
102
RTVSPost2010Prop30
280
     1
102
RTVSPost2010PropOp30
 70
     0
102
RTVSPost2010Prop31
280
     0
102
RTVSPost2010PropOp31
 70
     0
102
RTVSPost2010Prop32
280
     0
102
RTVSPost2010PropOp32
 70
     0
102
RTVSPost2010Prop33
280
     0
102
RTVSPost2010PropOp33
 70
     0
102
RTVSPost2010Prop34
280
     0
102
RTVSPost2010PropOp34
 70
     0
102
RTVSPost2010Prop35
280
     0
102
RTVSPost2010PropOp35
 70
     0
102
RTVSPost2010Prop36
280
     0
102
RTVSPost2010PropOp36
 70
     0
102
RTVSPost2010Prop37
 90
       50
102
RTVSPost2010PropOp37
 70
     0
102
RTVSPost2010Prop38
140
0.0
102
RTVSPost2010PropOp38
 70
     0
102
RTVSPost2010Prop39
140
1.0
102
RTVSPost2010PropOp39
 70
     0
102
RTVSPost2010Prop40
 90
        0
102
RTVSPost2010PropOp40
 70
     0
102
RTVSPost2010Prop41ColorIndex
 90
       18
102
RTVSPost2010Prop41ColorRGB
 90
        0
102
RTVSPost2010PropOp41
 70
     0
102
RTVSPost2010Prop42
 90
       50
102
RTVSPost2010PropOp42
 70
     0
102
RTVSPost2010Prop43
 90
        3
102
RTVSPost2010PropOp43
 70
     0
102
RTVSPost2010Prop44ColorIndex
 90
        5
102
RTVSPost2010Prop44ColorRGB
 90
      255
102
RTVSPost2010PropOp44
 70
     0
102
RTVSPost2010Prop45
280
     0
102
RTVSPost2010PropOp45
 70
     0
102
RTVSPost2010Prop46
 90
       50
102
RTVSPost2010PropOp46
 70
     0
102
RTVSPost2010Prop47
 90
       50
102
RTVSPost2010PropOp47
 70
     0
102
RTVSPost2010Prop48
 90
       50
102
RTVSPost2010PropOp48
 70
     0
102
RTVSPost2010Prop49
280
     0
102
RTVSPost2010PropOp49
 70
     0
102
RTVSPost2010Prop50
 90
       50
102
RTVSPost2010PropOp50
 70
     0
102
RTVSPost2010Prop51ColorIndex
 90
      256
102
RTVSPost2010Prop51ColorRGB
 90
-16777216
102
RTVSPost2010PropOp51
 70
     0
102
RTVSPost2010Prop52
140
1.0
102
RTVSPost2010PropOp52
 70
     0
102
RTVSPost2010Prop53
 90
        2
102
RTVSPost2010PropOp53
 70
     0
102
RTVSPost2010Prop54
  1
strokes_ogs.tif
102
RTVSPost2010PropOp54
 70
     0
102
RTVSPost2010Prop55
280
     0
102
RTVSPost2010PropOp55
 70
     0
102
RTVSPost2010Prop56
140
1.0
102
RTVSPost2010PropOp56
 70
     0
102
RTVSPost2010Prop57
140
1.0
102
RTVSPost2010PropOp57
 70
     0
102
RTVSPropertyOp0
 70
     0
102
RTVSPropertyOp1
 70
     0
102
RTVSPropertyOp2
 70
     0
102
RTVSPropertyOp3
 70
     0
102
RTVSPropertyOp4
 70
     0
102
RTVSPropertyOp5
 70
     0
102
RTVSPropertyOp6
 70
     0
102
RTVSPropertyOp7
 70
     0
102
RTVSPropertyOp8
 70
     0
102
RTVSPropertyOp9
 70
     0
102
RTVSPropertyOp10
 70
     0
102
RTVSPropertyOp11
 70
     0
102
RTVSPropertyOp12
 70
     0
102
RTVSPropertyOp13
 70
     0
102
RTVSPropertyOp14
 70
     2
102
RTVSPropertyOp15
 70
     0
102
RTVSPropertyOp16
 70
     0
102
RTVSPropertyOp17
 70
     0
102
RTVSPropertyOp18
 70
     0
102
RTVSPropertyOp19
 70
     0
102
RTVSPropertyOp20
 70
     0
102
RTVSPropertyOp21
 70
     0
102
RTVSPropertyOp22
 70
     0
102
RTVSPropertyOp23
 70
     0
102
RTVSPropertyOp24
 70
     0
102
RTVSPropertyOp25
 70
     0
102
RTVSPropertyOp26
 70
     0
102
RTVSPropertyOp27
 70
     0
102
RTVSPropertyOp28
 70
     0
102
RTVSPropertyOp29
 70
     0
102
RTVSPropertyOp30
 70
     0
102
RTVSPropertyOp31
 70
     0
102
RTVSPropertyOp32
 70
     0
102
RTVSPropertyOp33
 70
     0
102
RTVSPropertyOp34
 70
     0
102
RTVSPropertyOp35
 70
     0
102
RTVSPropertyOp36
 70
     0
102
RTVSPropertyOp37
 70
     0
102
RTVSPropertyOp38
 70
     0
102
RTVSPropertyOp39
 70
     0
102
RTVSPropertyOp40
 70
     0
102
RTVSPropertyOp41
 70
     0
102
RTVSPropertyOp42
 70
     0
102
RTVSPropertyOp43
 70
     0
102
RTVSPropertyOp44
 70
     0
102
RTVSPropertyOp45
 70
     0
102
RTVSPropertyOp46
 70
     0
102
RTVSPropertyOp47
 70
     0
102
RTVSPropertyOp48
 70
     0
102
RTVSPropertyOp49
 70
     0
102
RTVSPropertyOp50
 70
     0
102
RTVSPropertyOp51
 70
     0
102
RTVSPropertyOp52
 70
     0
102
RTVSPropertyOp53
 70
     0
102
RTVSPropertyOp54
 70
     0
102
RTVSPropertyOp55
 70
     0
102
RTVSPropertyOp56
 70
     0
102
RTVSPropertyOp57
 70
     0
102
RTVSPropertyOp58
 70
     0
102
RTVSPropertyOp59
 70
     0
102
RTVSPropertyOp60
 70
     0
102
RTVSPropertyOp61
 70
     0
102
RTVSPropertyOp62
 70
     0
  0
XRECORD
  5
B163
102
{ACAD_REACTORS
330
B162
102
}
330
B162
100
AcDbXrecord
280
     1
102
RTVSPost2010Prop28
280
     0
102
RTVSPost2010PropOp28
 70
     1
102
RTVSPost2010Prop29
280
     1
102
RTVSPost2010PropOp29
 70
     1
102
RTVSPost2010Prop30
280
     1
102
RTVSPost2010PropOp30
 70
     1
102
RTVSPost2010Prop31
280
     0
102
RTVSPost2010PropOp31
 70
     1
102
RTVSPost2010Prop32
280
     0
102
RTVSPost2010PropOp32
 70
     1
102
RTVSPost2010Prop33
280
     0
102
RTVSPost2010PropOp33
 70
     1
102
RTVSPost2010Prop34
280
     0
102
RTVSPost2010PropOp34
 70
     1
102
RTVSPost2010Prop35
280
     0
102
RTVSPost2010PropOp35
 70
     1
102
RTVSPost2010Prop36
280
     0
102
RTVSPost2010PropOp36
 70
     1
102
RTVSPost2010Prop37
 90
       50
102
RTVSPost2010PropOp37
 70
     1
102
RTVSPost2010Prop38
140
0.0
102
RTVSPost2010PropOp38
 70
     1
102
RTVSPost2010Prop39
140
1.0
102
RTVSPost2010PropOp39
 70
     1
102
RTVSPost2010Prop40
 90
        0
102
RTVSPost2010PropOp40
 70
     1
102
RTVSPost2010Prop41ColorIndex
 90
       18
102
RTVSPost2010Prop41ColorRGB
 90
        0
102
RTVSPost2010PropOp41
 70
     1
102
RTVSPost2010Prop42
 90
       50
102
RTVSPost2010PropOp42
 70
     1
102
RTVSPost2010Prop43
 90
        3
102
RTVSPost2010PropOp43
 70
     1
102
RTVSPost2010Prop44ColorIndex
 90
        5
102
RTVSPost2010Prop44ColorRGB
 90
      255
102
RTVSPost2010PropOp44
 70
     1
102
RTVSPost2010Prop45
280
     0
102
RTVSPost2010PropOp45
 70
     1
102
RTVSPost2010Prop46
 90
       50
102
RTVSPost2010PropOp46
 70
     1
102
RTVSPost2010Prop47
 90
       50
102
RTVSPost2010PropOp47
 70
     1
102
RTVSPost2010Prop48
 90
       50
102
RTVSPost2010PropOp48
 70
     1
102
RTVSPost2010Prop49
280
     0
102
RTVSPost2010PropOp49
 70
     1
102
RTVSPost2010Prop50
 90
       50
102
RTVSPost2010PropOp50
 70
     1
102
RTVSPost2010Prop51ColorIndex
 90
      256
102
RTVSPost2010Prop51ColorRGB
 90
-16777216
102
RTVSPost2010PropOp51
 70
     0
102
RTVSPost2010Prop52
140
1.0
102
RTVSPost2010PropOp52
 70
     0
102
RTVSPost2010Prop53
 90
        2
102
RTVSPost2010PropOp53
 70
     1
102
RTVSPost2010Prop54
  1
strokes_ogs.tif
102
RTVSPost2010PropOp54
 70
     1
102
RTVSPost2010Prop55
280
     0
102
RTVSPost2010PropOp55
 70
     1
102
RTVSPost2010Prop56
140
1.0
102
RTVSPost2010PropOp56
 70
     1
102
RTVSPost2010Prop57
140
1.0
102
RTVSPost2010PropOp57
 70
     1
102
RTVSPropertyOp0
 70
     1
102
RTVSPropertyOp1
 70
     1
102
RTVSPropertyOp2
 70
     1
102
RTVSPropertyOp3
 70
     1
102
RTVSPropertyOp4
 70
     1
102
RTVSPropertyOp5
 70
     1
102
RTVSPropertyOp6
 70
     1
102
RTVSPropertyOp7
 70
     1
102
RTVSPropertyOp8
 70
     1
102
RTVSPropertyOp9
 70
     1
102
RTVSPropertyOp10
 70
     1
102
RTVSPropertyOp11
 70
     1
102
RTVSPropertyOp12
 70
     1
102
RTVSPropertyOp13
 70
     1
102
RTVSPropertyOp14
 70
     1
102
RTVSPropertyOp15
 70
     1
102
RTVSPropertyOp16
 70
     1
102
RTVSPropertyOp17
 70
     1
102
RTVSPropertyOp18
 70
     1
102
RTVSPropertyOp19
 70
     1
102
RTVSPropertyOp20
 70
     1
102
RTVSPropertyOp21
 70
     1
102
RTVSPropertyOp22
 70
     1
102
RTVSPropertyOp23
 70
     1
102
RTVSPropertyOp24
 70
     1
102
RTVSPropertyOp25
 70
     1
102
RTVSPropertyOp26
 70
     1
102
RTVSPropertyOp27
 70
     1
102
RTVSPropertyOp28
 70
     1
102
RTVSPropertyOp29
 70
     1
102
RTVSPropertyOp30
 70
     1
102
RTVSPropertyOp31
 70
     1
102
RTVSPropertyOp32
 70
     1
102
RTVSPropertyOp33
 70
     1
102
RTVSPropertyOp34
 70
     1
102
RTVSPropertyOp35
 70
     1
102
RTVSPropertyOp36
 70
     1
102
RTVSPropertyOp37
 70
     1
102
RTVSPropertyOp38
 70
     1
102
RTVSPropertyOp39
 70
     1
102
RTVSPropertyOp40
 70
     1
102
RTVSPropertyOp41
 70
     1
102
RTVSPropertyOp42
 70
     1
102
RTVSPropertyOp43
 70
     1
102
RTVSPropertyOp44
 70
     1
102
RTVSPropertyOp45
 70
     1
102
RTVSPropertyOp46
 70
     1
102
RTVSPropertyOp47
 70
     1
102
RTVSPropertyOp48
 70
     1
102
RTVSPropertyOp49
 70
     1
102
RTVSPropertyOp50
 70
     1
102
RTVSPropertyOp51
 70
     0
102
RTVSPropertyOp52
 70
     0
102
RTVSPropertyOp53
 70
     1
102
RTVSPropertyOp54
 70
     1
102
RTVSPropertyOp55
 70
     1
102
RTVSPropertyOp56
 70
     1
102
RTVSPropertyOp57
 70
     1
102
RTVSPropertyOp58
 70
     1
102
RTVSPropertyOp59
 70
     1
102
RTVSPropertyOp60
 70
     1
102
RTVSPropertyOp61
 70
     1
102
RTVSPropertyOp62
 70
     1
  0
XRECORD
  5
B147
102
{ACAD_REACTORS
330
B146
102
}
330
B146
100
AcDbXrecord
280
     1
102
RTVSPost2010Prop28
280
     0
102
RTVSPost2010PropOp28
 70
     1
102
RTVSPost2010Prop29
280
     1
102
RTVSPost2010PropOp29
 70
     1
102
RTVSPost2010Prop30
280
     1
102
RTVSPost2010PropOp30
 70
     1
102
RTVSPost2010Prop31
280
     0
102
RTVSPost2010PropOp31
 70
     1
102
RTVSPost2010Prop32
280
     0
102
RTVSPost2010PropOp32
 70
     1
102
RTVSPost2010Prop33
280
     0
102
RTVSPost2010PropOp33
 70
     1
102
RTVSPost2010Prop34
280
     0
102
RTVSPost2010PropOp34
 70
     1
102
RTVSPost2010Prop35
280
     0
102
RTVSPost2010PropOp35
 70
     1
102
RTVSPost2010Prop36
280
     0
102
RTVSPost2010PropOp36
 70
     1
102
RTVSPost2010Prop37
 90
       50
102
RTVSPost2010PropOp37
 70
     1
102
RTVSPost2010Prop38
140
0.0
102
RTVSPost2010PropOp38
 70
     1
102
RTVSPost2010Prop39
140
1.0
102
RTVSPost2010PropOp39
 70
     1
102
RTVSPost2010Prop40
 90
        0
102
RTVSPost2010PropOp40
 70
     1
102
RTVSPost2010Prop41ColorIndex
 90
       18
102
RTVSPost2010Prop41ColorRGB
 90
        0
102
RTVSPost2010PropOp41
 70
     1
102
RTVSPost2010Prop42
 90
       50
102
RTVSPost2010PropOp42
 70
     1
102
RTVSPost2010Prop43
 90
        3
102
RTVSPost2010PropOp43
 70
     1
102
RTVSPost2010Prop44ColorIndex
 90
        5
102
RTVSPost2010Prop44ColorRGB
 90
      255
102
RTVSPost2010PropOp44
 70
     1
102
RTVSPost2010Prop45
280
     0
102
RTVSPost2010PropOp45
 70
     1
102
RTVSPost2010Prop46
 90
       50
102
RTVSPost2010PropOp46
 70
     1
102
RTVSPost2010Prop47
 90
       50
102
RTVSPost2010PropOp47
 70
     1
102
RTVSPost2010Prop48
 90
       50
102
RTVSPost2010PropOp48
 70
     1
102
RTVSPost2010Prop49
280
     0
102
RTVSPost2010PropOp49
 70
     1
102
RTVSPost2010Prop50
 90
       50
102
RTVSPost2010PropOp50
 70
     1
102
RTVSPost2010Prop51ColorIndex
 90
      256
102
RTVSPost2010Prop51ColorRGB
 90
-16777216
102
RTVSPost2010PropOp51
 70
     0
102
RTVSPost2010Prop52
140
1.0
102
RTVSPost2010PropOp52
 70
     0
102
RTVSPost2010Prop53
 90
        2
102
RTVSPost2010PropOp53
 70
     1
102
RTVSPost2010Prop54
  1
strokes_ogs.tif
102
RTVSPost2010PropOp54
 70
     1
102
RTVSPost2010Prop55
280
     0
102
RTVSPost2010PropOp55
 70
     1
102
RTVSPost2010Prop56
140
1.0
102
RTVSPost2010PropOp56
 70
     1
102
RTVSPost2010Prop57
140
1.0
102
RTVSPost2010PropOp57
 70
     1
102
RTVSPropertyOp0
 70
     1
102
RTVSPropertyOp1
 70
     1
102
RTVSPropertyOp2
 70
     1
102
RTVSPropertyOp3
 70
     1
102
RTVSPropertyOp4
 70
     1
102
RTVSPropertyOp5
 70
     1
102
RTVSPropertyOp6
 70
     1
102
RTVSPropertyOp7
 70
     1
102
RTVSPropertyOp8
 70
     1
102
RTVSPropertyOp9
 70
     1
102
RTVSPropertyOp10
 70
     1
102
RTVSPropertyOp11
 70
     1
102
RTVSPropertyOp12
 70
     1
102
RTVSPropertyOp13
 70
     1
102
RTVSPropertyOp14
 70
     1
102
RTVSPropertyOp15
 70
     1
102
RTVSPropertyOp16
 70
     1
102
RTVSPropertyOp17
 70
     1
102
RTVSPropertyOp18
 70
     1
102
RTVSPropertyOp19
 70
     1
102
RTVSPropertyOp20
 70
     1
102
RTVSPropertyOp21
 70
     1
102
RTVSPropertyOp22
 70
     1
102
RTVSPropertyOp23
 70
     1
102
RTVSPropertyOp24
 70
     1
102
RTVSPropertyOp25
 70
     1
102
RTVSPropertyOp26
 70
     1
102
RTVSPropertyOp27
 70
     1
102
RTVSPropertyOp28
 70
     1
102
RTVSPropertyOp29
 70
     1
102
RTVSPropertyOp30
 70
     1
102
RTVSPropertyOp31
 70
     1
102
RTVSPropertyOp32
 70
     1
102
RTVSPropertyOp33
 70
     1
102
RTVSPropertyOp34
 70
     1
102
RTVSPropertyOp35
 70
     1
102
RTVSPropertyOp36
 70
     1
102
RTVSPropertyOp37
 70
     1
102
RTVSPropertyOp38
 70
     1
102
RTVSPropertyOp39
 70
     1
102
RTVSPropertyOp40
 70
     1
102
RTVSPropertyOp41
 70
     1
102
RTVSPropertyOp42
 70
     1
102
RTVSPropertyOp43
 70
     1
102
RTVSPropertyOp44
 70
     1
102
RTVSPropertyOp45
 70
     1
102
RTVSPropertyOp46
 70
     1
102
RTVSPropertyOp47
 70
     1
102
RTVSPropertyOp48
 70
     1
102
RTVSPropertyOp49
 70
     1
102
RTVSPropertyOp50
 70
     1
102
RTVSPropertyOp51
 70
     0
102
RTVSPropertyOp52
 70
     0
102
RTVSPropertyOp53
 70
     1
102
RTVSPropertyOp54
 70
     1
102
RTVSPropertyOp55
 70
     1
102
RTVSPropertyOp56
 70
     1
102
RTVSPropertyOp57
 70
     1
102
RTVSPropertyOp58
 70
     1
102
RTVSPropertyOp59
 70
     1
102
RTVSPropertyOp60
 70
     1
102
RTVSPropertyOp61
 70
     1
102
RTVSPropertyOp62
 70
     1
  0
XRECORD
  5
B149
102
{ACAD_REACTORS
330
B148
102
}
330
B148
100
AcDbXrecord
280
     1
102
RTVSPost2010Prop28
280
     0
102
RTVSPost2010PropOp28
 70
     1
102
RTVSPost2010Prop29
280
     1
102
RTVSPost2010PropOp29
 70
     1
102
RTVSPost2010Prop30
280
     1
102
RTVSPost2010PropOp30
 70
     1
102
RTVSPost2010Prop31
280
     0
102
RTVSPost2010PropOp31
 70
     1
102
RTVSPost2010Prop32
280
     0
102
RTVSPost2010PropOp32
 70
     1
102
RTVSPost2010Prop33
280
     0
102
RTVSPost2010PropOp33
 70
     1
102
RTVSPost2010Prop34
280
     0
102
RTVSPost2010PropOp34
 70
     1
102
RTVSPost2010Prop35
280
     0
102
RTVSPost2010PropOp35
 70
     1
102
RTVSPost2010Prop36
280
     0
102
RTVSPost2010PropOp36
 70
     1
102
RTVSPost2010Prop37
 90
       50
102
RTVSPost2010PropOp37
 70
     1
102
RTVSPost2010Prop38
140
0.0
102
RTVSPost2010PropOp38
 70
     1
102
RTVSPost2010Prop39
140
1.0
102
RTVSPost2010PropOp39
 70
     1
102
RTVSPost2010Prop40
 90
        0
102
RTVSPost2010PropOp40
 70
     1
102
RTVSPost2010Prop41ColorIndex
 90
       18
102
RTVSPost2010Prop41ColorRGB
 90
        0
102
RTVSPost2010PropOp41
 70
     1
102
RTVSPost2010Prop42
 90
       50
102
RTVSPost2010PropOp42
 70
     1
102
RTVSPost2010Prop43
 90
        3
102
RTVSPost2010PropOp43
 70
     1
102
RTVSPost2010Prop44ColorIndex
 90
        5
102
RTVSPost2010Prop44ColorRGB
 90
      255
102
RTVSPost2010PropOp44
 70
     1
102
RTVSPost2010Prop45
280
     0
102
RTVSPost2010PropOp45
 70
     1
102
RTVSPost2010Prop46
 90
       50
102
RTVSPost2010PropOp46
 70
     1
102
RTVSPost2010Prop47
 90
       50
102
RTVSPost2010PropOp47
 70
     1
102
RTVSPost2010Prop48
 90
       50
102
RTVSPost2010PropOp48
 70
     1
102
RTVSPost2010Prop49
280
     0
102
RTVSPost2010PropOp49
 70
     1
102
RTVSPost2010Prop50
 90
       50
102
RTVSPost2010PropOp50
 70
     1
102
RTVSPost2010Prop51ColorIndex
 90
      256
102
RTVSPost2010Prop51ColorRGB
 90
-16777216
102
RTVSPost2010PropOp51
 70
     0
102
RTVSPost2010Prop52
140
1.0
102
RTVSPost2010PropOp52
 70
     0
102
RTVSPost2010Prop53
 90
        2
102
RTVSPost2010PropOp53
 70
     1
102
RTVSPost2010Prop54
  1
strokes_ogs.tif
102
RTVSPost2010PropOp54
 70
     1
102
RTVSPost2010Prop55
280
     0
102
RTVSPost2010PropOp55
 70
     1
102
RTVSPost2010Prop56
140
1.0
102
RTVSPost2010PropOp56
 70
     1
102
RTVSPost2010Prop57
140
1.0
102
RTVSPost2010PropOp57
 70
     1
102
RTVSPropertyOp0
 70
     1
102
RTVSPropertyOp1
 70
     1
102
RTVSPropertyOp2
 70
     1
102
RTVSPropertyOp3
 70
     1
102
RTVSPropertyOp4
 70
     1
102
RTVSPropertyOp5
 70
     1
102
RTVSPropertyOp6
 70
     1
102
RTVSPropertyOp7
 70
     1
102
RTVSPropertyOp8
 70
     1
102
RTVSPropertyOp9
 70
     1
102
RTVSPropertyOp10
 70
     1
102
RTVSPropertyOp11
 70
     1
102
RTVSPropertyOp12
 70
     1
102
RTVSPropertyOp13
 70
     1
102
RTVSPropertyOp14
 70
     1
102
RTVSPropertyOp15
 70
     1
102
RTVSPropertyOp16
 70
     1
102
RTVSPropertyOp17
 70
     1
102
RTVSPropertyOp18
 70
     1
102
RTVSPropertyOp19
 70
     1
102
RTVSPropertyOp20
 70
     1
102
RTVSPropertyOp21
 70
     1
102
RTVSPropertyOp22
 70
     1
102
RTVSPropertyOp23
 70
     1
102
RTVSPropertyOp24
 70
     1
102
RTVSPropertyOp25
 70
     1
102
RTVSPropertyOp26
 70
     1
102
RTVSPropertyOp27
 70
     1
102
RTVSPropertyOp28
 70
     1
102
RTVSPropertyOp29
 70
     1
102
RTVSPropertyOp30
 70
     1
102
RTVSPropertyOp31
 70
     1
102
RTVSPropertyOp32
 70
     1
102
RTVSPropertyOp33
 70
     1
102
RTVSPropertyOp34
 70
     1
102
RTVSPropertyOp35
 70
     1
102
RTVSPropertyOp36
 70
     1
102
RTVSPropertyOp37
 70
     1
102
RTVSPropertyOp38
 70
     1
102
RTVSPropertyOp39
 70
     1
102
RTVSPropertyOp40
 70
     1
102
RTVSPropertyOp41
 70
     1
102
RTVSPropertyOp42
 70
     1
102
RTVSPropertyOp43
 70
     1
102
RTVSPropertyOp44
 70
     1
102
RTVSPropertyOp45
 70
     1
102
RTVSPropertyOp46
 70
     1
102
RTVSPropertyOp47
 70
     1
102
RTVSPropertyOp48
 70
     1
102
RTVSPropertyOp49
 70
     1
102
RTVSPropertyOp50
 70
     1
102
RTVSPropertyOp51
 70
     0
102
RTVSPropertyOp52
 70
     0
102
RTVSPropertyOp53
 70
     1
102
RTVSPropertyOp54
 70
     1
102
RTVSPropertyOp55
 70
     1
102
RTVSPropertyOp56
 70
     1
102
RTVSPropertyOp57
 70
     1
102
RTVSPropertyOp58
 70
     1
102
RTVSPropertyOp59
 70
     1
102
RTVSPropertyOp60
 70
     1
102
RTVSPropertyOp61
 70
     1
102
RTVSPropertyOp62
 70
     1
  0
XRECORD
  5
B14B
102
{ACAD_REACTORS
330
B14A
102
}
330
B14A
100
AcDbXrecord
280
     1
102
RTVSPost2010Prop28
280
     0
102
RTVSPost2010PropOp28
 70
     1
102
RTVSPost2010Prop29
280
     1
102
RTVSPost2010PropOp29
 70
     1
102
RTVSPost2010Prop30
280
     1
102
RTVSPost2010PropOp30
 70
     1
102
RTVSPost2010Prop31
280
     0
102
RTVSPost2010PropOp31
 70
     1
102
RTVSPost2010Prop32
280
     0
102
RTVSPost2010PropOp32
 70
     1
102
RTVSPost2010Prop33
280
     0
102
RTVSPost2010PropOp33
 70
     1
102
RTVSPost2010Prop34
280
     0
102
RTVSPost2010PropOp34
 70
     1
102
RTVSPost2010Prop35
280
     0
102
RTVSPost2010PropOp35
 70
     1
102
RTVSPost2010Prop36
280
     0
102
RTVSPost2010PropOp36
 70
     1
102
RTVSPost2010Prop37
 90
       50
102
RTVSPost2010PropOp37
 70
     1
102
RTVSPost2010Prop38
140
0.0
102
RTVSPost2010PropOp38
 70
     1
102
RTVSPost2010Prop39
140
1.0
102
RTVSPost2010PropOp39
 70
     1
102
RTVSPost2010Prop40
 90
        0
102
RTVSPost2010PropOp40
 70
     1
102
RTVSPost2010Prop41ColorIndex
 90
       18
102
RTVSPost2010Prop41ColorRGB
 90
        0
102
RTVSPost2010PropOp41
 70
     1
102
RTVSPost2010Prop42
 90
       50
102
RTVSPost2010PropOp42
 70
     1
102
RTVSPost2010Prop43
 90
        3
102
RTVSPost2010PropOp43
 70
     1
102
RTVSPost2010Prop44ColorIndex
 90
        5
102
RTVSPost2010Prop44ColorRGB
 90
      255
102
RTVSPost2010PropOp44
 70
     1
102
RTVSPost2010Prop45
280
     0
102
RTVSPost2010PropOp45
 70
     1
102
RTVSPost2010Prop46
 90
       50
102
RTVSPost2010PropOp46
 70
     1
102
RTVSPost2010Prop47
 90
       50
102
RTVSPost2010PropOp47
 70
     1
102
RTVSPost2010Prop48
 90
       50
102
RTVSPost2010PropOp48
 70
     1
102
RTVSPost2010Prop49
280
     0
102
RTVSPost2010PropOp49
 70
     1
102
RTVSPost2010Prop50
 90
       50
102
RTVSPost2010PropOp50
 70
     1
102
RTVSPost2010Prop51ColorIndex
 90
      256
102
RTVSPost2010Prop51ColorRGB
 90
-16777216
102
RTVSPost2010PropOp51
 70
     0
102
RTVSPost2010Prop52
140
1.0
102
RTVSPost2010PropOp52
 70
     0
102
RTVSPost2010Prop53
 90
        2
102
RTVSPost2010PropOp53
 70
     1
102
RTVSPost2010Prop54
  1
strokes_ogs.tif
102
RTVSPost2010PropOp54
 70
     1
102
RTVSPost2010Prop55
280
     0
102
RTVSPost2010PropOp55
 70
     1
102
RTVSPost2010Prop56
140
1.0
102
RTVSPost2010PropOp56
 70
     1
102
RTVSPost2010Prop57
140
1.0
102
RTVSPost2010PropOp57
 70
     1
102
RTVSPropertyOp0
 70
     1
102
RTVSPropertyOp1
 70
     1
102
RTVSPropertyOp2
 70
     1
102
RTVSPropertyOp3
 70
     1
102
RTVSPropertyOp4
 70
     1
102
RTVSPropertyOp5
 70
     1
102
RTVSPropertyOp6
 70
     1
102
RTVSPropertyOp7
 70
     1
102
RTVSPropertyOp8
 70
     1
102
RTVSPropertyOp9
 70
     1
102
RTVSPropertyOp10
 70
     1
102
RTVSPropertyOp11
 70
     1
102
RTVSPropertyOp12
 70
     1
102
RTVSPropertyOp13
 70
     1
102
RTVSPropertyOp14
 70
     1
102
RTVSPropertyOp15
 70
     1
102
RTVSPropertyOp16
 70
     1
102
RTVSPropertyOp17
 70
     1
102
RTVSPropertyOp18
 70
     1
102
RTVSPropertyOp19
 70
     1
102
RTVSPropertyOp20
 70
     1
102
RTVSPropertyOp21
 70
     1
102
RTVSPropertyOp22
 70
     1
102
RTVSPropertyOp23
 70
     1
102
RTVSPropertyOp24
 70
     1
102
RTVSPropertyOp25
 70
     1
102
RTVSPropertyOp26
 70
     1
102
RTVSPropertyOp27
 70
     1
102
RTVSPropertyOp28
 70
     1
102
RTVSPropertyOp29
 70
     1
102
RTVSPropertyOp30
 70
     1
102
RTVSPropertyOp31
 70
     1
102
RTVSPropertyOp32
 70
     1
102
RTVSPropertyOp33
 70
     1
102
RTVSPropertyOp34
 70
     1
102
RTVSPropertyOp35
 70
     1
102
RTVSPropertyOp36
 70
     1
102
RTVSPropertyOp37
 70
     1
102
RTVSPropertyOp38
 70
     1
102
RTVSPropertyOp39
 70
     1
102
RTVSPropertyOp40
 70
     1
102
RTVSPropertyOp41
 70
     1
102
RTVSPropertyOp42
 70
     1
102
RTVSPropertyOp43
 70
     1
102
RTVSPropertyOp44
 70
     1
102
RTVSPropertyOp45
 70
     1
102
RTVSPropertyOp46
 70
     1
102
RTVSPropertyOp47
 70
     1
102
RTVSPropertyOp48
 70
     1
102
RTVSPropertyOp49
 70
     1
102
RTVSPropertyOp50
 70
     1
102
RTVSPropertyOp51
 70
     0
102
RTVSPropertyOp52
 70
     0
102
RTVSPropertyOp53
 70
     1
102
RTVSPropertyOp54
 70
     1
102
RTVSPropertyOp55
 70
     1
102
RTVSPropertyOp56
 70
     1
102
RTVSPropertyOp57
 70
     1
102
RTVSPropertyOp58
 70
     1
102
RTVSPropertyOp59
 70
     1
102
RTVSPropertyOp60
 70
     1
102
RTVSPropertyOp61
 70
     1
102
RTVSPropertyOp62
 70
     1
  0
XRECORD
  5
B14D
102
{ACAD_REACTORS
330
B14C
102
}
330
B14C
100
AcDbXrecord
280
     1
102
RTVSPost2010Prop28
280
     0
102
RTVSPost2010PropOp28
 70
     1
102
RTVSPost2010Prop29
280
     1
102
RTVSPost2010PropOp29
 70
     1
102
RTVSPost2010Prop30
280
     1
102
RTVSPost2010PropOp30
 70
     1
102
RTVSPost2010Prop31
280
     0
102
RTVSPost2010PropOp31
 70
     1
102
RTVSPost2010Prop32
280
     0
102
RTVSPost2010PropOp32
 70
     1
102
RTVSPost2010Prop33
280
     0
102
RTVSPost2010PropOp33
 70
     1
102
RTVSPost2010Prop34
280
     0
102
RTVSPost2010PropOp34
 70
     1
102
RTVSPost2010Prop35
280
     0
102
RTVSPost2010PropOp35
 70
     1
102
RTVSPost2010Prop36
280
     0
102
RTVSPost2010PropOp36
 70
     1
102
RTVSPost2010Prop37
 90
       50
102
RTVSPost2010PropOp37
 70
     1
102
RTVSPost2010Prop38
140
0.0
102
RTVSPost2010PropOp38
 70
     1
102
RTVSPost2010Prop39
140
1.0
102
RTVSPost2010PropOp39
 70
     1
102
RTVSPost2010Prop40
 90
        0
102
RTVSPost2010PropOp40
 70
     1
102
RTVSPost2010Prop41ColorIndex
 90
       18
102
RTVSPost2010Prop41ColorRGB
 90
        0
102
RTVSPost2010PropOp41
 70
     1
102
RTVSPost2010Prop42
 90
       50
102
RTVSPost2010PropOp42
 70
     1
102
RTVSPost2010Prop43
 90
        3
102
RTVSPost2010PropOp43
 70
     1
102
RTVSPost2010Prop44ColorIndex
 90
        5
102
RTVSPost2010Prop44ColorRGB
 90
      255
102
RTVSPost2010PropOp44
 70
     1
102
RTVSPost2010Prop45
280
     0
102
RTVSPost2010PropOp45
 70
     1
102
RTVSPost2010Prop46
 90
       50
102
RTVSPost2010PropOp46
 70
     1
102
RTVSPost2010Prop47
 90
       50
102
RTVSPost2010PropOp47
 70
     1
102
RTVSPost2010Prop48
 90
       50
102
RTVSPost2010PropOp48
 70
     1
102
RTVSPost2010Prop49
280
     0
102
RTVSPost2010PropOp49
 70
     1
102
RTVSPost2010Prop50
 90
       50
102
RTVSPost2010PropOp50
 70
     1
102
RTVSPost2010Prop51ColorIndex
 90
      256
102
RTVSPost2010Prop51ColorRGB
 90
-16777216
102
RTVSPost2010PropOp51
 70
     0
102
RTVSPost2010Prop52
140
1.0
102
RTVSPost2010PropOp52
 70
     0
102
RTVSPost2010Prop53
 90
        2
102
RTVSPost2010PropOp53
 70
     1
102
RTVSPost2010Prop54
  1
strokes_ogs.tif
102
RTVSPost2010PropOp54
 70
     1
102
RTVSPost2010Prop55
280
     0
102
RTVSPost2010PropOp55
 70
     1
102
RTVSPost2010Prop56
140
1.0
102
RTVSPost2010PropOp56
 70
     1
102
RTVSPost2010Prop57
140
1.0
102
RTVSPost2010PropOp57
 70
     1
102
RTVSPropertyOp0
 70
     1
102
RTVSPropertyOp1
 70
     1
102
RTVSPropertyOp2
 70
     1
102
RTVSPropertyOp3
 70
     1
102
RTVSPropertyOp4
 70
     1
102
RTVSPropertyOp5
 70
     1
102
RTVSPropertyOp6
 70
     1
102
RTVSPropertyOp7
 70
     1
102
RTVSPropertyOp8
 70
     1
102
RTVSPropertyOp9
 70
     1
102
RTVSPropertyOp10
 70
     1
102
RTVSPropertyOp11
 70
     1
102
RTVSPropertyOp12
 70
     1
102
RTVSPropertyOp13
 70
     1
102
RTVSPropertyOp14
 70
     1
102
RTVSPropertyOp15
 70
     1
102
RTVSPropertyOp16
 70
     1
102
RTVSPropertyOp17
 70
     1
102
RTVSPropertyOp18
 70
     1
102
RTVSPropertyOp19
 70
     1
102
RTVSPropertyOp20
 70
     1
102
RTVSPropertyOp21
 70
     1
102
RTVSPropertyOp22
 70
     1
102
RTVSPropertyOp23
 70
     1
102
RTVSPropertyOp24
 70
     1
102
RTVSPropertyOp25
 70
     1
102
RTVSPropertyOp26
 70
     1
102
RTVSPropertyOp27
 70
     1
102
RTVSPropertyOp28
 70
     1
102
RTVSPropertyOp29
 70
     1
102
RTVSPropertyOp30
 70
     1
102
RTVSPropertyOp31
 70
     1
102
RTVSPropertyOp32
 70
     1
102
RTVSPropertyOp33
 70
     1
102
RTVSPropertyOp34
 70
     1
102
RTVSPropertyOp35
 70
     1
102
RTVSPropertyOp36
 70
     1
102
RTVSPropertyOp37
 70
     1
102
RTVSPropertyOp38
 70
     1
102
RTVSPropertyOp39
 70
     1
102
RTVSPropertyOp40
 70
     1
102
RTVSPropertyOp41
 70
     1
102
RTVSPropertyOp42
 70
     1
102
RTVSPropertyOp43
 70
     1
102
RTVSPropertyOp44
 70
     1
102
RTVSPropertyOp45
 70
     1
102
RTVSPropertyOp46
 70
     1
102
RTVSPropertyOp47
 70
     1
102
RTVSPropertyOp48
 70
     1
102
RTVSPropertyOp49
 70
     1
102
RTVSPropertyOp50
 70
     1
102
RTVSPropertyOp51
 70
     0
102
RTVSPropertyOp52
 70
     0
102
RTVSPropertyOp53
 70
     1
102
RTVSPropertyOp54
 70
     1
102
RTVSPropertyOp55
 70
     1
102
RTVSPropertyOp56
 70
     1
102
RTVSPropertyOp57
 70
     1
102
RTVSPropertyOp58
 70
     1
102
RTVSPropertyOp59
 70
     1
102
RTVSPropertyOp60
 70
     1
102
RTVSPropertyOp61
 70
     1
102
RTVSPropertyOp62
 70
     1
  0
XRECORD
  5
B155
102
{ACAD_REACTORS
330
B154
102
}
330
B154
100
AcDbXrecord
280
     1
102
RTVSPost2010Prop28
280
     0
102
RTVSPost2010PropOp28
 70
     1
102
RTVSPost2010Prop29
280
     1
102
RTVSPost2010PropOp29
 70
     1
102
RTVSPost2010Prop30
280
     1
102
RTVSPost2010PropOp30
 70
     1
102
RTVSPost2010Prop31
280
     0
102
RTVSPost2010PropOp31
 70
     1
102
RTVSPost2010Prop32
280
     0
102
RTVSPost2010PropOp32
 70
     1
102
RTVSPost2010Prop33
280
     0
102
RTVSPost2010PropOp33
 70
     1
102
RTVSPost2010Prop34
280
     0
102
RTVSPost2010PropOp34
 70
     1
102
RTVSPost2010Prop35
280
     0
102
RTVSPost2010PropOp35
 70
     1
102
RTVSPost2010Prop36
280
     0
102
RTVSPost2010PropOp36
 70
     1
102
RTVSPost2010Prop37
 90
       50
102
RTVSPost2010PropOp37
 70
     1
102
RTVSPost2010Prop38
140
0.0
102
RTVSPost2010PropOp38
 70
     1
102
RTVSPost2010Prop39
140
1.0
102
RTVSPost2010PropOp39
 70
     1
102
RTVSPost2010Prop40
 90
        0
102
RTVSPost2010PropOp40
 70
     1
102
RTVSPost2010Prop41ColorIndex
 90
       18
102
RTVSPost2010Prop41ColorRGB
 90
        0
102
RTVSPost2010PropOp41
 70
     1
102
RTVSPost2010Prop42
 90
       50
102
RTVSPost2010PropOp42
 70
     1
102
RTVSPost2010Prop43
 90
        3
102
RTVSPost2010PropOp43
 70
     1
102
RTVSPost2010Prop44ColorIndex
 90
        5
102
RTVSPost2010Prop44ColorRGB
 90
      255
102
RTVSPost2010PropOp44
 70
     1
102
RTVSPost2010Prop45
280
     0
102
RTVSPost2010PropOp45
 70
     1
102
RTVSPost2010Prop46
 90
       50
102
RTVSPost2010PropOp46
 70
     1
102
RTVSPost2010Prop47
 90
       50
102
RTVSPost2010PropOp47
 70
     1
102
RTVSPost2010Prop48
 90
       50
102
RTVSPost2010PropOp48
 70
     1
102
RTVSPost2010Prop49
280
     0
102
RTVSPost2010PropOp49
 70
     1
102
RTVSPost2010Prop50
 90
       50
102
RTVSPost2010PropOp50
 70
     1
102
RTVSPost2010Prop51ColorIndex
 90
      256
102
RTVSPost2010Prop51ColorRGB
 90
-16777216
102
RTVSPost2010PropOp51
 70
     0
102
RTVSPost2010Prop52
140
1.0
102
RTVSPost2010PropOp52
 70
     0
102
RTVSPost2010Prop53
 90
        2
102
RTVSPost2010PropOp53
 70
     1
102
RTVSPost2010Prop54
  1
strokes_ogs.tif
102
RTVSPost2010PropOp54
 70
     1
102
RTVSPost2010Prop55
280
     0
102
RTVSPost2010PropOp55
 70
     1
102
RTVSPost2010Prop56
140
1.0
102
RTVSPost2010PropOp56
 70
     1
102
RTVSPost2010Prop57
140
1.0
102
RTVSPost2010PropOp57
 70
     1
102
RTVSPropertyOp0
 70
     1
102
RTVSPropertyOp1
 70
     1
102
RTVSPropertyOp2
 70
     1
102
RTVSPropertyOp3
 70
     1
102
RTVSPropertyOp4
 70
     1
102
RTVSPropertyOp5
 70
     1
102
RTVSPropertyOp6
 70
     1
102
RTVSPropertyOp7
 70
     1
102
RTVSPropertyOp8
 70
     1
102
RTVSPropertyOp9
 70
     1
102
RTVSPropertyOp10
 70
     1
102
RTVSPropertyOp11
 70
     1
102
RTVSPropertyOp12
 70
     1
102
RTVSPropertyOp13
 70
     1
102
RTVSPropertyOp14
 70
     1
102
RTVSPropertyOp15
 70
     1
102
RTVSPropertyOp16
 70
     1
102
RTVSPropertyOp17
 70
     1
102
RTVSPropertyOp18
 70
     1
102
RTVSPropertyOp19
 70
     1
102
RTVSPropertyOp20
 70
     1
102
RTVSPropertyOp21
 70
     1
102
RTVSPropertyOp22
 70
     1
102
RTVSPropertyOp23
 70
     1
102
RTVSPropertyOp24
 70
     1
102
RTVSPropertyOp25
 70
     1
102
RTVSPropertyOp26
 70
     1
102
RTVSPropertyOp27
 70
     1
102
RTVSPropertyOp28
 70
     1
102
RTVSPropertyOp29
 70
     1
102
RTVSPropertyOp30
 70
     1
102
RTVSPropertyOp31
 70
     1
102
RTVSPropertyOp32
 70
     1
102
RTVSPropertyOp33
 70
     1
102
RTVSPropertyOp34
 70
     1
102
RTVSPropertyOp35
 70
     1
102
RTVSPropertyOp36
 70
     1
102
RTVSPropertyOp37
 70
     1
102
RTVSPropertyOp38
 70
     1
102
RTVSPropertyOp39
 70
     1
102
RTVSPropertyOp40
 70
     1
102
RTVSPropertyOp41
 70
     1
102
RTVSPropertyOp42
 70
     1
102
RTVSPropertyOp43
 70
     1
102
RTVSPropertyOp44
 70
     1
102
RTVSPropertyOp45
 70
     1
102
RTVSPropertyOp46
 70
     1
102
RTVSPropertyOp47
 70
     1
102
RTVSPropertyOp48
 70
     1
102
RTVSPropertyOp49
 70
     1
102
RTVSPropertyOp50
 70
     1
102
RTVSPropertyOp51
 70
     0
102
RTVSPropertyOp52
 70
     0
102
RTVSPropertyOp53
 70
     1
102
RTVSPropertyOp54
 70
     1
102
RTVSPropertyOp55
 70
     1
102
RTVSPropertyOp56
 70
     1
102
RTVSPropertyOp57
 70
     1
102
RTVSPropertyOp58
 70
     1
102
RTVSPropertyOp59
 70
     1
102
RTVSPropertyOp60
 70
     1
102
RTVSPropertyOp61
 70
     1
102
RTVSPropertyOp62
 70
     1
  0
XRECORD
  5
B171
102
{ACAD_REACTORS
330
B170
102
}
330
B170
100
AcDbXrecord
280
     1
102
RTVSPost2010Prop28
280
     0
102
RTVSPost2010PropOp28
 70
     0
102
RTVSPost2010Prop29
280
     1
102
RTVSPost2010PropOp29
 70
     0
102
RTVSPost2010Prop30
280
     1
102
RTVSPost2010PropOp30
 70
     0
102
RTVSPost2010Prop31
280
     0
102
RTVSPost2010PropOp31
 70
     0
102
RTVSPost2010Prop32
280
     0
102
RTVSPost2010PropOp32
 70
     0
102
RTVSPost2010Prop33
280
     0
102
RTVSPost2010PropOp33
 70
     0
102
RTVSPost2010Prop34
280
     0
102
RTVSPost2010PropOp34
 70
     0
102
RTVSPost2010Prop35
280
     0
102
RTVSPost2010PropOp35
 70
     0
102
RTVSPost2010Prop36
280
     0
102
RTVSPost2010PropOp36
 70
     0
102
RTVSPost2010Prop37
 90
       50
102
RTVSPost2010PropOp37
 70
     0
102
RTVSPost2010Prop38
140
0.0
102
RTVSPost2010PropOp38
 70
     0
102
RTVSPost2010Prop39
140
1.0
102
RTVSPost2010PropOp39
 70
     0
102
RTVSPost2010Prop40
 90
        0
102
RTVSPost2010PropOp40
 70
     0
102
RTVSPost2010Prop41ColorIndex
 90
       18
102
RTVSPost2010Prop41ColorRGB
 90
        0
102
RTVSPost2010PropOp41
 70
     0
102
RTVSPost2010Prop42
 90
       50
102
RTVSPost2010PropOp42
 70
     0
102
RTVSPost2010Prop43
 90
        3
102
RTVSPost2010PropOp43
 70
     0
102
RTVSPost2010Prop44ColorIndex
 90
        5
102
RTVSPost2010Prop44ColorRGB
 90
      255
102
RTVSPost2010PropOp44
 70
     0
102
RTVSPost2010Prop45
280
     0
102
RTVSPost2010PropOp45
 70
     0
102
RTVSPost2010Prop46
 90
       50
102
RTVSPost2010PropOp46
 70
     0
102
RTVSPost2010Prop47
 90
       50
102
RTVSPost2010PropOp47
 70
     0
102
RTVSPost2010Prop48
 90
       50
102
RTVSPost2010PropOp48
 70
     0
102
RTVSPost2010Prop49
280
     0
102
RTVSPost2010PropOp49
 70
     0
102
RTVSPost2010Prop50
 90
       50
102
RTVSPost2010PropOp50
 70
     0
102
RTVSPost2010Prop51ColorIndex
 90
      256
102
RTVSPost2010Prop51ColorRGB
 90
-16777216
102
RTVSPost2010PropOp51
 70
     0
102
RTVSPost2010Prop52
140
1.0
102
RTVSPost2010PropOp52
 70
     0
102
RTVSPost2010Prop53
 90
        2
102
RTVSPost2010PropOp53
 70
     0
102
RTVSPost2010Prop54
  1
strokes_ogs.tif
102
RTVSPost2010PropOp54
 70
     0
102
RTVSPost2010Prop55
280
     0
102
RTVSPost2010PropOp55
 70
     0
102
RTVSPost2010Prop56
140
1.0
102
RTVSPost2010PropOp56
 70
     0
102
RTVSPost2010Prop57
140
1.0
102
RTVSPost2010PropOp57
 70
     0
102
RTVSPropertyOp0
 70
     0
102
RTVSPropertyOp1
 70
     0
102
RTVSPropertyOp2
 70
     0
102
RTVSPropertyOp3
 70
     0
102
RTVSPropertyOp4
 70
     0
102
RTVSPropertyOp5
 70
     0
102
RTVSPropertyOp6
 70
     0
102
RTVSPropertyOp7
 70
     0
102
RTVSPropertyOp8
 70
     0
102
RTVSPropertyOp9
 70
     0
102
RTVSPropertyOp10
 70
     0
102
RTVSPropertyOp11
 70
     0
102
RTVSPropertyOp12
 70
     0
102
RTVSPropertyOp13
 70
     0
102
RTVSPropertyOp14
 70
     2
102
RTVSPropertyOp15
 70
     0
102
RTVSPropertyOp16
 70
     0
102
RTVSPropertyOp17
 70
     0
102
RTVSPropertyOp18
 70
     0
102
RTVSPropertyOp19
 70
     0
102
RTVSPropertyOp20
 70
     0
102
RTVSPropertyOp21
 70
     0
102
RTVSPropertyOp22
 70
     0
102
RTVSPropertyOp23
 70
     0
102
RTVSPropertyOp24
 70
     0
102
RTVSPropertyOp25
 70
     0
102
RTVSPropertyOp26
 70
     0
102
RTVSPropertyOp27
 70
     0
102
RTVSPropertyOp28
 70
     0
102
RTVSPropertyOp29
 70
     0
102
RTVSPropertyOp30
 70
     0
102
RTVSPropertyOp31
 70
     0
102
RTVSPropertyOp32
 70
     0
102
RTVSPropertyOp33
 70
     0
102
RTVSPropertyOp34
 70
     0
102
RTVSPropertyOp35
 70
     0
102
RTVSPropertyOp36
 70
     0
102
RTVSPropertyOp37
 70
     0
102
RTVSPropertyOp38
 70
     0
102
RTVSPropertyOp39
 70
     0
102
RTVSPropertyOp40
 70
     0
102
RTVSPropertyOp41
 70
     0
102
RTVSPropertyOp42
 70
     0
102
RTVSPropertyOp43
 70
     0
102
RTVSPropertyOp44
 70
     0
102
RTVSPropertyOp45
 70
     0
102
RTVSPropertyOp46
 70
     0
102
RTVSPropertyOp47
 70
     0
102
RTVSPropertyOp48
 70
     0
102
RTVSPropertyOp49
 70
     0
102
RTVSPropertyOp50
 70
     0
102
RTVSPropertyOp51
 70
     0
102
RTVSPropertyOp52
 70
     0
102
RTVSPropertyOp53
 70
     0
102
RTVSPropertyOp54
 70
     0
102
RTVSPropertyOp55
 70
     0
102
RTVSPropertyOp56
 70
     0
102
RTVSPropertyOp57
 70
     0
102
RTVSPropertyOp58
 70
     0
102
RTVSPropertyOp59
 70
     0
102
RTVSPropertyOp60
 70
     0
102
RTVSPropertyOp61
 70
     0
102
RTVSPropertyOp62
 70
     0
  0
XRECORD
  5
B161
102
{ACAD_REACTORS
330
B160
102
}
330
B160
100
AcDbXrecord
280
     1
102
RTVSPost2010Prop28
280
     0
102
RTVSPost2010PropOp28
 70
     1
102
RTVSPost2010Prop29
280
     1
102
RTVSPost2010PropOp29
 70
     1
102
RTVSPost2010Prop30
280
     1
102
RTVSPost2010PropOp30
 70
     1
102
RTVSPost2010Prop31
280
     0
102
RTVSPost2010PropOp31
 70
     1
102
RTVSPost2010Prop32
280
     0
102
RTVSPost2010PropOp32
 70
     1
102
RTVSPost2010Prop33
280
     0
102
RTVSPost2010PropOp33
 70
     1
102
RTVSPost2010Prop34
280
     0
102
RTVSPost2010PropOp34
 70
     1
102
RTVSPost2010Prop35
280
     0
102
RTVSPost2010PropOp35
 70
     1
102
RTVSPost2010Prop36
280
     0
102
RTVSPost2010PropOp36
 70
     1
102
RTVSPost2010Prop37
 90
       50
102
RTVSPost2010PropOp37
 70
     1
102
RTVSPost2010Prop38
140
0.0
102
RTVSPost2010PropOp38
 70
     1
102
RTVSPost2010Prop39
140
1.0
102
RTVSPost2010PropOp39
 70
     1
102
RTVSPost2010Prop40
 90
        0
102
RTVSPost2010PropOp40
 70
     1
102
RTVSPost2010Prop41ColorIndex
 90
       18
102
RTVSPost2010Prop41ColorRGB
 90
        0
102
RTVSPost2010PropOp41
 70
     1
102
RTVSPost2010Prop42
 90
       50
102
RTVSPost2010PropOp42
 70
     1
102
RTVSPost2010Prop43
 90
        3
102
RTVSPost2010PropOp43
 70
     1
102
RTVSPost2010Prop44ColorIndex
 90
        5
102
RTVSPost2010Prop44ColorRGB
 90
      255
102
RTVSPost2010PropOp44
 70
     1
102
RTVSPost2010Prop45
280
     0
102
RTVSPost2010PropOp45
 70
     1
102
RTVSPost2010Prop46
 90
       50
102
RTVSPost2010PropOp46
 70
     1
102
RTVSPost2010Prop47
 90
       50
102
RTVSPost2010PropOp47
 70
     1
102
RTVSPost2010Prop48
 90
       50
102
RTVSPost2010PropOp48
 70
     1
102
RTVSPost2010Prop49
280
     0
102
RTVSPost2010PropOp49
 70
     1
102
RTVSPost2010Prop50
 90
       50
102
RTVSPost2010PropOp50
 70
     1
102
RTVSPost2010Prop51ColorIndex
 90
      256
102
RTVSPost2010Prop51ColorRGB
 90
-16777216
102
RTVSPost2010PropOp51
 70
     0
102
RTVSPost2010Prop52
140
1.0
102
RTVSPost2010PropOp52
 70
     0
102
RTVSPost2010Prop53
 90
        2
102
RTVSPost2010PropOp53
 70
     1
102
RTVSPost2010Prop54
  1
strokes_ogs.tif
102
RTVSPost2010PropOp54
 70
     1
102
RTVSPost2010Prop55
280
     0
102
RTVSPost2010PropOp55
 70
     1
102
RTVSPost2010Prop56
140
1.0
102
RTVSPost2010PropOp56
 70
     1
102
RTVSPost2010Prop57
140
1.0
102
RTVSPost2010PropOp57
 70
     1
102
RTVSPropertyOp0
 70
     1
102
RTVSPropertyOp1
 70
     1
102
RTVSPropertyOp2
 70
     1
102
RTVSPropertyOp3
 70
     1
102
RTVSPropertyOp4
 70
     1
102
RTVSPropertyOp5
 70
     1
102
RTVSPropertyOp6
 70
     1
102
RTVSPropertyOp7
 70
     1
102
RTVSPropertyOp8
 70
     1
102
RTVSPropertyOp9
 70
     1
102
RTVSPropertyOp10
 70
     1
102
RTVSPropertyOp11
 70
     1
102
RTVSPropertyOp12
 70
     1
102
RTVSPropertyOp13
 70
     1
102
RTVSPropertyOp14
 70
     1
102
RTVSPropertyOp15
 70
     1
102
RTVSPropertyOp16
 70
     1
102
RTVSPropertyOp17
 70
     1
102
RTVSPropertyOp18
 70
     1
102
RTVSPropertyOp19
 70
     1
102
RTVSPropertyOp20
 70
     1
102
RTVSPropertyOp21
 70
     1
102
RTVSPropertyOp22
 70
     1
102
RTVSPropertyOp23
 70
     1
102
RTVSPropertyOp24
 70
     1
102
RTVSPropertyOp25
 70
     1
102
RTVSPropertyOp26
 70
     1
102
RTVSPropertyOp27
 70
     1
102
RTVSPropertyOp28
 70
     1
102
RTVSPropertyOp29
 70
     1
102
RTVSPropertyOp30
 70
     1
102
RTVSPropertyOp31
 70
     1
102
RTVSPropertyOp32
 70
     1
102
RTVSPropertyOp33
 70
     1
102
RTVSPropertyOp34
 70
     1
102
RTVSPropertyOp35
 70
     1
102
RTVSPropertyOp36
 70
     1
102
RTVSPropertyOp37
 70
     1
102
RTVSPropertyOp38
 70
     1
102
RTVSPropertyOp39
 70
     1
102
RTVSPropertyOp40
 70
     1
102
RTVSPropertyOp41
 70
     1
102
RTVSPropertyOp42
 70
     1
102
RTVSPropertyOp43
 70
     1
102
RTVSPropertyOp44
 70
     1
102
RTVSPropertyOp45
 70
     1
102
RTVSPropertyOp46
 70
     1
102
RTVSPropertyOp47
 70
     1
102
RTVSPropertyOp48
 70
     1
102
RTVSPropertyOp49
 70
     1
102
RTVSPropertyOp50
 70
     1
102
RTVSPropertyOp51
 70
     0
102
RTVSPropertyOp52
 70
     0
102
RTVSPropertyOp53
 70
     1
102
RTVSPropertyOp54
 70
     1
102
RTVSPropertyOp55
 70
     1
102
RTVSPropertyOp56
 70
     1
102
RTVSPropertyOp57
 70
     1
102
RTVSPropertyOp58
 70
     1
102
RTVSPropertyOp59
 70
     1
102
RTVSPropertyOp60
 70
     1
102
RTVSPropertyOp61
 70
     1
102
RTVSPropertyOp62
 70
     1
  0
XRECORD
  5
B173
102
{ACAD_REACTORS
330
B172
102
}
330
B172
100
AcDbXrecord
280
     1
102
RTVSPost2010Prop28
280
     0
102
RTVSPost2010PropOp28
 70
     0
102
RTVSPost2010Prop29
280
     1
102
RTVSPost2010PropOp29
 70
     0
102
RTVSPost2010Prop30
280
     1
102
RTVSPost2010PropOp30
 70
     0
102
RTVSPost2010Prop31
280
     0
102
RTVSPost2010PropOp31
 70
     0
102
RTVSPost2010Prop32
280
     0
102
RTVSPost2010PropOp32
 70
     0
102
RTVSPost2010Prop33
280
     0
102
RTVSPost2010PropOp33
 70
     0
102
RTVSPost2010Prop34
280
     0
102
RTVSPost2010PropOp34
 70
     0
102
RTVSPost2010Prop35
280
     0
102
RTVSPost2010PropOp35
 70
     0
102
RTVSPost2010Prop36
280
     0
102
RTVSPost2010PropOp36
 70
     0
102
RTVSPost2010Prop37
 90
       50
102
RTVSPost2010PropOp37
 70
     0
102
RTVSPost2010Prop38
140
0.0
102
RTVSPost2010PropOp38
 70
     0
102
RTVSPost2010Prop39
140
1.0
102
RTVSPost2010PropOp39
 70
     0
102
RTVSPost2010Prop40
 90
        0
102
RTVSPost2010PropOp40
 70
     0
102
RTVSPost2010Prop41ColorIndex
 90
       18
102
RTVSPost2010Prop41ColorRGB
 90
        0
102
RTVSPost2010PropOp41
 70
     0
102
RTVSPost2010Prop42
 90
       50
102
RTVSPost2010PropOp42
 70
     0
102
RTVSPost2010Prop43
 90
        3
102
RTVSPost2010PropOp43
 70
     0
102
RTVSPost2010Prop44ColorIndex
 90
        5
102
RTVSPost2010Prop44ColorRGB
 90
      255
102
RTVSPost2010PropOp44
 70
     0
102
RTVSPost2010Prop45
280
     0
102
RTVSPost2010PropOp45
 70
     0
102
RTVSPost2010Prop46
 90
       50
102
RTVSPost2010PropOp46
 70
     0
102
RTVSPost2010Prop47
 90
       50
102
RTVSPost2010PropOp47
 70
     0
102
RTVSPost2010Prop48
 90
       50
102
RTVSPost2010PropOp48
 70
     0
102
RTVSPost2010Prop49
280
     0
102
RTVSPost2010PropOp49
 70
     0
102
RTVSPost2010Prop50
 90
       50
102
RTVSPost2010PropOp50
 70
     0
102
RTVSPost2010Prop51ColorIndex
 90
      256
102
RTVSPost2010Prop51ColorRGB
 90
-16777216
102
RTVSPost2010PropOp51
 70
     0
102
RTVSPost2010Prop52
140
1.0
102
RTVSPost2010PropOp52
 70
     0
102
RTVSPost2010Prop53
 90
        2
102
RTVSPost2010PropOp53
 70
     0
102
RTVSPost2010Prop54
  1
strokes_ogs.tif
102
RTVSPost2010PropOp54
 70
     0
102
RTVSPost2010Prop55
280
     0
102
RTVSPost2010PropOp55
 70
     0
102
RTVSPost2010Prop56
140
1.0
102
RTVSPost2010PropOp56
 70
     0
102
RTVSPost2010Prop57
140
1.0
102
RTVSPost2010PropOp57
 70
     0
102
RTVSPropertyOp0
 70
     0
102
RTVSPropertyOp1
 70
     0
102
RTVSPropertyOp2
 70
     0
102
RTVSPropertyOp3
 70
     0
102
RTVSPropertyOp4
 70
     0
102
RTVSPropertyOp5
 70
     0
102
RTVSPropertyOp6
 70
     0
102
RTVSPropertyOp7
 70
     0
102
RTVSPropertyOp8
 70
     0
102
RTVSPropertyOp9
 70
     0
102
RTVSPropertyOp10
 70
     0
102
RTVSPropertyOp11
 70
     0
102
RTVSPropertyOp12
 70
     0
102
RTVSPropertyOp13
 70
     0
102
RTVSPropertyOp14
 70
     2
102
RTVSPropertyOp15
 70
     0
102
RTVSPropertyOp16
 70
     0
102
RTVSPropertyOp17
 70
     0
102
RTVSPropertyOp18
 70
     0
102
RTVSPropertyOp19
 70
     0
102
RTVSPropertyOp20
 70
     0
102
RTVSPropertyOp21
 70
     0
102
RTVSPropertyOp22
 70
     0
102
RTVSPropertyOp23
 70
     0
102
RTVSPropertyOp24
 70
     0
102
RTVSPropertyOp25
 70
     0
102
RTVSPropertyOp26
 70
     0
102
RTVSPropertyOp27
 70
     0
102
RTVSPropertyOp28
 70
     0
102
RTVSPropertyOp29
 70
     0
102
RTVSPropertyOp30
 70
     0
102
RTVSPropertyOp31
 70
     0
102
RTVSPropertyOp32
 70
     0
102
RTVSPropertyOp33
 70
     0
102
RTVSPropertyOp34
 70
     0
102
RTVSPropertyOp35
 70
     0
102
RTVSPropertyOp36
 70
     0
102
RTVSPropertyOp37
 70
     0
102
RTVSPropertyOp38
 70
     0
102
RTVSPropertyOp39
 70
     0
102
RTVSPropertyOp40
 70
     0
102
RTVSPropertyOp41
 70
     0
102
RTVSPropertyOp42
 70
     0
102
RTVSPropertyOp43
 70
     0
102
RTVSPropertyOp44
 70
     0
102
RTVSPropertyOp45
 70
     0
102
RTVSPropertyOp46
 70
     0
102
RTVSPropertyOp47
 70
     0
102
RTVSPropertyOp48
 70
     0
102
RTVSPropertyOp49
 70
     0
102
RTVSPropertyOp50
 70
     0
102
RTVSPropertyOp51
 70
     0
102
RTVSPropertyOp52
 70
     0
102
RTVSPropertyOp53
 70
     0
102
RTVSPropertyOp54
 70
     0
102
RTVSPropertyOp55
 70
     0
102
RTVSPropertyOp56
 70
     0
102
RTVSPropertyOp57
 70
     0
102
RTVSPropertyOp58
 70
     0
102
RTVSPropertyOp59
 70
     0
102
RTVSPropertyOp60
 70
     0
102
RTVSPropertyOp61
 70
     0
102
RTVSPropertyOp62
 70
     0
  0
XRECORD
  5
B159
102
{ACAD_REACTORS
330
B158
102
}
330
B158
100
AcDbXrecord
280
     1
102
RTVSPost2010Prop28
280
     0
102
RTVSPost2010PropOp28
 70
     1
102
RTVSPost2010Prop29
280
     1
102
RTVSPost2010PropOp29
 70
     1
102
RTVSPost2010Prop30
280
     1
102
RTVSPost2010PropOp30
 70
     1
102
RTVSPost2010Prop31
280
     0
102
RTVSPost2010PropOp31
 70
     1
102
RTVSPost2010Prop32
280
     0
102
RTVSPost2010PropOp32
 70
     1
102
RTVSPost2010Prop33
280
     0
102
RTVSPost2010PropOp33
 70
     1
102
RTVSPost2010Prop34
280
     0
102
RTVSPost2010PropOp34
 70
     1
102
RTVSPost2010Prop35
280
     0
102
RTVSPost2010PropOp35
 70
     1
102
RTVSPost2010Prop36
280
     0
102
RTVSPost2010PropOp36
 70
     1
102
RTVSPost2010Prop37
 90
       50
102
RTVSPost2010PropOp37
 70
     1
102
RTVSPost2010Prop38
140
0.0
102
RTVSPost2010PropOp38
 70
     1
102
RTVSPost2010Prop39
140
1.0
102
RTVSPost2010PropOp39
 70
     1
102
RTVSPost2010Prop40
 90
        0
102
RTVSPost2010PropOp40
 70
     1
102
RTVSPost2010Prop41ColorIndex
 90
       18
102
RTVSPost2010Prop41ColorRGB
 90
        0
102
RTVSPost2010PropOp41
 70
     1
102
RTVSPost2010Prop42
 90
       50
102
RTVSPost2010PropOp42
 70
     1
102
RTVSPost2010Prop43
 90
        3
102
RTVSPost2010PropOp43
 70
     1
102
RTVSPost2010Prop44ColorIndex
 90
        5
102
RTVSPost2010Prop44ColorRGB
 90
      255
102
RTVSPost2010PropOp44
 70
     1
102
RTVSPost2010Prop45
280
     0
102
RTVSPost2010PropOp45
 70
     1
102
RTVSPost2010Prop46
 90
       50
102
RTVSPost2010PropOp46
 70
     1
102
RTVSPost2010Prop47
 90
       50
102
RTVSPost2010PropOp47
 70
     1
102
RTVSPost2010Prop48
 90
       50
102
RTVSPost2010PropOp48
 70
     1
102
RTVSPost2010Prop49
280
     0
102
RTVSPost2010PropOp49
 70
     1
102
RTVSPost2010Prop50
 90
       50
102
RTVSPost2010PropOp50
 70
     1
102
RTVSPost2010Prop51ColorIndex
 90
      256
102
RTVSPost2010Prop51ColorRGB
 90
-16777216
102
RTVSPost2010PropOp51
 70
     0
102
RTVSPost2010Prop52
140
1.0
102
RTVSPost2010PropOp52
 70
     0
102
RTVSPost2010Prop53
 90
        2
102
RTVSPost2010PropOp53
 70
     1
102
RTVSPost2010Prop54
  1
strokes_ogs.tif
102
RTVSPost2010PropOp54
 70
     1
102
RTVSPost2010Prop55
280
     0
102
RTVSPost2010PropOp55
 70
     1
102
RTVSPost2010Prop56
140
1.0
102
RTVSPost2010PropOp56
 70
     1
102
RTVSPost2010Prop57
140
1.0
102
RTVSPost2010PropOp57
 70
     1
102
RTVSPropertyOp0
 70
     1
102
RTVSPropertyOp1
 70
     1
102
RTVSPropertyOp2
 70
     1
102
RTVSPropertyOp3
 70
     1
102
RTVSPropertyOp4
 70
     1
102
RTVSPropertyOp5
 70
     1
102
RTVSPropertyOp6
 70
     1
102
RTVSPropertyOp7
 70
     1
102
RTVSPropertyOp8
 70
     1
102
RTVSPropertyOp9
 70
     1
102
RTVSPropertyOp10
 70
     1
102
RTVSPropertyOp11
 70
     1
102
RTVSPropertyOp12
 70
     1
102
RTVSPropertyOp13
 70
     1
102
RTVSPropertyOp14
 70
     1
102
RTVSPropertyOp15
 70
     1
102
RTVSPropertyOp16
 70
     1
102
RTVSPropertyOp17
 70
     1
102
RTVSPropertyOp18
 70
     1
102
RTVSPropertyOp19
 70
     1
102
RTVSPropertyOp20
 70
     1
102
RTVSPropertyOp21
 70
     1
102
RTVSPropertyOp22
 70
     1
102
RTVSPropertyOp23
 70
     1
102
RTVSPropertyOp24
 70
     1
102
RTVSPropertyOp25
 70
     1
102
RTVSPropertyOp26
 70
     1
102
RTVSPropertyOp27
 70
     1
102
RTVSPropertyOp28
 70
     1
102
RTVSPropertyOp29
 70
     1
102
RTVSPropertyOp30
 70
     1
102
RTVSPropertyOp31
 70
     1
102
RTVSPropertyOp32
 70
     1
102
RTVSPropertyOp33
 70
     1
102
RTVSPropertyOp34
 70
     1
102
RTVSPropertyOp35
 70
     1
102
RTVSPropertyOp36
 70
     1
102
RTVSPropertyOp37
 70
     1
102
RTVSPropertyOp38
 70
     1
102
RTVSPropertyOp39
 70
     1
102
RTVSPropertyOp40
 70
     1
102
RTVSPropertyOp41
 70
     1
102
RTVSPropertyOp42
 70
     1
102
RTVSPropertyOp43
 70
     1
102
RTVSPropertyOp44
 70
     1
102
RTVSPropertyOp45
 70
     1
102
RTVSPropertyOp46
 70
     1
102
RTVSPropertyOp47
 70
     1
102
RTVSPropertyOp48
 70
     1
102
RTVSPropertyOp49
 70
     1
102
RTVSPropertyOp50
 70
     1
102
RTVSPropertyOp51
 70
     0
102
RTVSPropertyOp52
 70
     0
102
RTVSPropertyOp53
 70
     1
102
RTVSPropertyOp54
 70
     1
102
RTVSPropertyOp55
 70
     1
102
RTVSPropertyOp56
 70
     1
102
RTVSPropertyOp57
 70
     1
102
RTVSPropertyOp58
 70
     1
102
RTVSPropertyOp59
 70
     1
102
RTVSPropertyOp60
 70
     1
102
RTVSPropertyOp61
 70
     1
102
RTVSPropertyOp62
 70
     1
  0
XRECORD
  5
B16F
102
{ACAD_REACTORS
330
B16E
102
}
330
B16E
100
AcDbXrecord
280
     1
102
RTVSPost2010Prop28
280
     0
102
RTVSPost2010PropOp28
 70
     1
102
RTVSPost2010Prop29
280
     1
102
RTVSPost2010PropOp29
 70
     1
102
RTVSPost2010Prop30
280
     1
102
RTVSPost2010PropOp30
 70
     1
102
RTVSPost2010Prop31
280
     0
102
RTVSPost2010PropOp31
 70
     1
102
RTVSPost2010Prop32
280
     0
102
RTVSPost2010PropOp32
 70
     1
102
RTVSPost2010Prop33
280
     0
102
RTVSPost2010PropOp33
 70
     1
102
RTVSPost2010Prop34
280
     0
102
RTVSPost2010PropOp34
 70
     1
102
RTVSPost2010Prop35
280
     0
102
RTVSPost2010PropOp35
 70
     1
102
RTVSPost2010Prop36
280
     0
102
RTVSPost2010PropOp36
 70
     1
102
RTVSPost2010Prop37
 90
       50
102
RTVSPost2010PropOp37
 70
     1
102
RTVSPost2010Prop38
140
0.0
102
RTVSPost2010PropOp38
 70
     1
102
RTVSPost2010Prop39
140
1.0
102
RTVSPost2010PropOp39
 70
     1
102
RTVSPost2010Prop40
 90
        0
102
RTVSPost2010PropOp40
 70
     1
102
RTVSPost2010Prop41ColorIndex
 90
       18
102
RTVSPost2010Prop41ColorRGB
 90
        0
102
RTVSPost2010PropOp41
 70
     1
102
RTVSPost2010Prop42
 90
       50
102
RTVSPost2010PropOp42
 70
     1
102
RTVSPost2010Prop43
 90
        3
102
RTVSPost2010PropOp43
 70
     1
102
RTVSPost2010Prop44ColorIndex
 90
        5
102
RTVSPost2010Prop44ColorRGB
 90
      255
102
RTVSPost2010PropOp44
 70
     1
102
RTVSPost2010Prop45
280
     0
102
RTVSPost2010PropOp45
 70
     1
102
RTVSPost2010Prop46
 90
       50
102
RTVSPost2010PropOp46
 70
     1
102
RTVSPost2010Prop47
 90
       50
102
RTVSPost2010PropOp47
 70
     1
102
RTVSPost2010Prop48
 90
       50
102
RTVSPost2010PropOp48
 70
     1
102
RTVSPost2010Prop49
280
     0
102
RTVSPost2010PropOp49
 70
     1
102
RTVSPost2010Prop50
 90
       50
102
RTVSPost2010PropOp50
 70
     1
102
RTVSPost2010Prop51ColorIndex
 90
      256
102
RTVSPost2010Prop51ColorRGB
 90
-16777216
102
RTVSPost2010PropOp51
 70
     0
102
RTVSPost2010Prop52
140
1.0
102
RTVSPost2010PropOp52
 70
     0
102
RTVSPost2010Prop53
 90
        2
102
RTVSPost2010PropOp53
 70
     1
102
RTVSPost2010Prop54
  1
strokes_ogs.tif
102
RTVSPost2010PropOp54
 70
     1
102
RTVSPost2010Prop55
280
     0
102
RTVSPost2010PropOp55
 70
     1
102
RTVSPost2010Prop56
140
1.0
102
RTVSPost2010PropOp56
 70
     1
102
RTVSPost2010Prop57
140
1.0
102
RTVSPost2010PropOp57
 70
     1
102
RTVSPropertyOp0
 70
     1
102
RTVSPropertyOp1
 70
     1
102
RTVSPropertyOp2
 70
     1
102
RTVSPropertyOp3
 70
     1
102
RTVSPropertyOp4
 70
     1
102
RTVSPropertyOp5
 70
     1
102
RTVSPropertyOp6
 70
     1
102
RTVSPropertyOp7
 70
     1
102
RTVSPropertyOp8
 70
     1
102
RTVSPropertyOp9
 70
     1
102
RTVSPropertyOp10
 70
     1
102
RTVSPropertyOp11
 70
     1
102
RTVSPropertyOp12
 70
     1
102
RTVSPropertyOp13
 70
     1
102
RTVSPropertyOp14
 70
     1
102
RTVSPropertyOp15
 70
     1
102
RTVSPropertyOp16
 70
     1
102
RTVSPropertyOp17
 70
     1
102
RTVSPropertyOp18
 70
     1
102
RTVSPropertyOp19
 70
     1
102
RTVSPropertyOp20
 70
     1
102
RTVSPropertyOp21
 70
     1
102
RTVSPropertyOp22
 70
     1
102
RTVSPropertyOp23
 70
     1
102
RTVSPropertyOp24
 70
     1
102
RTVSPropertyOp25
 70
     1
102
RTVSPropertyOp26
 70
     1
102
RTVSPropertyOp27
 70
     1
102
RTVSPropertyOp28
 70
     1
102
RTVSPropertyOp29
 70
     1
102
RTVSPropertyOp30
 70
     1
102
RTVSPropertyOp31
 70
     1
102
RTVSPropertyOp32
 70
     1
102
RTVSPropertyOp33
 70
     1
102
RTVSPropertyOp34
 70
     1
102
RTVSPropertyOp35
 70
     1
102
RTVSPropertyOp36
 70
     1
102
RTVSPropertyOp37
 70
     1
102
RTVSPropertyOp38
 70
     1
102
RTVSPropertyOp39
 70
     1
102
RTVSPropertyOp40
 70
     1
102
RTVSPropertyOp41
 70
     1
102
RTVSPropertyOp42
 70
     1
102
RTVSPropertyOp43
 70
     1
102
RTVSPropertyOp44
 70
     1
102
RTVSPropertyOp45
 70
     1
102
RTVSPropertyOp46
 70
     1
102
RTVSPropertyOp47
 70
     1
102
RTVSPropertyOp48
 70
     1
102
RTVSPropertyOp49
 70
     1
102
RTVSPropertyOp50
 70
     1
102
RTVSPropertyOp51
 70
     0
102
RTVSPropertyOp52
 70
     0
102
RTVSPropertyOp53
 70
     1
102
RTVSPropertyOp54
 70
     1
102
RTVSPropertyOp55
 70
     1
102
RTVSPropertyOp56
 70
     1
102
RTVSPropertyOp57
 70
     1
102
RTVSPropertyOp58
 70
     1
102
RTVSPropertyOp59
 70
     1
102
RTVSPropertyOp60
 70
     1
102
RTVSPropertyOp61
 70
     1
102
RTVSPropertyOp62
 70
     1
  0
XRECORD
  5
B16D
102
{ACAD_REACTORS
330
B16C
102
}
330
B16C
100
AcDbXrecord
280
     1
102
RTVSPost2010Prop28
280
     0
102
RTVSPost2010PropOp28
 70
     1
102
RTVSPost2010Prop29
280
     1
102
RTVSPost2010PropOp29
 70
     1
102
RTVSPost2010Prop30
280
     1
102
RTVSPost2010PropOp30
 70
     1
102
RTVSPost2010Prop31
280
     0
102
RTVSPost2010PropOp31
 70
     1
102
RTVSPost2010Prop32
280
     0
102
RTVSPost2010PropOp32
 70
     1
102
RTVSPost2010Prop33
280
     0
102
RTVSPost2010PropOp33
 70
     1
102
RTVSPost2010Prop34
280
     0
102
RTVSPost2010PropOp34
 70
     1
102
RTVSPost2010Prop35
280
     0
102
RTVSPost2010PropOp35
 70
     1
102
RTVSPost2010Prop36
280
     0
102
RTVSPost2010PropOp36
 70
     1
102
RTVSPost2010Prop37
 90
       50
102
RTVSPost2010PropOp37
 70
     1
102
RTVSPost2010Prop38
140
0.0
102
RTVSPost2010PropOp38
 70
     1
102
RTVSPost2010Prop39
140
1.0
102
RTVSPost2010PropOp39
 70
     1
102
RTVSPost2010Prop40
 90
        0
102
RTVSPost2010PropOp40
 70
     1
102
RTVSPost2010Prop41ColorIndex
 90
       18
102
RTVSPost2010Prop41ColorRGB
 90
        0
102
RTVSPost2010PropOp41
 70
     1
102
RTVSPost2010Prop42
 90
       50
102
RTVSPost2010PropOp42
 70
     1
102
RTVSPost2010Prop43
 90
        3
102
RTVSPost2010PropOp43
 70
     1
102
RTVSPost2010Prop44ColorIndex
 90
        5
102
RTVSPost2010Prop44ColorRGB
 90
      255
102
RTVSPost2010PropOp44
 70
     1
102
RTVSPost2010Prop45
280
     0
102
RTVSPost2010PropOp45
 70
     1
102
RTVSPost2010Prop46
 90
       50
102
RTVSPost2010PropOp46
 70
     1
102
RTVSPost2010Prop47
 90
       50
102
RTVSPost2010PropOp47
 70
     1
102
RTVSPost2010Prop48
 90
       50
102
RTVSPost2010PropOp48
 70
     1
102
RTVSPost2010Prop49
280
     0
102
RTVSPost2010PropOp49
 70
     1
102
RTVSPost2010Prop50
 90
       50
102
RTVSPost2010PropOp50
 70
     1
102
RTVSPost2010Prop51ColorIndex
 90
      256
102
RTVSPost2010Prop51ColorRGB
 90
-16777216
102
RTVSPost2010PropOp51
 70
     0
102
RTVSPost2010Prop52
140
1.0
102
RTVSPost2010PropOp52
 70
     0
102
RTVSPost2010Prop53
 90
        2
102
RTVSPost2010PropOp53
 70
     1
102
RTVSPost2010Prop54
  1
strokes_ogs.tif
102
RTVSPost2010PropOp54
 70
     1
102
RTVSPost2010Prop55
280
     0
102
RTVSPost2010PropOp55
 70
     1
102
RTVSPost2010Prop56
140
1.0
102
RTVSPost2010PropOp56
 70
     1
102
RTVSPost2010Prop57
140
1.0
102
RTVSPost2010PropOp57
 70
     1
102
RTVSPropertyOp0
 70
     1
102
RTVSPropertyOp1
 70
     1
102
RTVSPropertyOp2
 70
     1
102
RTVSPropertyOp3
 70
     1
102
RTVSPropertyOp4
 70
     1
102
RTVSPropertyOp5
 70
     1
102
RTVSPropertyOp6
 70
     1
102
RTVSPropertyOp7
 70
     1
102
RTVSPropertyOp8
 70
     1
102
RTVSPropertyOp9
 70
     1
102
RTVSPropertyOp10
 70
     1
102
RTVSPropertyOp11
 70
     1
102
RTVSPropertyOp12
 70
     1
102
RTVSPropertyOp13
 70
     1
102
RTVSPropertyOp14
 70
     1
102
RTVSPropertyOp15
 70
     1
102
RTVSPropertyOp16
 70
     1
102
RTVSPropertyOp17
 70
     1
102
RTVSPropertyOp18
 70
     1
102
RTVSPropertyOp19
 70
     1
102
RTVSPropertyOp20
 70
     1
102
RTVSPropertyOp21
 70
     1
102
RTVSPropertyOp22
 70
     1
102
RTVSPropertyOp23
 70
     1
102
RTVSPropertyOp24
 70
     1
102
RTVSPropertyOp25
 70
     1
102
RTVSPropertyOp26
 70
     1
102
RTVSPropertyOp27
 70
     1
102
RTVSPropertyOp28
 70
     1
102
RTVSPropertyOp29
 70
     1
102
RTVSPropertyOp30
 70
     1
102
RTVSPropertyOp31
 70
     1
102
RTVSPropertyOp32
 70
     1
102
RTVSPropertyOp33
 70
     1
102
RTVSPropertyOp34
 70
     1
102
RTVSPropertyOp35
 70
     1
102
RTVSPropertyOp36
 70
     1
102
RTVSPropertyOp37
 70
     1
102
RTVSPropertyOp38
 70
     1
102
RTVSPropertyOp39
 70
     1
102
RTVSPropertyOp40
 70
     1
102
RTVSPropertyOp41
 70
     1
102
RTVSPropertyOp42
 70
     1
102
RTVSPropertyOp43
 70
     1
102
RTVSPropertyOp44
 70
     1
102
RTVSPropertyOp45
 70
     1
102
RTVSPropertyOp46
 70
     1
102
RTVSPropertyOp47
 70
     1
102
RTVSPropertyOp48
 70
     1
102
RTVSPropertyOp49
 70
     1
102
RTVSPropertyOp50
 70
     1
102
RTVSPropertyOp51
 70
     0
102
RTVSPropertyOp52
 70
     0
102
RTVSPropertyOp53
 70
     1
102
RTVSPropertyOp54
 70
     1
102
RTVSPropertyOp55
 70
     1
102
RTVSPropertyOp56
 70
     1
102
RTVSPropertyOp57
 70
     1
102
RTVSPropertyOp58
 70
     1
102
RTVSPropertyOp59
 70
     1
102
RTVSPropertyOp60
 70
     1
102
RTVSPropertyOp61
 70
     1
102
RTVSPropertyOp62
 70
     1
  0
XRECORD
  5
B167
102
{ACAD_REACTORS
330
B166
102
}
330
B166
100
AcDbXrecord
280
     1
102
RTVSPost2010Prop28
280
     0
102
RTVSPost2010PropOp28
 70
     1
102
RTVSPost2010Prop29
280
     1
102
RTVSPost2010PropOp29
 70
     1
102
RTVSPost2010Prop30
280
     1
102
RTVSPost2010PropOp30
 70
     1
102
RTVSPost2010Prop31
280
     0
102
RTVSPost2010PropOp31
 70
     1
102
RTVSPost2010Prop32
280
     0
102
RTVSPost2010PropOp32
 70
     1
102
RTVSPost2010Prop33
280
     0
102
RTVSPost2010PropOp33
 70
     1
102
RTVSPost2010Prop34
280
     0
102
RTVSPost2010PropOp34
 70
     1
102
RTVSPost2010Prop35
280
     0
102
RTVSPost2010PropOp35
 70
     1
102
RTVSPost2010Prop36
280
     0
102
RTVSPost2010PropOp36
 70
     1
102
RTVSPost2010Prop37
 90
       50
102
RTVSPost2010PropOp37
 70
     1
102
RTVSPost2010Prop38
140
0.0
102
RTVSPost2010PropOp38
 70
     1
102
RTVSPost2010Prop39
140
1.0
102
RTVSPost2010PropOp39
 70
     1
102
RTVSPost2010Prop40
 90
        0
102
RTVSPost2010PropOp40
 70
     1
102
RTVSPost2010Prop41ColorIndex
 90
       18
102
RTVSPost2010Prop41ColorRGB
 90
        0
102
RTVSPost2010PropOp41
 70
     1
102
RTVSPost2010Prop42
 90
       50
102
RTVSPost2010PropOp42
 70
     1
102
RTVSPost2010Prop43
 90
        3
102
RTVSPost2010PropOp43
 70
     1
102
RTVSPost2010Prop44ColorIndex
 90
        5
102
RTVSPost2010Prop44ColorRGB
 90
      255
102
RTVSPost2010PropOp44
 70
     1
102
RTVSPost2010Prop45
280
     0
102
RTVSPost2010PropOp45
 70
     1
102
RTVSPost2010Prop46
 90
       50
102
RTVSPost2010PropOp46
 70
     1
102
RTVSPost2010Prop47
 90
       50
102
RTVSPost2010PropOp47
 70
     1
102
RTVSPost2010Prop48
 90
       50
102
RTVSPost2010PropOp48
 70
     1
102
RTVSPost2010Prop49
280
     0
102
RTVSPost2010PropOp49
 70
     1
102
RTVSPost2010Prop50
 90
       50
102
RTVSPost2010PropOp50
 70
     1
102
RTVSPost2010Prop51ColorIndex
 90
      256
102
RTVSPost2010Prop51ColorRGB
 90
-16777216
102
RTVSPost2010PropOp51
 70
     0
102
RTVSPost2010Prop52
140
1.0
102
RTVSPost2010PropOp52
 70
     0
102
RTVSPost2010Prop53
 90
        2
102
RTVSPost2010PropOp53
 70
     1
102
RTVSPost2010Prop54
  1
strokes_ogs.tif
102
RTVSPost2010PropOp54
 70
     1
102
RTVSPost2010Prop55
280
     0
102
RTVSPost2010PropOp55
 70
     1
102
RTVSPost2010Prop56
140
1.0
102
RTVSPost2010PropOp56
 70
     1
102
RTVSPost2010Prop57
140
1.0
102
RTVSPost2010PropOp57
 70
     1
102
RTVSPropertyOp0
 70
     1
102
RTVSPropertyOp1
 70
     1
102
RTVSPropertyOp2
 70
     1
102
RTVSPropertyOp3
 70
     1
102
RTVSPropertyOp4
 70
     1
102
RTVSPropertyOp5
 70
     1
102
RTVSPropertyOp6
 70
     1
102
RTVSPropertyOp7
 70
     1
102
RTVSPropertyOp8
 70
     1
102
RTVSPropertyOp9
 70
     1
102
RTVSPropertyOp10
 70
     1
102
RTVSPropertyOp11
 70
     1
102
RTVSPropertyOp12
 70
     1
102
RTVSPropertyOp13
 70
     1
102
RTVSPropertyOp14
 70
     1
102
RTVSPropertyOp15
 70
     1
102
RTVSPropertyOp16
 70
     1
102
RTVSPropertyOp17
 70
     1
102
RTVSPropertyOp18
 70
     1
102
RTVSPropertyOp19
 70
     1
102
RTVSPropertyOp20
 70
     1
102
RTVSPropertyOp21
 70
     1
102
RTVSPropertyOp22
 70
     1
102
RTVSPropertyOp23
 70
     1
102
RTVSPropertyOp24
 70
     1
102
RTVSPropertyOp25
 70
     1
102
RTVSPropertyOp26
 70
     1
102
RTVSPropertyOp27
 70
     1
102
RTVSPropertyOp28
 70
     1
102
RTVSPropertyOp29
 70
     1
102
RTVSPropertyOp30
 70
     1
102
RTVSPropertyOp31
 70
     1
102
RTVSPropertyOp32
 70
     1
102
RTVSPropertyOp33
 70
     1
102
RTVSPropertyOp34
 70
     1
102
RTVSPropertyOp35
 70
     1
102
RTVSPropertyOp36
 70
     1
102
RTVSPropertyOp37
 70
     1
102
RTVSPropertyOp38
 70
     1
102
RTVSPropertyOp39
 70
     1
102
RTVSPropertyOp40
 70
     1
102
RTVSPropertyOp41
 70
     1
102
RTVSPropertyOp42
 70
     1
102
RTVSPropertyOp43
 70
     1
102
RTVSPropertyOp44
 70
     1
102
RTVSPropertyOp45
 70
     1
102
RTVSPropertyOp46
 70
     1
102
RTVSPropertyOp47
 70
     1
102
RTVSPropertyOp48
 70
     1
102
RTVSPropertyOp49
 70
     1
102
RTVSPropertyOp50
 70
     1
102
RTVSPropertyOp51
 70
     0
102
RTVSPropertyOp52
 70
     0
102
RTVSPropertyOp53
 70
     1
102
RTVSPropertyOp54
 70
     1
102
RTVSPropertyOp55
 70
     1
102
RTVSPropertyOp56
 70
     1
102
RTVSPropertyOp57
 70
     1
102
RTVSPropertyOp58
 70
     1
102
RTVSPropertyOp59
 70
     1
102
RTVSPropertyOp60
 70
     1
102
RTVSPropertyOp61
 70
     1
102
RTVSPropertyOp62
 70
     1
  0
XRECORD
  5
B169
102
{ACAD_REACTORS
330
B168
102
}
330
B168
100
AcDbXrecord
280
     1
102
RTVSPost2010Prop28
280
     0
102
RTVSPost2010PropOp28
 70
     1
102
RTVSPost2010Prop29
280
     1
102
RTVSPost2010PropOp29
 70
     1
102
RTVSPost2010Prop30
280
     1
102
RTVSPost2010PropOp30
 70
     1
102
RTVSPost2010Prop31
280
     0
102
RTVSPost2010PropOp31
 70
     1
102
RTVSPost2010Prop32
280
     0
102
RTVSPost2010PropOp32
 70
     1
102
RTVSPost2010Prop33
280
     0
102
RTVSPost2010PropOp33
 70
     1
102
RTVSPost2010Prop34
280
     0
102
RTVSPost2010PropOp34
 70
     1
102
RTVSPost2010Prop35
280
     0
102
RTVSPost2010PropOp35
 70
     1
102
RTVSPost2010Prop36
280
     0
102
RTVSPost2010PropOp36
 70
     1
102
RTVSPost2010Prop37
 90
       50
102
RTVSPost2010PropOp37
 70
     1
102
RTVSPost2010Prop38
140
0.0
102
RTVSPost2010PropOp38
 70
     1
102
RTVSPost2010Prop39
140
1.0
102
RTVSPost2010PropOp39
 70
     1
102
RTVSPost2010Prop40
 90
        0
102
RTVSPost2010PropOp40
 70
     1
102
RTVSPost2010Prop41ColorIndex
 90
       18
102
RTVSPost2010Prop41ColorRGB
 90
        0
102
RTVSPost2010PropOp41
 70
     1
102
RTVSPost2010Prop42
 90
       50
102
RTVSPost2010PropOp42
 70
     1
102
RTVSPost2010Prop43
 90
        3
102
RTVSPost2010PropOp43
 70
     1
102
RTVSPost2010Prop44ColorIndex
 90
        5
102
RTVSPost2010Prop44ColorRGB
 90
      255
102
RTVSPost2010PropOp44
 70
     1
102
RTVSPost2010Prop45
280
     0
102
RTVSPost2010PropOp45
 70
     1
102
RTVSPost2010Prop46
 90
       50
102
RTVSPost2010PropOp46
 70
     1
102
RTVSPost2010Prop47
 90
       50
102
RTVSPost2010PropOp47
 70
     1
102
RTVSPost2010Prop48
 90
       50
102
RTVSPost2010PropOp48
 70
     1
102
RTVSPost2010Prop49
280
     0
102
RTVSPost2010PropOp49
 70
     1
102
RTVSPost2010Prop50
 90
       50
102
RTVSPost2010PropOp50
 70
     1
102
RTVSPost2010Prop51ColorIndex
 90
      256
102
RTVSPost2010Prop51ColorRGB
 90
-16777216
102
RTVSPost2010PropOp51
 70
     0
102
RTVSPost2010Prop52
140
1.0
102
RTVSPost2010PropOp52
 70
     0
102
RTVSPost2010Prop53
 90
        2
102
RTVSPost2010PropOp53
 70
     1
102
RTVSPost2010Prop54
  1
strokes_ogs.tif
102
RTVSPost2010PropOp54
 70
     1
102
RTVSPost2010Prop55
280
     0
102
RTVSPost2010PropOp55
 70
     1
102
RTVSPost2010Prop56
140
1.0
102
RTVSPost2010PropOp56
 70
     1
102
RTVSPost2010Prop57
140
1.0
102
RTVSPost2010PropOp57
 70
     1
102
RTVSPropertyOp0
 70
     1
102
RTVSPropertyOp1
 70
     1
102
RTVSPropertyOp2
 70
     1
102
RTVSPropertyOp3
 70
     1
102
RTVSPropertyOp4
 70
     1
102
RTVSPropertyOp5
 70
     1
102
RTVSPropertyOp6
 70
     1
102
RTVSPropertyOp7
 70
     1
102
RTVSPropertyOp8
 70
     1
102
RTVSPropertyOp9
 70
     1
102
RTVSPropertyOp10
 70
     1
102
RTVSPropertyOp11
 70
     1
102
RTVSPropertyOp12
 70
     1
102
RTVSPropertyOp13
 70
     1
102
RTVSPropertyOp14
 70
     1
102
RTVSPropertyOp15
 70
     1
102
RTVSPropertyOp16
 70
     1
102
RTVSPropertyOp17
 70
     1
102
RTVSPropertyOp18
 70
     1
102
RTVSPropertyOp19
 70
     1
102
RTVSPropertyOp20
 70
     1
102
RTVSPropertyOp21
 70
     1
102
RTVSPropertyOp22
 70
     1
102
RTVSPropertyOp23
 70
     1
102
RTVSPropertyOp24
 70
     1
102
RTVSPropertyOp25
 70
     1
102
RTVSPropertyOp26
 70
     1
102
RTVSPropertyOp27
 70
     1
102
RTVSPropertyOp28
 70
     1
102
RTVSPropertyOp29
 70
     1
102
RTVSPropertyOp30
 70
     1
102
RTVSPropertyOp31
 70
     1
102
RTVSPropertyOp32
 70
     1
102
RTVSPropertyOp33
 70
     1
102
RTVSPropertyOp34
 70
     1
102
RTVSPropertyOp35
 70
     1
102
RTVSPropertyOp36
 70
     1
102
RTVSPropertyOp37
 70
     1
102
RTVSPropertyOp38
 70
     1
102
RTVSPropertyOp39
 70
     1
102
RTVSPropertyOp40
 70
     1
102
RTVSPropertyOp41
 70
     1
102
RTVSPropertyOp42
 70
     1
102
RTVSPropertyOp43
 70
     1
102
RTVSPropertyOp44
 70
     1
102
RTVSPropertyOp45
 70
     1
102
RTVSPropertyOp46
 70
     1
102
RTVSPropertyOp47
 70
     1
102
RTVSPropertyOp48
 70
     1
102
RTVSPropertyOp49
 70
     1
102
RTVSPropertyOp50
 70
     1
102
RTVSPropertyOp51
 70
     0
102
RTVSPropertyOp52
 70
     0
102
RTVSPropertyOp53
 70
     1
102
RTVSPropertyOp54
 70
     1
102
RTVSPropertyOp55
 70
     1
102
RTVSPropertyOp56
 70
     1
102
RTVSPropertyOp57
 70
     1
102
RTVSPropertyOp58
 70
     1
102
RTVSPropertyOp59
 70
     1
102
RTVSPropertyOp60
 70
     1
102
RTVSPropertyOp61
 70
     1
102
RTVSPropertyOp62
 70
     1
  0
XRECORD
  5
B15F
102
{ACAD_REACTORS
330
B15E
102
}
330
B15E
100
AcDbXrecord
280
     1
102
RTVSPost2010Prop28
280
     0
102
RTVSPost2010PropOp28
 70
     1
102
RTVSPost2010Prop29
280
     1
102
RTVSPost2010PropOp29
 70
     1
102
RTVSPost2010Prop30
280
     1
102
RTVSPost2010PropOp30
 70
     1
102
RTVSPost2010Prop31
280
     0
102
RTVSPost2010PropOp31
 70
     1
102
RTVSPost2010Prop32
280
     0
102
RTVSPost2010PropOp32
 70
     1
102
RTVSPost2010Prop33
280
     0
102
RTVSPost2010PropOp33
 70
     1
102
RTVSPost2010Prop34
280
     0
102
RTVSPost2010PropOp34
 70
     1
102
RTVSPost2010Prop35
280
     0
102
RTVSPost2010PropOp35
 70
     1
102
RTVSPost2010Prop36
280
     0
102
RTVSPost2010PropOp36
 70
     1
102
RTVSPost2010Prop37
 90
       50
102
RTVSPost2010PropOp37
 70
     1
102
RTVSPost2010Prop38
140
0.0
102
RTVSPost2010PropOp38
 70
     1
102
RTVSPost2010Prop39
140
1.0
102
RTVSPost2010PropOp39
 70
     1
102
RTVSPost2010Prop40
 90
        0
102
RTVSPost2010PropOp40
 70
     1
102
RTVSPost2010Prop41ColorIndex
 90
       18
102
RTVSPost2010Prop41ColorRGB
 90
        0
102
RTVSPost2010PropOp41
 70
     1
102
RTVSPost2010Prop42
 90
       50
102
RTVSPost2010PropOp42
 70
     1
102
RTVSPost2010Prop43
 90
        3
102
RTVSPost2010PropOp43
 70
     1
102
RTVSPost2010Prop44ColorIndex
 90
        5
102
RTVSPost2010Prop44ColorRGB
 90
      255
102
RTVSPost2010PropOp44
 70
     1
102
RTVSPost2010Prop45
280
     0
102
RTVSPost2010PropOp45
 70
     1
102
RTVSPost2010Prop46
 90
       50
102
RTVSPost2010PropOp46
 70
     1
102
RTVSPost2010Prop47
 90
       50
102
RTVSPost2010PropOp47
 70
     1
102
RTVSPost2010Prop48
 90
       50
102
RTVSPost2010PropOp48
 70
     1
102
RTVSPost2010Prop49
280
     0
102
RTVSPost2010PropOp49
 70
     1
102
RTVSPost2010Prop50
 90
       50
102
RTVSPost2010PropOp50
 70
     1
102
RTVSPost2010Prop51ColorIndex
 90
      256
102
RTVSPost2010Prop51ColorRGB
 90
-16777216
102
RTVSPost2010PropOp51
 70
     0
102
RTVSPost2010Prop52
140
1.0
102
RTVSPost2010PropOp52
 70
     0
102
RTVSPost2010Prop53
 90
        2
102
RTVSPost2010PropOp53
 70
     1
102
RTVSPost2010Prop54
  1
strokes_ogs.tif
102
RTVSPost2010PropOp54
 70
     1
102
RTVSPost2010Prop55
280
     0
102
RTVSPost2010PropOp55
 70
     1
102
RTVSPost2010Prop56
140
1.0
102
RTVSPost2010PropOp56
 70
     1
102
RTVSPost2010Prop57
140
1.0
102
RTVSPost2010PropOp57
 70
     1
102
RTVSPropertyOp0
 70
     1
102
RTVSPropertyOp1
 70
     1
102
RTVSPropertyOp2
 70
     1
102
RTVSPropertyOp3
 70
     1
102
RTVSPropertyOp4
 70
     1
102
RTVSPropertyOp5
 70
     1
102
RTVSPropertyOp6
 70
     1
102
RTVSPropertyOp7
 70
     1
102
RTVSPropertyOp8
 70
     1
102
RTVSPropertyOp9
 70
     1
102
RTVSPropertyOp10
 70
     1
102
RTVSPropertyOp11
 70
     1
102
RTVSPropertyOp12
 70
     1
102
RTVSPropertyOp13
 70
     1
102
RTVSPropertyOp14
 70
     1
102
RTVSPropertyOp15
 70
     1
102
RTVSPropertyOp16
 70
     1
102
RTVSPropertyOp17
 70
     1
102
RTVSPropertyOp18
 70
     1
102
RTVSPropertyOp19
 70
     1
102
RTVSPropertyOp20
 70
     1
102
RTVSPropertyOp21
 70
     1
102
RTVSPropertyOp22
 70
     1
102
RTVSPropertyOp23
 70
     1
102
RTVSPropertyOp24
 70
     1
102
RTVSPropertyOp25
 70
     1
102
RTVSPropertyOp26
 70
     1
102
RTVSPropertyOp27
 70
     1
102
RTVSPropertyOp28
 70
     1
102
RTVSPropertyOp29
 70
     1
102
RTVSPropertyOp30
 70
     1
102
RTVSPropertyOp31
 70
     1
102
RTVSPropertyOp32
 70
     1
102
RTVSPropertyOp33
 70
     1
102
RTVSPropertyOp34
 70
     1
102
RTVSPropertyOp35
 70
     1
102
RTVSPropertyOp36
 70
     1
102
RTVSPropertyOp37
 70
     1
102
RTVSPropertyOp38
 70
     1
102
RTVSPropertyOp39
 70
     1
102
RTVSPropertyOp40
 70
     1
102
RTVSPropertyOp41
 70
     1
102
RTVSPropertyOp42
 70
     1
102
RTVSPropertyOp43
 70
     1
102
RTVSPropertyOp44
 70
     1
102
RTVSPropertyOp45
 70
     1
102
RTVSPropertyOp46
 70
     1
102
RTVSPropertyOp47
 70
     1
102
RTVSPropertyOp48
 70
     1
102
RTVSPropertyOp49
 70
     1
102
RTVSPropertyOp50
 70
     1
102
RTVSPropertyOp51
 70
     0
102
RTVSPropertyOp52
 70
     0
102
RTVSPropertyOp53
 70
     1
102
RTVSPropertyOp54
 70
     1
102
RTVSPropertyOp55
 70
     1
102
RTVSPropertyOp56
 70
     1
102
RTVSPropertyOp57
 70
     1
102
RTVSPropertyOp58
 70
     1
102
RTVSPropertyOp59
 70
     1
102
RTVSPropertyOp60
 70
     1
102
RTVSPropertyOp61
 70
     1
102
RTVSPropertyOp62
 70
     1
  0
XRECORD
  5
B153
102
{ACAD_REACTORS
330
B152
102
}
330
B152
100
AcDbXrecord
280
     1
102
RTVSPost2010Prop28
280
     0
102
RTVSPost2010PropOp28
 70
     1
102
RTVSPost2010Prop29
280
     1
102
RTVSPost2010PropOp29
 70
     1
102
RTVSPost2010Prop30
280
     1
102
RTVSPost2010PropOp30
 70
     1
102
RTVSPost2010Prop31
280
     0
102
RTVSPost2010PropOp31
 70
     1
102
RTVSPost2010Prop32
280
     0
102
RTVSPost2010PropOp32
 70
     1
102
RTVSPost2010Prop33
280
     0
102
RTVSPost2010PropOp33
 70
     1
102
RTVSPost2010Prop34
280
     0
102
RTVSPost2010PropOp34
 70
     1
102
RTVSPost2010Prop35
280
     0
102
RTVSPost2010PropOp35
 70
     1
102
RTVSPost2010Prop36
280
     0
102
RTVSPost2010PropOp36
 70
     1
102
RTVSPost2010Prop37
 90
       50
102
RTVSPost2010PropOp37
 70
     1
102
RTVSPost2010Prop38
140
0.0
102
RTVSPost2010PropOp38
 70
     1
102
RTVSPost2010Prop39
140
1.0
102
RTVSPost2010PropOp39
 70
     1
102
RTVSPost2010Prop40
 90
        0
102
RTVSPost2010PropOp40
 70
     1
102
RTVSPost2010Prop41ColorIndex
 90
       18
102
RTVSPost2010Prop41ColorRGB
 90
        0
102
RTVSPost2010PropOp41
 70
     1
102
RTVSPost2010Prop42
 90
       50
102
RTVSPost2010PropOp42
 70
     1
102
RTVSPost2010Prop43
 90
        3
102
RTVSPost2010PropOp43
 70
     1
102
RTVSPost2010Prop44ColorIndex
 90
        5
102
RTVSPost2010Prop44ColorRGB
 90
      255
102
RTVSPost2010PropOp44
 70
     1
102
RTVSPost2010Prop45
280
     0
102
RTVSPost2010PropOp45
 70
     1
102
RTVSPost2010Prop46
 90
       50
102
RTVSPost2010PropOp46
 70
     1
102
RTVSPost2010Prop47
 90
       50
102
RTVSPost2010PropOp47
 70
     1
102
RTVSPost2010Prop48
 90
       50
102
RTVSPost2010PropOp48
 70
     1
102
RTVSPost2010Prop49
280
     0
102
RTVSPost2010PropOp49
 70
     1
102
RTVSPost2010Prop50
 90
       50
102
RTVSPost2010PropOp50
 70
     1
102
RTVSPost2010Prop51ColorIndex
 90
      256
102
RTVSPost2010Prop51ColorRGB
 90
-16777216
102
RTVSPost2010PropOp51
 70
     0
102
RTVSPost2010Prop52
140
1.0
102
RTVSPost2010PropOp52
 70
     0
102
RTVSPost2010Prop53
 90
        2
102
RTVSPost2010PropOp53
 70
     1
102
RTVSPost2010Prop54
  1
strokes_ogs.tif
102
RTVSPost2010PropOp54
 70
     1
102
RTVSPost2010Prop55
280
     0
102
RTVSPost2010PropOp55
 70
     1
102
RTVSPost2010Prop56
140
1.0
102
RTVSPost2010PropOp56
 70
     1
102
RTVSPost2010Prop57
140
1.0
102
RTVSPost2010PropOp57
 70
     1
102
RTVSPropertyOp0
 70
     1
102
RTVSPropertyOp1
 70
     1
102
RTVSPropertyOp2
 70
     1
102
RTVSPropertyOp3
 70
     1
102
RTVSPropertyOp4
 70
     1
102
RTVSPropertyOp5
 70
     1
102
RTVSPropertyOp6
 70
     1
102
RTVSPropertyOp7
 70
     1
102
RTVSPropertyOp8
 70
     1
102
RTVSPropertyOp9
 70
     1
102
RTVSPropertyOp10
 70
     1
102
RTVSPropertyOp11
 70
     1
102
RTVSPropertyOp12
 70
     1
102
RTVSPropertyOp13
 70
     1
102
RTVSPropertyOp14
 70
     1
102
RTVSPropertyOp15
 70
     1
102
RTVSPropertyOp16
 70
     1
102
RTVSPropertyOp17
 70
     1
102
RTVSPropertyOp18
 70
     1
102
RTVSPropertyOp19
 70
     1
102
RTVSPropertyOp20
 70
     1
102
RTVSPropertyOp21
 70
     1
102
RTVSPropertyOp22
 70
     1
102
RTVSPropertyOp23
 70
     1
102
RTVSPropertyOp24
 70
     1
102
RTVSPropertyOp25
 70
     1
102
RTVSPropertyOp26
 70
     1
102
RTVSPropertyOp27
 70
     1
102
RTVSPropertyOp28
 70
     1
102
RTVSPropertyOp29
 70
     1
102
RTVSPropertyOp30
 70
     1
102
RTVSPropertyOp31
 70
     1
102
RTVSPropertyOp32
 70
     1
102
RTVSPropertyOp33
 70
     1
102
RTVSPropertyOp34
 70
     1
102
RTVSPropertyOp35
 70
     1
102
RTVSPropertyOp36
 70
     1
102
RTVSPropertyOp37
 70
     1
102
RTVSPropertyOp38
 70
     1
102
RTVSPropertyOp39
 70
     1
102
RTVSPropertyOp40
 70
     1
102
RTVSPropertyOp41
 70
     1
102
RTVSPropertyOp42
 70
     1
102
RTVSPropertyOp43
 70
     1
102
RTVSPropertyOp44
 70
     1
102
RTVSPropertyOp45
 70
     1
102
RTVSPropertyOp46
 70
     1
102
RTVSPropertyOp47
 70
     1
102
RTVSPropertyOp48
 70
     1
102
RTVSPropertyOp49
 70
     1
102
RTVSPropertyOp50
 70
     1
102
RTVSPropertyOp51
 70
     0
102
RTVSPropertyOp52
 70
     0
102
RTVSPropertyOp53
 70
     1
102
RTVSPropertyOp54
 70
     1
102
RTVSPropertyOp55
 70
     1
102
RTVSPropertyOp56
 70
     1
102
RTVSPropertyOp57
 70
     1
102
RTVSPropertyOp58
 70
     1
102
RTVSPropertyOp59
 70
     1
102
RTVSPropertyOp60
 70
     1
102
RTVSPropertyOp61
 70
     1
102
RTVSPropertyOp62
 70
     1
  0
XRECORD
  5
B16B
102
{ACAD_REACTORS
330
B16A
102
}
330
B16A
100
AcDbXrecord
280
     1
102
RTVSPost2010Prop28
280
     0
102
RTVSPost2010PropOp28
 70
     1
102
RTVSPost2010Prop29
280
     1
102
RTVSPost2010PropOp29
 70
     1
102
RTVSPost2010Prop30
280
     1
102
RTVSPost2010PropOp30
 70
     1
102
RTVSPost2010Prop31
280
     0
102
RTVSPost2010PropOp31
 70
     1
102
RTVSPost2010Prop32
280
     0
102
RTVSPost2010PropOp32
 70
     1
102
RTVSPost2010Prop33
280
     0
102
RTVSPost2010PropOp33
 70
     1
102
RTVSPost2010Prop34
280
     0
102
RTVSPost2010PropOp34
 70
     1
102
RTVSPost2010Prop35
280
     0
102
RTVSPost2010PropOp35
 70
     1
102
RTVSPost2010Prop36
280
     0
102
RTVSPost2010PropOp36
 70
     1
102
RTVSPost2010Prop37
 90
       50
102
RTVSPost2010PropOp37
 70
     1
102
RTVSPost2010Prop38
140
0.0
102
RTVSPost2010PropOp38
 70
     1
102
RTVSPost2010Prop39
140
1.0
102
RTVSPost2010PropOp39
 70
     1
102
RTVSPost2010Prop40
 90
        0
102
RTVSPost2010PropOp40
 70
     1
102
RTVSPost2010Prop41ColorIndex
 90
       18
102
RTVSPost2010Prop41ColorRGB
 90
        0
102
RTVSPost2010PropOp41
 70
     1
102
RTVSPost2010Prop42
 90
       50
102
RTVSPost2010PropOp42
 70
     1
102
RTVSPost2010Prop43
 90
        3
102
RTVSPost2010PropOp43
 70
     1
102
RTVSPost2010Prop44ColorIndex
 90
        5
102
RTVSPost2010Prop44ColorRGB
 90
      255
102
RTVSPost2010PropOp44
 70
     1
102
RTVSPost2010Prop45
280
     0
102
RTVSPost2010PropOp45
 70
     1
102
RTVSPost2010Prop46
 90
       50
102
RTVSPost2010PropOp46
 70
     1
102
RTVSPost2010Prop47
 90
       50
102
RTVSPost2010PropOp47
 70
     1
102
RTVSPost2010Prop48
 90
       50
102
RTVSPost2010PropOp48
 70
     1
102
RTVSPost2010Prop49
280
     0
102
RTVSPost2010PropOp49
 70
     1
102
RTVSPost2010Prop50
 90
       50
102
RTVSPost2010PropOp50
 70
     1
102
RTVSPost2010Prop51ColorIndex
 90
      256
102
RTVSPost2010Prop51ColorRGB
 90
-16777216
102
RTVSPost2010PropOp51
 70
     0
102
RTVSPost2010Prop52
140
1.0
102
RTVSPost2010PropOp52
 70
     0
102
RTVSPost2010Prop53
 90
        2
102
RTVSPost2010PropOp53
 70
     1
102
RTVSPost2010Prop54
  1
strokes_ogs.tif
102
RTVSPost2010PropOp54
 70
     1
102
RTVSPost2010Prop55
280
     0
102
RTVSPost2010PropOp55
 70
     1
102
RTVSPost2010Prop56
140
1.0
102
RTVSPost2010PropOp56
 70
     1
102
RTVSPost2010Prop57
140
1.0
102
RTVSPost2010PropOp57
 70
     1
102
RTVSPropertyOp0
 70
     1
102
RTVSPropertyOp1
 70
     1
102
RTVSPropertyOp2
 70
     1
102
RTVSPropertyOp3
 70
     1
102
RTVSPropertyOp4
 70
     1
102
RTVSPropertyOp5
 70
     1
102
RTVSPropertyOp6
 70
     1
102
RTVSPropertyOp7
 70
     1
102
RTVSPropertyOp8
 70
     1
102
RTVSPropertyOp9
 70
     1
102
RTVSPropertyOp10
 70
     1
102
RTVSPropertyOp11
 70
     1
102
RTVSPropertyOp12
 70
     1
102
RTVSPropertyOp13
 70
     1
102
RTVSPropertyOp14
 70
     1
102
RTVSPropertyOp15
 70
     1
102
RTVSPropertyOp16
 70
     1
102
RTVSPropertyOp17
 70
     1
102
RTVSPropertyOp18
 70
     1
102
RTVSPropertyOp19
 70
     1
102
RTVSPropertyOp20
 70
     1
102
RTVSPropertyOp21
 70
     1
102
RTVSPropertyOp22
 70
     1
102
RTVSPropertyOp23
 70
     1
102
RTVSPropertyOp24
 70
     1
102
RTVSPropertyOp25
 70
     1
102
RTVSPropertyOp26
 70
     1
102
RTVSPropertyOp27
 70
     1
102
RTVSPropertyOp28
 70
     1
102
RTVSPropertyOp29
 70
     1
102
RTVSPropertyOp30
 70
     1
102
RTVSPropertyOp31
 70
     1
102
RTVSPropertyOp32
 70
     1
102
RTVSPropertyOp33
 70
     1
102
RTVSPropertyOp34
 70
     1
102
RTVSPropertyOp35
 70
     1
102
RTVSPropertyOp36
 70
     1
102
RTVSPropertyOp37
 70
     1
102
RTVSPropertyOp38
 70
     1
102
RTVSPropertyOp39
 70
     1
102
RTVSPropertyOp40
 70
     1
102
RTVSPropertyOp41
 70
     1
102
RTVSPropertyOp42
 70
     1
102
RTVSPropertyOp43
 70
     1
102
RTVSPropertyOp44
 70
     1
102
RTVSPropertyOp45
 70
     1
102
RTVSPropertyOp46
 70
     1
102
RTVSPropertyOp47
 70
     1
102
RTVSPropertyOp48
 70
     1
102
RTVSPropertyOp49
 70
     1
102
RTVSPropertyOp50
 70
     1
102
RTVSPropertyOp51
 70
     0
102
RTVSPropertyOp52
 70
     0
102
RTVSPropertyOp53
 70
     1
102
RTVSPropertyOp54
 70
     1
102
RTVSPropertyOp55
 70
     1
102
RTVSPropertyOp56
 70
     1
102
RTVSPropertyOp57
 70
     1
102
RTVSPropertyOp58
 70
     1
102
RTVSPropertyOp59
 70
     1
102
RTVSPropertyOp60
 70
     1
102
RTVSPropertyOp61
 70
     1
102
RTVSPropertyOp62
 70
     1
  0
ENDSEC
  0
EOF
