  0
SECTION
  2
HEADER
  9
$ACADVER
  1
AC1015
  9
$ACADMAINTVER
 70
    20
  9
$DWGCODEPAGE
  3
ANSI_1252
  9
$INSBASE
 10
0.0
 20
0.0
 30
0.0
  9
$EXTMIN
 10
568.455106347372
 20
-2172.627871729547
 30
0.0
  9
$EXTMAX
 10
1169.313814728061
 20
-1364.580649053193
 30
0.0
  9
$LIMMIN
 10
0.0
 20
0.0
  9
$LIMMAX
 10
297.0
 20
210.0
  9
$ORTHOMODE
 70
     0
  9
$REGENMODE
 70
     1
  9
$FILLMODE
 70
     1
  9
$QTEXTMODE
 70
     0
  9
$MIRRTEXT
 70
     1
  9
$LTSCALE
 40
1.5
  9
$ATTMODE
 70
     1
  9
$TEXTSIZE
 40
3.5
  9
$TRACEWID
 40
1.0
  9
$TEXTSTYLE
  7
STANDARD
  9
$CLAYER
  8
FERRO
  9
$CELTYPE
  6
BYLAYER
  9
$CECOLOR
 62
   256
  9
$CELTSCALE
 40
1.0
  9
$DISPSILH
 70
     0
  9
$DIMSCALE
 40
3.0
  9
$DIMASZ
 40
1.0
  9
$DIMEXO
 40
1.5
  9
$DIMDLI
 40
10.0
  9
$DIMRND
 40
0.0
  9
$DIMDLE
 40
0.0
  9
$DIMEXE
 40
0.0
  9
$DIMTP
 40
0.0
  9
$DIMTM
 40
0.0
  9
$DIMTXT
 40
2.5
  9
$DIMCEN
 40
2.0
  9
$DIMTSZ
 40
0.0
  9
$DIMTOL
 70
     0
  9
$DIMLIM
 70
     0
  9
$DIMTIH
 70
     0
  9
$DIMTOH
 70
     0
  9
$DIMSE1
 70
     0
  9
$DIMSE2
 70
     0
  9
$DIMTAD
 70
     1
  9
$DIMZIN
 70
     8
  9
$DIMBLK
  1
Oblique
  9
$DIMASO
 70
     1
  9
$DIMSHO
 70
     1
  9
$DIMPOST
  1

  9
$DIMAPOST
  1

  9
$DIMALT
 70
     0
  9
$DIMALTD
 70
     4
  9
$DIMALTF
 40
0.0394
  9
$DIMLFAC
 40
1.0
  9
$DIMTOFL
 70
     1
  9
$DIMTVP
 40
0.0
  9
$DIMTIX
 70
     0
  9
$DIMSOXD
 70
     0
  9
$DIMSAH
 70
     0
  9
$DIMBLK1
  1

  9
$DIMBLK2
  1

  9
$DIMSTYLE
  2
STANDARD_WS
  9
$DIMCLRD
 70
   256
  9
$DIMCLRE
 70
   256
  9
$DIMCLRT
 70
   256
  9
$DIMTFAC
 40
1.0
  9
$DIMGAP
 40
1.0
  9
$DIMJUST
 70
     0
  9
$DIMSD1
 70
     0
  9
$DIMSD2
 70
     0
  9
$DIMTOLJ
 70
     1
  9
$DIMTZIN
 70
     0
  9
$DIMALTZ
 70
     0
  9
$DIMALTTZ
 70
     0
  9
$DIMUPT
 70
     0
  9
$DIMDEC
 70
     1
  9
$DIMTDEC
 70
     1
  9
$DIMALTU
 70
     8
  9
$DIMALTTD
 70
     4
  9
$DIMTXSTY
  7
STANDARD
  9
$DIMAUNIT
 70
     0
  9
$DIMADEC
 70
     1
  9
$DIMALTRND
 40
0.0
  9
$DIMAZIN
 70
     2
  9
$DIMDSEP
 70
    46
  9
$DIMATFIT
 70
     3
  9
$DIMFRAC
 70
     0
  9
$DIMLDRBLK
  1
Oblique
  9
$DIMLUNIT
 70
     2
  9
$DIMLWD
 70
    -2
  9
$DIMLWE
 70
    -2
  9
$DIMTMOVE
 70
     0
  9
$LUNITS
 70
     2
  9
$LUPREC
 70
     4
  9
$SKETCHINC
 40
1.0
  9
$FILLETRAD
 40
7.07070707070707
  9
$AUNITS
 70
     0
  9
$AUPREC
 70
     0
  9
$MENU
  1
acad
  9
$ELEVATION
 40
0.0
  9
$PELEVATION
 40
0.0
  9
$THICKNESS
 40
0.0
  9
$LIMCHECK
 70
     0
  9
$CHAMFERA
 40
7.07070707070707
  9
$CHAMFERB
 40
7.07070707070707
  9
$CHAMFERC
 40
14.14141414141414
  9
$CHAMFERD
 40
0.0
  9
$SKPOLY
 70
     0
  9
$TDCREATE
 40
2451513.764827315
  9
$TDUCREATE
 40
2451513.723160648
  9
$TDUPDATE
 40
2457730.484278947
  9
$TDUUPDATE
 40
2457730.442612280
  9
$TDINDWG
 40
0.2694687500
  9
$TDUSRTIMER
 40
0.2694687500
  9
$USRTIMER
 70
     1
  9
$ANGBASE
 50
0.0
  9
$ANGDIR
 70
     0
  9
$PDMODE
 70
     0
  9
$PDSIZE
 40
0.0
  9
$PLINEWID
 40
0.0
  9
$SPLFRAME
 70
     0
  9
$SPLINETYPE
 70
     6
  9
$SPLINESEGS
 70
     8
  9
$HANDSEED
  5
B1FE
  9
$SURFTAB1
 70
     6
  9
$SURFTAB2
 70
     6
  9
$SURFTYPE
 70
     6
  9
$SURFU
 70
     6
  9
$SURFV
 70
     6
  9
$UCSBASE
  2

  9
$UCSNAME
  2

  9
$UCSORG
 10
0.0
 20
0.0
 30
0.0
  9
$UCSXDIR
 10
1.0
 20
0.0
 30
0.0
  9
$UCSYDIR
 10
0.0
 20
1.0
 30
0.0
  9
$UCSORTHOREF
  2

  9
$UCSORTHOVIEW
 70
     0
  9
$UCSORGTOP
 10
0.0
 20
0.0
 30
0.0
  9
$UCSORGBOTTOM
 10
0.0
 20
0.0
 30
0.0
  9
$UCSORGLEFT
 10
0.0
 20
0.0
 30
0.0
  9
$UCSORGRIGHT
 10
0.0
 20
0.0
 30
0.0
  9
$UCSORGFRONT
 10
0.0
 20
0.0
 30
0.0
  9
$UCSORGBACK
 10
0.0
 20
0.0
 30
0.0
  9
$PUCSBASE
  2

  9
$PUCSNAME
  2

  9
$PUCSORG
 10
0.0
 20
0.0
 30
0.0
  9
$PUCSXDIR
 10
1.0
 20
0.0
 30
0.0
  9
$PUCSYDIR
 10
0.0
 20
1.0
 30
0.0
  9
$PUCSORTHOREF
  2

  9
$PUCSORTHOVIEW
 70
     0
  9
$PUCSORGTOP
 10
0.0
 20
0.0
 30
0.0
  9
$PUCSORGBOTTOM
 10
0.0
 20
0.0
 30
0.0
  9
$PUCSORGLEFT
 10
0.0
 20
0.0
 30
0.0
  9
$PUCSORGRIGHT
 10
0.0
 20
0.0
 30
0.0
  9
$PUCSORGFRONT
 10
0.0
 20
0.0
 30
0.0
  9
$PUCSORGBACK
 10
0.0
 20
0.0
 30
0.0
  9
$USERI1
 70
     0
  9
$USERI2
 70
     0
  9
$USERI3
 70
     0
  9
$USERI4
 70
     0
  9
$USERI5
 70
     0
  9
$USERR1
 40
0.0
  9
$USERR2
 40
0.0
  9
$USERR3
 40
0.0
  9
$USERR4
 40
0.0
  9
$USERR5
 40
0.0
  9
$WORLDVIEW
 70
     1
  9
$SHADEDGE
 70
     3
  9
$SHADEDIF
 70
    70
  9
$TILEMODE
 70
     1
  9
$MAXACTVP
 70
    48
  9
$PINSBASE
 10
0.0
 20
0.0
 30
0.0
  9
$PLIMCHECK
 70
     0
  9
$PEXTMIN
 10
0.0
 20
0.0
 30
0.0
  9
$PEXTMAX
 10
11.0
 20
8.5
 30
0.0
  9
$PLIMMIN
 10
0.0
 20
0.0
  9
$PLIMMAX
 10
11.0
 20
8.5
  9
$UNITMODE
 70
     0
  9
$VISRETAIN
 70
     1
  9
$PLINEGEN
 70
     0
  9
$PSLTSCALE
 70
     1
  9
$TREEDEPTH
 70
  3020
  9
$CMLSTYLE
  2
STANDARD
  9
$CMLJUST
 70
     0
  9
$CMLSCALE
 40
20.0
  9
$PROXYGRAPHICS
 70
     1
  9
$MEASUREMENT
 70
     1
  9
$CELWEIGHT
370
    -1
  9
$ENDCAPS
280
     0
  9
$JOINSTYLE
280
     0
  9
$LWDISPLAY
290
     0
  9
$INSUNITS
 70
     0
  9
$HYPERLINKBASE
  1

  9
$STYLESHEET
  1
aclt.ctb
  9
$XEDIT
290
     1
  9
$CEPSNTYPE
380
     0
  9
$PSTYLEMODE
290
     1
  9
$FINGERPRINTGUID
  2
{245EED19-B48F-11D3-AE0D-0050BF001A35}
  9
$VERSIONGUID
  2
{08C8D0AD-BD79-4581-AFB8-AA3C135DD1FE}
  9
$EXTNAMES
290
     1
  9
$PSVPSCALE
 40
0.0
  9
$OLESTARTUP
290
     0
  0
ENDSEC
  0
SECTION
  2
CLASSES
  0
CLASS
  1
DICTIONARYVAR
  2
AcDbDictionaryVar
  3
ObjectDBX Classes
 90
        0
280
     0
281
     0
  0
CLASS
  1
ACDBDICTIONARYWDFLT
  2
AcDbDictionaryWithDefault
  3
ObjectDBX Classes
 90
        0
280
     0
281
     0
  0
CLASS
  1
ACDBPLACEHOLDER
  2
AcDbPlaceHolder
  3
ObjectDBX Classes
 90
        0
280
     0
281
     0
  0
CLASS
  1
LAYOUT
  2
AcDbLayout
  3
ObjectDBX Classes
 90
        0
280
     0
281
     0
  0
CLASS
  1
MATERIAL
  2
AcDbMaterial
  3
ObjectDBX Classes
 90
     1153
280
     0
281
     0
  0
CLASS
  1
VISUALSTYLE
  2
AcDbVisualStyle
  3
ObjectDBX Classes
 90
     4095
280
     0
281
     0
  0
CLASS
  1
TABLESTYLE
  2
AcDbTableStyle
  3
ObjectDBX Classes
 90
     4095
280
     0
281
     0
  0
CLASS
  1
SCALE
  2
AcDbScale
  3
ObjectDBX Classes
 90
     1153
280
     0
281
     0
  0
CLASS
  1
MLEADERSTYLE
  2
AcDbMLeaderStyle
  3
ACDB_MLEADERSTYLE_CLASS
 90
     4095
280
     0
281
     0
  0
CLASS
  1
ACDBSECTIONVIEWSTYLE
  2
AcDbSectionViewStyle
  3
ObjectDBX Classes
 90
     1025
280
     0
281
     0
  0
CLASS
  1
ACDBDETAILVIEWSTYLE
  2
AcDbDetailViewStyle
  3
ObjectDBX Classes
 90
     1025
280
     0
281
     0
  0
CLASS
  1
CELLSTYLEMAP
  2
AcDbCellStyleMap
  3
ObjectDBX Classes
 90
     1152
280
     0
281
     0
  0
ENDSEC
  0
SECTION
  2
TABLES
  0
TABLE
  2
VPORT
  5
8
330
0
100
AcDbSymbolTable
 70
     1
  0
VPORT
  5
B147
330
8
100
AcDbSymbolTableRecord
100
AcDbViewportTableRecord
  2
*Active
 70
     0
 10
0.0
 20
0.0
 11
1.0
 21
1.0
 12
2273.218311259903
 22
-1964.476586296022
 13
0.0
 23
0.0
 14
10.0
 24
10.0
 15
10.0
 25
10.0
 16
0.0
 26
0.0
 36
1.0
 17
0.0
 27
0.0
 37
0.0
 40
2106.458032683745
 41
2.085280373831775
 42
50.0
 43
0.0
 44
0.0
 50
0.0
 51
0.0
 71
     0
 72
   100
 73
     1
 74
     1
 75
     0
 76
     0
 77
     0
 78
     0
281
     0
 65
     1
110
0.0
120
0.0
130
0.0
111
1.0
121
0.0
131
0.0
112
0.0
122
1.0
132
0.0
 79
     0
146
0.0
1001
ACAD_NAV_VCDISPLAY
1070
     3
  0
ENDTAB
  0
TABLE
  2
LTYPE
  5
5
330
0
100
AcDbSymbolTable
 70
     3
  0
LTYPE
  5
12
330
5
100
AcDbSymbolTableRecord
100
AcDbLinetypeTableRecord
  2
BYBLOCK
 70
     0
  3

 72
    65
 73
     0
 40
0.0
  0
LTYPE
  5
13
330
5
100
AcDbSymbolTableRecord
100
AcDbLinetypeTableRecord
  2
BYLAYER
 70
     0
  3

 72
    65
 73
     0
 40
0.0
  0
LTYPE
  5
14
330
5
100
AcDbSymbolTableRecord
100
AcDbLinetypeTableRecord
  2
CONTINUOUS
 70
     0
  3
Solid line
 72
    65
 73
     0
 40
0.0
  0
LTYPE
  5
40
330
5
100
AcDbSymbolTableRecord
100
AcDbLinetypeTableRecord
  2
TRATTEGGIATA2
 70
     0
  3
tratteggiata (.5x) _ _ _ _ _ _ _ _ _ _ _ _ _ _ 
 72
    65
 73
     2
 40
9.524999999999998
 49
6.349999999999999
 74
     0
 49
-3.174999999999999
 74
     0
  0
LTYPE
  5
A46D
330
5
100
AcDbSymbolTableRecord
100
AcDbLinetypeTableRecord
  2
TRATTOPUNTO2
 70
     0
  3
Tratto punto (.5x) _._._._._._._._._._._._._._.
 72
    65
 73
     4
 40
12.7
 49
6.349999999999999
 74
     0
 49
-3.174999999999999
 74
     0
 49
0.0
 74
     0
 49
-3.174999999999999
 74
     0
  0
ENDTAB
  0
TABLE
  2
LAYER
  5
2
330
0
100
AcDbSymbolTable
 70
    11
  0
LAYER
  5
E
102
{ACAD_XDICTIONARY
360
B19E
102
}
330
2
100
AcDbSymbolTableRecord
100
AcDbLayerTableRecord
  2
0
 70
     0
 62
     7
  6
CONTINUOUS
370
    -3
390
A2C3
  0
LAYER
  5
33
102
{ACAD_XDICTIONARY
360
B1A0
102
}
330
2
100
AcDbSymbolTableRecord
100
AcDbLayerTableRecord
  2
QUOTE
 70
     0
 62
    12
  6
TRATTEGGIATA2
370
    -3
390
A2C3
  0
LAYER
  5
43
102
{ACAD_XDICTIONARY
360
B1A2
102
}
330
2
100
AcDbSymbolTableRecord
100
AcDbLayerTableRecord
  2
FERRO
 70
     0
 62
   250
  6
CONTINUOUS
370
    -3
390
A2C3
  0
LAYER
  5
59
102
{ACAD_XDICTIONARY
360
B1A4
102
}
330
2
100
AcDbSymbolTableRecord
100
AcDbLayerTableRecord
  2
AREA
 70
     1
 62
   166
  6
CONTINUOUS
370
    -3
390
A2C3
  0
LAYER
  5
138
330
2
100
AcDbSymbolTableRecord
100
AcDbLayerTableRecord
  2
DEFPOINTS
 70
     0
 62
     7
  6
CONTINUOUS
290
     0
370
    -3
390
A2C3
  0
LAYER
  5
5AF
102
{ACAD_XDICTIONARY
360
B1A6
102
}
330
2
100
AcDbSymbolTableRecord
100
AcDbLayerTableRecord
  2
TABELLA
 70
     0
 62
     7
  6
CONTINUOUS
370
    -3
390
A2C3
  0
LAYER
  5
185F
102
{ACAD_XDICTIONARY
360
B1A8
102
}
330
2
100
AcDbSymbolTableRecord
100
AcDbLayerTableRecord
  2
ALLUMINIO
 70
     0
 62
     3
  6
CONTINUOUS
370
    -3
390
A2C3
  0
LAYER
  5
2DBD
102
{ACAD_XDICTIONARY
360
B1AA
102
}
330
2
100
AcDbSymbolTableRecord
100
AcDbLayerTableRecord
  2
CONTORNO
 70
     0
 62
     7
  6
CONTINUOUS
370
    -3
390
A2C3
  0
LAYER
  5
A388
102
{ACAD_XDICTIONARY
360
B1AC
102
}
330
2
100
AcDbSymbolTableRecord
100
AcDbLayerTableRecord
  2
AREA166
 70
     0
 62
   166
  6
CONTINUOUS
370
    -3
390
A2C3
  0
LAYER
  5
A46E
102
{ACAD_XDICTIONARY
360
B1AE
102
}
330
2
100
AcDbSymbolTableRecord
100
AcDbLayerTableRecord
  2
ASSI
 70
     0
 62
     5
  6
TRATTOPUNTO2
370
    -3
390
A2C3
  0
LAYER
  5
A6D9
102
{ACAD_XDICTIONARY
360
B1B0
102
}
330
2
100
AcDbSymbolTableRecord
100
AcDbLayerTableRecord
  2
GUARNIZIONI
 70
     0
 62
    85
  6
CONTINUOUS
370
    -3
390
A2C3
  0
ENDTAB
  0
TABLE
  2
STYLE
  5
3
330
0
100
AcDbSymbolTable
 70
     3
  0
STYLE
  5
F
330
3
100
AcDbSymbolTableRecord
100
AcDbTextStyleTableRecord
  2
STANDARD
 70
     0
 40
0.0
 41
1.0
 50
0.0
 71
     0
 42
3.5
  3
txt
  4

  0
STYLE
  5
394
330
3
100
AcDbSymbolTableRecord
100
AcDbTextStyleTableRecord
  2
ROMANS
 70
     0
 40
2.5
 41
0.5
 50
0.0
 71
     0
 42
2.5
  3
romans
  4

  0
STYLE
  5
395
330
3
100
AcDbSymbolTableRecord
100
AcDbTextStyleTableRecord
  2
ROMAND
 70
     0
 40
3.0
 41
0.5
 50
0.0
 71
     0
 42
3.0
  3
romand
  4

  0
ENDTAB
  0
TABLE
  2
VIEW
  5
6
330
0
100
AcDbSymbolTable
 70
     0
  0
ENDTAB
  0
TABLE
  2
UCS
  5
7
330
0
100
AcDbSymbolTable
 70
     0
  0
ENDTAB
  0
TABLE
  2
APPID
  5
9
330
0
100
AcDbSymbolTable
 70
     7
  0
APPID
  5
10
330
9
100
AcDbSymbolTableRecord
100
AcDbRegAppTableRecord
  2
ACAD
 70
     0
  0
APPID
  5
24
330
9
100
AcDbSymbolTableRecord
100
AcDbRegAppTableRecord
  2
CONTENTTABDATA
 70
     0
  0
APPID
  5
25
330
9
100
AcDbSymbolTableRecord
100
AcDbRegAppTableRecord
  2
CONTENTCURRENTTAB
 70
     0
  0
APPID
  5
2DBF
330
9
100
AcDbSymbolTableRecord
100
AcDbRegAppTableRecord
  2
CONTENTBLOCKDESCRIPTION
 70
     0
  0
APPID
  5
2DC0
330
9
100
AcDbSymbolTableRecord
100
AcDbRegAppTableRecord
  2
CONTENTBLOCKICON
 70
     0
  0
APPID
  5
B1BA
330
9
100
AcDbSymbolTableRecord
100
AcDbRegAppTableRecord
  2
ACAD_NAV_VCDISPLAY
 70
     0
  0
APPID
  5
B1FB
330
9
100
AcDbSymbolTableRecord
100
AcDbRegAppTableRecord
  2
ACAD_MLEADERVER
 70
     0
  0
ENDTAB
  0
TABLE
  2
DIMSTYLE
  5
A
330
0
100
AcDbSymbolTable
 70
     2
100
AcDbDimStyleTable
 71
     1
340
38
  0
DIMSTYLE
105
1D
330
A
100
AcDbSymbolTableRecord
100
AcDbDimStyleTableRecord
  2
STANDARD
 70
     0
340
F
  0
DIMSTYLE
105
38
102
{ACAD_REACTORS
330
A0CA
330
AAC9
330
AFDA
330
A47E
330
A471
330
B071
102
}
330
A
100
AcDbSymbolTableRecord
100
AcDbDimStyleTableRecord
  2
STANDARD_WS
 70
     0
 40
0.7070707070707071
 41
2.5
 42
0.625
 43
3.75
 44
1.25
 73
     0
 74
     0
 77
     1
 78
     8
140
2.5
141
2.5
143
0.0394
147
0.625
171
     4
172
     1
273
     8
274
     4
340
F
  0
ENDTAB
  0
TABLE
  2
BLOCK_RECORD
  5
1
330
0
100
AcDbSymbolTable
 70
     8
  0
BLOCK_RECORD
  5
18
330
1
100
AcDbSymbolTableRecord
100
AcDbBlockTableRecord
  2
*MODEL_SPACE
340
A2C6
  0
BLOCK_RECORD
  5
15
330
1
100
AcDbSymbolTableRecord
100
AcDbBlockTableRecord
  2
*PAPER_SPACE
340
A2C7
  0
BLOCK_RECORD
  5
370
330
1
100
AcDbSymbolTableRecord
100
AcDbBlockTableRecord
  2
WMF3
340
0
102
{BLKREFS
331
58A
331
CB4
331
D59
331
46E9
331
655B
331
670C
331
8AB0
331
8B44
331
8C16
331
8DD8
331
8F1B
331
8F1E
331
8F20
331
9079
331
907C
331
907E
331
9E04
331
9E06
331
9E08
331
9E9C
331
9FF9
331
9FFB
331
9FFD
331
A091
331
A1E3
331
A1E5
331
A1E7
331
A27B
331
A41E
331
A78B
331
A886
331
ADA5
331
ADF6
331
AE14
102
}
  0
BLOCK_RECORD
  5
373
330
1
100
AcDbSymbolTableRecord
100
AcDbBlockTableRecord
  2
WMF4
340
0
102
{BLKREFS
331
58B
331
CB5
331
D5A
331
46EA
331
655C
331
670D
331
8AB1
331
8B45
331
8C17
331
8DD9
331
8F1C
331
8F1F
331
8F21
331
907A
331
907D
331
907F
331
9E05
331
9E07
331
9E09
331
9E9D
331
9FFA
331
9FFC
331
9FFE
331
A092
331
A1E4
331
A1E6
331
A1E8
331
A27C
331
A41F
331
A78C
331
A887
331
ADA6
331
ADF7
331
AE15
102
}
  0
BLOCK_RECORD
  5
A2DB
330
1
100
AcDbSymbolTableRecord
100
AcDbBlockTableRecord
  2
*X2
340
0
  0
BLOCK_RECORD
  5
A472
330
1
100
AcDbSymbolTableRecord
100
AcDbBlockTableRecord
  2
*D3
340
0
  0
BLOCK_RECORD
  5
A47F
330
1
100
AcDbSymbolTableRecord
100
AcDbBlockTableRecord
  2
*D4
340
0
  0
BLOCK_RECORD
  5
A96C
330
1
100
AcDbSymbolTableRecord
100
AcDbBlockTableRecord
  2
_Oblique
340
0
102
{BLKREFS
331
AFF7
331
AFF8
331
B000
331
B001
331
B009
331
B00A
331
B093
331
B094
102
}
  0
BLOCK_RECORD
  5
AB29
330
1
100
AcDbSymbolTableRecord
100
AcDbBlockTableRecord
  2
*D6
340
0
  0
BLOCK_RECORD
  5
B072
330
1
100
AcDbSymbolTableRecord
100
AcDbBlockTableRecord
  2
*D7
340
0
  0
ENDTAB
  0
ENDSEC
  0
SECTION
  2
BLOCKS
  0
BLOCK
  5
19
330
18
100
AcDbEntity
  8
0
100
AcDbBlockBegin
  2
*MODEL_SPACE
 70
     0
 10
0.0
 20
0.0
 30
0.0
  3
*MODEL_SPACE
  1

  0
ENDBLK
  5
1A
330
18
100
AcDbEntity
  8
0
100
AcDbBlockEnd
  0
BLOCK
  5
16
330
15
100
AcDbEntity
 67
     1
  8
0
100
AcDbBlockBegin
  2
*PAPER_SPACE
 70
     0
 10
0.0
 20
0.0
 30
0.0
  3
*PAPER_SPACE
  1

  0
ENDBLK
  5
17
330
15
100
AcDbEntity
 67
     1
  8
0
100
AcDbBlockEnd
  0
BLOCK
  5
371
330
370
100
AcDbEntity
  8
0
100
AcDbBlockBegin
  2
WMF3
 70
     0
 10
297.0543972648738
 20
-297.0543972648738
 30
0.0
  3
WMF3
  1

  0
ENDBLK
  5
372
330
370
100
AcDbEntity
  8
0
100
AcDbBlockEnd
  0
BLOCK
  5
374
330
373
100
AcDbEntity
  8
0
100
AcDbBlockBegin
  2
WMF4
 70
     0
 10
297.0543972648738
 20
-297.0543972648738
 30
0.0
  3
WMF4
  1

  0
ENDBLK
  5
375
330
373
100
AcDbEntity
  8
0
100
AcDbBlockEnd
  0
BLOCK
  5
A2E9
330
A2DB
100
AcDbEntity
  8
0
100
AcDbBlockBegin
  2
*X2
 70
     1
 10
0.0
 20
0.0
 30
0.0
  3
*X2
  1

  0
LINE
  5
A2DC
330
A2DB
100
AcDbEntity
  8
0
 62
     0
100
AcDbLine
 10
50.3651548004718
 20
80.0
 30
0.0
 11
53.0
 21
82.6348451995282
 31
0.0
  0
LINE
  5
A2DD
330
A2DB
100
AcDbEntity
  8
0
 62
     0
100
AcDbLine
 10
50.0
 20
80.08385800558166
 30
0.0
 11
52.91614199441834
 21
83.0
 31
0.0
  0
LINE
  5
A2DE
330
A2DB
100
AcDbEntity
  8
0
 62
     0
100
AcDbLine
 10
50.0
 20
80.53287081163512
 30
0.0
 11
52.46712918836488
 21
83.0
 31
0.0
  0
LINE
  5
A2DF
330
A2DB
100
AcDbEntity
  8
0
 62
     0
100
AcDbLine
 10
50.0
 20
80.98188361768858
 30
0.0
 11
52.01811638231142
 21
83.0
 31
0.0
  0
LINE
  5
A2E0
330
A2DB
100
AcDbEntity
  8
0
 62
     0
100
AcDbLine
 10
50.0
 20
81.43089642374203
 30
0.0
 11
51.56910357625797
 21
83.0
 31
0.0
  0
LINE
  5
A2E1
330
A2DB
100
AcDbEntity
  8
0
 62
     0
100
AcDbLine
 10
50.0
 20
81.87990922979549
 30
0.0
 11
51.12009077020451
 21
83.0
 31
0.0
  0
LINE
  5
A2E2
330
A2DB
100
AcDbEntity
  8
0
 62
     0
100
AcDbLine
 10
50.0
 20
82.32892203584894
 30
0.0
 11
50.67107796415105
 21
83.0
 31
0.0
  0
LINE
  5
A2E3
330
A2DB
100
AcDbEntity
  8
0
 62
     0
100
AcDbLine
 10
50.0
 20
82.7779348419024
 30
0.0
 11
50.22206515809759
 21
83.0
 31
0.0
  0
LINE
  5
A2E4
330
A2DB
100
AcDbEntity
  8
0
 62
     0
100
AcDbLine
 10
50.81416760652525
 20
80.0
 30
0.0
 11
53.0
 21
82.18583239347474
 31
0.0
  0
LINE
  5
A2E5
330
A2DB
100
AcDbEntity
  8
0
 62
     0
100
AcDbLine
 10
51.26318041257871
 20
80.0
 30
0.0
 11
53.0
 21
81.73681958742129
 31
0.0
  0
LINE
  5
A2E6
330
A2DB
100
AcDbEntity
  8
0
 62
     0
100
AcDbLine
 10
51.71219321863217
 20
80.0
 30
0.0
 11
53.0
 21
81.28780678136783
 31
0.0
  0
LINE
  5
A2E7
330
A2DB
100
AcDbEntity
  8
0
 62
     0
100
AcDbLine
 10
52.16120602468563
 20
80.0
 30
0.0
 11
53.0
 21
80.83879397531438
 31
0.0
  0
LINE
  5
A2E8
330
A2DB
100
AcDbEntity
  8
0
 62
     0
100
AcDbLine
 10
52.61021883073908
 20
80.0
 30
0.0
 11
53.0
 21
80.38978116926092
 31
0.0
  0
ENDBLK
  5
A2EA
330
A2DB
100
AcDbEntity
  8
0
100
AcDbBlockEnd
  0
BLOCK
  5
A47C
330
A472
100
AcDbEntity
  8
0
100
AcDbBlockBegin
  2
*D3
 70
     1
 10
0.0
 20
0.0
 30
0.0
  3
*D3
  1

  0
LINE
  5
B006
330
A472
100
AcDbEntity
  8
QUOTE
370
    -2
100
AcDbLine
 10
797.3951849396435
 20
-1770.700132502674
 30
0.0
 11
797.3951849396435
 21
-1756.284004537841
 31
0.0
  0
LINE
  5
B007
330
A472
100
AcDbEntity
  8
QUOTE
370
    -2
100
AcDbLine
 10
849.395184939644
 20
-1764.649998287211
 30
0.0
 11
849.395184939644
 21
-1756.284004537841
 31
0.0
  0
LINE
  5
B008
330
A472
100
AcDbEntity
  8
QUOTE
370
    -2
100
AcDbLine
 10
797.3951849396435
 20
-1756.284004537841
 30
0.0
 11
849.395184939644
 21
-1756.284004537841
 31
0.0
  0
INSERT
  5
B009
330
A472
100
AcDbEntity
  8
QUOTE
370
    -2
100
AcDbBlockReference
  2
_Oblique
 10
797.3951849396435
 20
-1756.284004537841
 30
0.0
 41
3.0
 42
3.0
 43
3.0
 50
180.0
  0
INSERT
  5
B00A
330
A472
100
AcDbEntity
  8
QUOTE
370
    -2
100
AcDbBlockReference
  2
_Oblique
 10
849.395184939644
 20
-1756.284004537841
 30
0.0
 41
3.0
 42
3.0
 43
3.0
  0
MTEXT
  5
B00B
330
A472
100
AcDbEntity
  8
QUOTE
100
AcDbMText
 10
823.3951849396436
 20
-1749.534004537841
 30
0.0
 40
7.5
 41
0.0
 71
     5
 72
     1
  1
\A1;52
 73
     1
 44
1.0
1001
ACAD
1000
MTEXTBEGIN
1070
    73
1070
     1
1070
    44
1040
1.0
1070
    74
1070
     0
1000
MTEXTEND
  0
POINT
  5
B00C
330
A472
100
AcDbEntity
  8
DEFPOINTS
 62
     0
100
AcDbPoint
 10
797.3951849396435
 20
-1775.200132502674
 30
0.0
  0
POINT
  5
B00D
330
A472
100
AcDbEntity
  8
DEFPOINTS
 62
     0
100
AcDbPoint
 10
849.395184939644
 20
-1769.14999828721
 30
0.0
  0
POINT
  5
B00E
330
A472
100
AcDbEntity
  8
DEFPOINTS
 62
     0
100
AcDbPoint
 10
849.395184939644
 20
-1756.284004537841
 30
0.0
  0
ENDBLK
  5
A47D
330
A472
100
AcDbEntity
  8
0
100
AcDbBlockEnd
  0
BLOCK
  5
A48A
330
A47F
100
AcDbEntity
  8
0
100
AcDbBlockBegin
  2
*D4
 70
     1
 10
0.0
 20
0.0
 30
0.0
  3
*D4
  1

  0
LINE
  5
AFFD
330
A47F
100
AcDbEntity
  8
QUOTE
370
    -2
100
AcDbLine
 10
849.395184939644
 20
-1764.649998287211
 30
0.0
 11
849.395184939644
 21
-1756.284004537841
 31
0.0
  0
LINE
  5
AFFE
330
A47F
100
AcDbEntity
  8
QUOTE
370
    -2
100
AcDbLine
 10
889.3951386424749
 20
-1771.211092927923
 30
0.0
 11
889.3951386424749
 21
-1756.284004537841
 31
0.0
  0
LINE
  5
AFFF
330
A47F
100
AcDbEntity
  8
QUOTE
370
    -2
100
AcDbLine
 10
849.395184939644
 20
-1756.284004537841
 30
0.0
 11
889.3951386424749
 21
-1756.284004537841
 31
0.0
  0
INSERT
  5
B000
330
A47F
100
AcDbEntity
  8
QUOTE
370
    -2
100
AcDbBlockReference
  2
_Oblique
 10
849.395184939644
 20
-1756.284004537841
 30
0.0
 41
3.0
 42
3.0
 43
3.0
 50
180.0
  0
INSERT
  5
B001
330
A47F
100
AcDbEntity
  8
QUOTE
370
    -2
100
AcDbBlockReference
  2
_Oblique
 10
889.3951386424749
 20
-1756.284004537841
 30
0.0
 41
3.0
 42
3.0
 43
3.0
  0
MTEXT
  5
B002
330
A47F
100
AcDbEntity
  8
QUOTE
100
AcDbMText
 10
871.8234794074691
 20
-1749.534004537841
 30
0.0
 40
7.5
 41
0.0
 71
     5
 72
     1
  1
\A1;40
 73
     1
 44
1.0
1001
ACAD
1000
MTEXTBEGIN
1070
    73
1070
     1
1070
    44
1040
1.0
1070
    74
1070
     0
1000
MTEXTEND
  0
POINT
  5
B003
330
A47F
100
AcDbEntity
  8
DEFPOINTS
 62
     0
100
AcDbPoint
 10
849.395184939644
 20
-1769.14999828721
 30
0.0
  0
POINT
  5
B004
330
A47F
100
AcDbEntity
  8
DEFPOINTS
 62
     0
100
AcDbPoint
 10
889.3951386424749
 20
-1775.711092927923
 30
0.0
  0
POINT
  5
B005
330
A47F
100
AcDbEntity
  8
DEFPOINTS
 62
     0
100
AcDbPoint
 10
889.3951386424749
 20
-1756.284004537841
 30
0.0
  0
ENDBLK
  5
A48B
330
A47F
100
AcDbEntity
  8
0
100
AcDbBlockEnd
  0
BLOCK
  5
A96E
330
A96C
100
AcDbEntity
  8
0
 62
   250
100
AcDbBlockBegin
  2
_Oblique
 70
     0
 10
0.0
 20
0.0
 30
0.0
  3
_Oblique
  1

  0
LINE
  5
A96D
330
A96C
100
AcDbEntity
  8
FERRO
 62
     0
370
    -2
100
AcDbLine
 10
-0.5
 20
-0.5
 30
0.0
 11
0.5
 21
0.5
 31
0.0
  0
ENDBLK
  5
A96F
330
A96C
100
AcDbEntity
  8
0
 62
   250
100
AcDbBlockEnd
  0
BLOCK
  5
AB33
330
AB29
100
AcDbEntity
  8
0
100
AcDbBlockBegin
  2
*D6
 70
     1
 10
0.0
 20
0.0
 30
0.0
  3
*D6
  1

  0
LINE
  5
AFF4
330
AB29
100
AcDbEntity
  8
QUOTE
370
    -2
100
AcDbLine
 10
941.3951386424754
 20
-1762.937083513401
 30
0.0
 11
941.3951386424754
 21
-1757.996919311649
 31
0.0
  0
LINE
  5
AFF5
330
AB29
100
AcDbEntity
  8
QUOTE
370
    -2
100
AcDbLine
 10
981.3950923453061
 20
-1772.924007701731
 30
0.0
 11
981.3950923453061
 21
-1757.996919311649
 31
0.0
  0
LINE
  5
AFF6
330
AB29
100
AcDbEntity
  8
QUOTE
370
    -2
100
AcDbLine
 10
941.3951386424754
 20
-1757.996919311649
 30
0.0
 11
981.3950923453061
 21
-1757.996919311649
 31
0.0
  0
INSERT
  5
AFF7
330
AB29
100
AcDbEntity
  8
QUOTE
370
    -2
100
AcDbBlockReference
  2
_Oblique
 10
941.3951386424754
 20
-1757.996919311649
 30
0.0
 41
3.0
 42
3.0
 43
3.0
 50
180.0
  0
INSERT
  5
AFF8
330
AB29
100
AcDbEntity
  8
QUOTE
370
    -2
100
AcDbBlockReference
  2
_Oblique
 10
981.3950923453061
 20
-1757.996919311649
 30
0.0
 41
3.0
 42
3.0
 43
3.0
  0
MTEXT
  5
AFF9
330
AB29
100
AcDbEntity
  8
QUOTE
100
AcDbMText
 10
963.8234331103005
 20
-1751.246919311649
 30
0.0
 40
7.5
 41
0.0
 71
     5
 72
     1
  1
\A1;40
 73
     1
 44
1.0
1001
ACAD
1000
MTEXTBEGIN
1070
    73
1070
     1
1070
    44
1040
1.0
1070
    74
1070
     0
1000
MTEXTEND
  0
POINT
  5
AFFA
330
AB29
100
AcDbEntity
  8
DEFPOINTS
 62
     0
100
AcDbPoint
 10
941.3951386424754
 20
-1767.437083513401
 30
0.0
  0
POINT
  5
AFFB
330
AB29
100
AcDbEntity
  8
DEFPOINTS
 62
     0
100
AcDbPoint
 10
981.3950923453061
 20
-1777.424007701732
 30
0.0
  0
POINT
  5
AFFC
330
AB29
100
AcDbEntity
  8
DEFPOINTS
 62
     0
100
AcDbPoint
 10
981.3950923453061
 20
-1757.996919311649
 30
0.0
  0
ENDBLK
  5
AB34
330
AB29
100
AcDbEntity
  8
0
100
AcDbBlockEnd
  0
BLOCK
  5
B07C
330
B072
100
AcDbEntity
  8
0
100
AcDbBlockBegin
  2
*D7
 70
     1
 10
0.0
 20
0.0
 30
0.0
  3
*D7
  1

  0
LINE
  5
B090
330
B072
100
AcDbEntity
  8
QUOTE
370
    -2
100
AcDbLine
 10
684.6844931849423
 20
-1584.087158627199
 30
0.0
 11
684.6844931849423
 21
-2031.596894585361
 31
0.0
  0
LINE
  5
B091
330
B072
100
AcDbEntity
  8
QUOTE
370
    -2
100
AcDbLine
 10
1033.395092345306
 20
-1884.502711465504
 30
0.0
 11
1033.395092345306
 21
-2031.596894585361
 31
0.0
  0
LINE
  5
B092
330
B072
100
AcDbEntity
  8
QUOTE
370
    -2
100
AcDbLine
 10
684.6844931849423
 20
-2031.596894585361
 30
0.0
 11
1033.395092345306
 21
-2031.596894585361
 31
0.0
  0
INSERT
  5
B093
330
B072
100
AcDbEntity
  8
QUOTE
370
    -2
100
AcDbBlockReference
  2
_Oblique
 10
684.6844931849423
 20
-2031.596894585361
 30
0.0
 41
3.0
 42
3.0
 43
3.0
 50
180.0
  0
INSERT
  5
B094
330
B072
100
AcDbEntity
  8
QUOTE
370
    -2
100
AcDbBlockReference
  2
_Oblique
 10
1033.395092345306
 20
-2031.596894585361
 30
0.0
 41
3.0
 42
3.0
 43
3.0
  0
MTEXT
  5
B095
330
B072
100
AcDbEntity
  8
QUOTE
100
AcDbMText
 10
859.0397927651244
 20
-2024.846894585361
 30
0.0
 40
7.5
 41
0.0
 71
     5
 72
     1
  1
\A1;350
 73
     1
 44
1.0
1001
ACAD
1000
MTEXTBEGIN
1070
    73
1070
     1
1070
    44
1040
1.0
1070
    74
1070
     0
1000
MTEXTEND
  0
POINT
  5
B096
330
B072
100
AcDbEntity
  8
DEFPOINTS
 62
     0
100
AcDbPoint
 10
684.6844931849423
 20
-1579.587158627199
 30
0.0
  0
POINT
  5
B097
330
B072
100
AcDbEntity
  8
DEFPOINTS
 62
     0
100
AcDbPoint
 10
1033.395092345306
 20
-1880.002711465505
 30
0.0
  0
POINT
  5
B098
330
B072
100
AcDbEntity
  8
DEFPOINTS
 62
     0
100
AcDbPoint
 10
1033.395092345306
 20
-2031.596894585361
 30
0.0
  0
ENDBLK
  5
B07D
330
B072
100
AcDbEntity
  8
0
100
AcDbBlockEnd
  0
ENDSEC
  0
SECTION
  2
ENTITIES
  0
INSERT
  5
58A
330
18
100
AcDbEntity
  8
AREA
 62
     1
100
AcDbBlockReference
  2
WMF3
 10
118.8888423094627
 20
247.2301865419039
 30
0.0
  0
INSERT
  5
58B
330
18
100
AcDbEntity
  8
AREA
 62
     1
100
AcDbBlockReference
  2
WMF4
 10
116.3969945894702
 20
245.5709684997675
 30
0.0
  0
INSERT
  5
CB4
330
18
100
AcDbEntity
  8
AREA
 62
     1
100
AcDbBlockReference
  2
WMF3
 10
119.0154567964939
 20
249.2754968857944
 30
0.0
  0
INSERT
  5
CB5
330
18
100
AcDbEntity
  8
AREA
 62
     1
100
AcDbBlockReference
  2
WMF4
 10
116.5236090765014
 20
247.6162788436579
 30
0.0
  0
INSERT
  5
D59
330
18
100
AcDbEntity
  8
AREA
 62
     1
100
AcDbBlockReference
  2
WMF3
 10
119.0154567964939
 20
249.2754968857944
 30
0.0
  0
INSERT
  5
D5A
330
18
100
AcDbEntity
  8
AREA
 62
     1
100
AcDbBlockReference
  2
WMF4
 10
116.5236090765014
 20
247.6162788436579
 30
0.0
  0
LINE
  5
4514
330
18
100
AcDbEntity
  8
FERRO
 62
   250
100
AcDbLine
 10
885.697922366705
 20
-1909.510581944441
 30
0.0
 11
886.4894608836939
 21
-1907.451092364533
 31
0.0
  0
LINE
  5
4515
330
18
100
AcDbEntity
  8
FERRO
 62
   250
100
AcDbLine
 10
797.3951849396435
 20
-1880.002711465505
 30
0.0
 11
797.3951849396435
 21
-1769.14999828721
 31
0.0
  0
LINE
  5
4516
102
{ACAD_REACTORS
330
9AE2
102
}
330
18
100
AcDbEntity
  8
FERRO
 62
   250
100
AcDbLine
 10
798.2013864900309
 20
-1768.907489405648
 30
0.0
 11
798.2013864900309
 21
-1869.925192085659
 31
0.0
  0
LINE
  5
4517
102
{ACAD_REACTORS
330
9AE2
102
}
330
18
100
AcDbEntity
  8
FERRO
 62
   250
100
AcDbLine
 10
848.5889833892557
 20
-1768.907489405648
 30
0.0
 11
848.5889833892557
 21
-1869.925192085659
 31
0.0
  0
LINE
  5
4518
330
18
100
AcDbEntity
  8
FERRO
 62
   250
100
AcDbLine
 10
849.3951849396434
 20
-1769.14999828721
 30
0.0
 11
849.3951849396434
 21
-1880.002711465505
 31
0.0
  0
LINE
  5
4519
330
18
100
AcDbEntity
  8
FERRO
 62
   250
100
AcDbLine
 10
800.2168903659999
 20
-1821.553099062404
 30
0.0
 11
800.2168903659999
 21
-1867.909688209691
 31
0.0
  0
LINE
  5
451A
330
18
100
AcDbEntity
  8
FERRO
 62
   250
100
AcDbLine
 10
846.5734795132869
 20
-1821.553099062404
 30
0.0
 11
846.5734795132869
 21
-1867.909688209691
 31
0.0
  0
LINE
  5
4529
330
18
100
AcDbEntity
  8
FERRO
 62
   250
100
AcDbLine
 10
798.2013864900309
 20
-1869.925192085659
 30
0.0
 11
848.5889833892557
 21
-1869.925192085659
 31
0.0
  0
LINE
  5
452A
330
18
100
AcDbEntity
  8
FERRO
 62
   250
100
AcDbLine
 10
800.2168903659999
 20
-1867.909688209691
 30
0.0
 11
846.5734795132869
 21
-1867.909688209691
 31
0.0
  0
LINE
  5
452B
330
18
100
AcDbEntity
  8
FERRO
 62
   250
100
AcDbLine
 10
798.2013864900311
 20
-1879.196509915117
 30
0.0
 11
815.954757304388
 21
-1879.196509915117
 31
0.0
  0
LINE
  5
452C
330
18
100
AcDbEntity
  8
FERRO
 62
   250
100
AcDbLine
 10
797.3951849396435
 20
-1880.002711465505
 30
0.0
 11
817.5502236993336
 21
-1880.002711465505
 31
0.0
  0
LINE
  5
452D
330
18
100
AcDbEntity
  8
FERRO
 62
   250
100
AcDbLine
 10
798.2013864900309
 20
-1869.925192085659
 30
0.0
 11
798.2013864900311
 21
-1879.196509915117
 31
0.0
  0
LINE
  5
452F
330
18
100
AcDbEntity
  8
FERRO
 62
   250
100
AcDbLine
 10
817.5502236993336
 20
-1880.002711465505
 30
0.0
 11
811.090003381096
 21
-1871.23526960504
 31
0.0
  0
LINE
  5
4530
330
18
100
AcDbEntity
  8
FERRO
 62
   250
100
AcDbLine
 10
815.954757304388
 20
-1879.196509915117
 30
0.0
 11
810.0885802338048
 21
-1871.23526960504
 31
0.0
  0
LINE
  5
453A
330
18
100
AcDbEntity
  8
FERRO
 62
   250
100
AcDbLine
 10
811.090003381096
 20
-1871.23526960504
 30
0.0
 11
810.0885802338048
 21
-1871.23526960504
 31
0.0
  0
LINE
  5
453B
330
18
100
AcDbEntity
  8
FERRO
 62
   250
100
AcDbLine
 10
830.8356125748987
 20
-1879.196509915117
 30
0.0
 11
848.5889833892557
 21
-1879.196509915117
 31
0.0
  0
LINE
  5
453C
330
18
100
AcDbEntity
  8
FERRO
 62
   250
100
AcDbLine
 10
829.2401461799537
 20
-1880.002711465505
 30
0.0
 11
849.3951849396434
 21
-1880.002711465505
 31
0.0
  0
LINE
  5
453E
330
18
100
AcDbEntity
  8
FERRO
 62
   250
100
AcDbLine
 10
829.2401461799537
 20
-1880.002711465505
 30
0.0
 11
835.700366498191
 21
-1871.23526960504
 31
0.0
  0
LINE
  5
453F
330
18
100
AcDbEntity
  8
FERRO
 62
   250
100
AcDbLine
 10
830.8356125748987
 20
-1879.196509915117
 30
0.0
 11
836.7017896454818
 21
-1871.23526960504
 31
0.0
  0
LINE
  5
4548
330
18
100
AcDbEntity
  8
FERRO
 62
   250
100
AcDbLine
 10
835.700366498191
 20
-1871.23526960504
 30
0.0
 11
836.7017896454818
 21
-1871.23526960504
 31
0.0
  0
LINE
  5
454C
330
18
100
AcDbEntity
  8
FERRO
 62
   250
100
AcDbLine
 10
848.5889833892557
 20
-1869.925192085659
 30
0.0
 11
848.5889833892557
 21
-1879.196509915117
 31
0.0
  0
LINE
  5
454D
102
{ACAD_REACTORS
330
9AE2
102
}
330
18
100
AcDbEntity
  8
FERRO
 62
   250
100
AcDbLine
 10
798.2013864900309
 20
-1819.537595186435
 30
0.0
 11
848.5889833892557
 21
-1819.537595186435
 31
0.0
  0
LINE
  5
454E
330
18
100
AcDbEntity
  8
FERRO
 62
   250
100
AcDbLine
 10
800.2168903659999
 20
-1821.553099062404
 30
0.0
 11
846.5734795132869
 21
-1821.553099062404
 31
0.0
  0
LINE
  5
454F
330
18
100
AcDbEntity
  8
FERRO
 62
   250
100
AcDbLine
 10
941.3951386424754
 20
-1767.437083513401
 30
0.0
 11
941.3951386424754
 21
-1878.289796691696
 31
0.0
  0
LINE
  5
4550
102
{ACAD_REACTORS
330
9AD2
102
}
330
18
100
AcDbEntity
  8
FERRO
 62
   250
100
AcDbLine
 10
940.5889370920874
 20
-1767.194574631839
 30
0.0
 11
940.5889370920874
 21
-1868.212277311851
 31
0.0
  0
LINE
  5
4551
102
{ACAD_REACTORS
330
9AD2
102
}
330
18
100
AcDbEntity
  8
FERRO
 62
   250
100
AcDbLine
 10
890.2013401928625
 20
-1767.194574631839
 30
0.0
 11
890.2013401928627
 21
-1868.212277311851
 31
0.0
  0
LINE
  5
4552
330
18
100
AcDbEntity
  8
FERRO
 62
   250
100
AcDbLine
 10
889.3951386424751
 20
-1878.289796691696
 30
0.0
 11
889.3951386424751
 21
-1767.437083513401
 31
0.0
  0
LINE
  5
4553
330
18
100
AcDbEntity
  8
FERRO
 62
   250
100
AcDbLine
 10
940.5889370920874
 20
-1868.212277311851
 30
0.0
 11
940.5889370920874
 21
-1877.483595141308
 31
0.0
  0
LINE
  5
4557
330
18
100
AcDbEntity
  8
FERRO
 62
   250
100
AcDbLine
 10
927.7003202010227
 20
-1869.522354831231
 30
0.0
 11
928.7017433483136
 21
-1869.522354831231
 31
0.0
  0
LINE
  5
4560
330
18
100
AcDbEntity
  8
FERRO
 62
   250
100
AcDbLine
 10
922.8355662777305
 20
-1877.483595141308
 30
0.0
 11
928.7017433483136
 21
-1869.522354831231
 31
0.0
  0
LINE
  5
4561
330
18
100
AcDbEntity
  8
FERRO
 62
   250
100
AcDbLine
 10
921.2400998827853
 20
-1878.289796691696
 30
0.0
 11
927.7003202010227
 21
-1869.522354831231
 31
0.0
  0
LINE
  5
4563
330
18
100
AcDbEntity
  8
FERRO
 62
   250
100
AcDbLine
 10
921.2400998827853
 20
-1878.289796691696
 30
0.0
 11
941.3951386424754
 21
-1878.289796691696
 31
0.0
  0
LINE
  5
4564
330
18
100
AcDbEntity
  8
FERRO
 62
   250
100
AcDbLine
 10
922.8355662777305
 20
-1877.483595141308
 30
0.0
 11
940.5889370920874
 21
-1877.483595141308
 31
0.0
  0
LINE
  5
4565
330
18
100
AcDbEntity
  8
FERRO
 62
   250
100
AcDbLine
 10
903.0899570839276
 20
-1869.522354831231
 30
0.0
 11
902.0885339366365
 21
-1869.522354831231
 31
0.0
  0
LINE
  5
456E
330
18
100
AcDbEntity
  8
FERRO
 62
   250
100
AcDbLine
 10
907.9547110072198
 20
-1877.483595141308
 30
0.0
 11
902.0885339366365
 21
-1869.522354831231
 31
0.0
  0
LINE
  5
456F
330
18
100
AcDbEntity
  8
FERRO
 62
   250
100
AcDbLine
 10
909.550177402165
 20
-1878.289796691696
 30
0.0
 11
903.0899570839276
 21
-1869.522354831231
 31
0.0
  0
LINE
  5
4571
330
18
100
AcDbEntity
  8
FERRO
 62
   250
100
AcDbLine
 10
889.3951386424751
 20
-1878.289796691696
 30
0.0
 11
909.550177402165
 21
-1878.289796691696
 31
0.0
  0
LINE
  5
4572
330
18
100
AcDbEntity
  8
FERRO
 62
   250
100
AcDbLine
 10
890.2013401928629
 20
-1877.483595141308
 30
0.0
 11
907.9547110072198
 21
-1877.483595141308
 31
0.0
  0
LINE
  5
4573
330
18
100
AcDbEntity
  8
FERRO
 62
   250
100
AcDbLine
 10
892.2168440688315
 20
-1866.196773435882
 30
0.0
 11
938.5734332161185
 21
-1866.196773435882
 31
0.0
  0
LINE
  5
4574
330
18
100
AcDbEntity
  8
FERRO
 62
   250
100
AcDbLine
 10
890.2013401928627
 20
-1868.212277311851
 30
0.0
 11
940.5889370920874
 21
-1868.212277311851
 31
0.0
  0
LINE
  5
4581
330
18
100
AcDbEntity
  8
FERRO
 62
   250
100
AcDbLine
 10
938.5734332161185
 20
-1819.840184288595
 30
0.0
 11
938.5734332161185
 21
-1866.196773435882
 31
0.0
  0
LINE
  5
4585
330
18
100
AcDbEntity
  8
FERRO
 62
   250
100
AcDbLine
 10
890.2013401928627
 20
-1868.212277311851
 30
0.0
 11
890.2013401928629
 21
-1877.483595141308
 31
0.0
  0
LINE
  5
4586
330
18
100
AcDbEntity
  8
FERRO
 62
   250
100
AcDbLine
 10
892.2168440688315
 20
-1819.840184288595
 30
0.0
 11
892.2168440688315
 21
-1866.196773435882
 31
0.0
  0
LINE
  5
4587
330
18
100
AcDbEntity
  8
FERRO
 62
   250
100
AcDbLine
 10
899.9726580223203
 20
-1883.532575596166
 30
0.0
 11
899.9726580223203
 21
-1878.289796691695
 31
0.0
  0
LINE
  5
4588
330
18
100
AcDbEntity
  8
FERRO
 62
   250
100
AcDbLine
 10
838.8462655597987
 20
-1880.002711465505
 30
0.0
 11
838.8462655597987
 21
-1885.041471155427
 31
0.0
  0
LINE
  5
4589
330
18
100
AcDbEntity
  8
FERRO
 62
   250
100
AcDbLine
 10
886.8718828285217
 20
-1828.106219007019
 30
0.0
 11
889.3951386424753
 21
-1828.106219007019
 31
0.0
  0
LINE
  5
458A
330
18
100
AcDbEntity
  8
FERRO
 62
   250
100
AcDbLine
 10
885.8641308905372
 20
-1847.727994663113
 30
0.0
 11
885.8641308905372
 21
-1846.216366756136
 31
0.0
  0
LINE
  5
458B
330
18
100
AcDbEntity
  8
FERRO
 62
   250
100
AcDbLine
 10
871.7556037587543
 20
-1846.216366756136
 30
0.0
 11
885.8641308905372
 21
-1846.216366756136
 31
0.0
  0
LINE
  5
458C
330
18
100
AcDbEntity
  8
FERRO
 62
   250
100
AcDbLine
 10
885.8641308905372
 20
-1847.727994663113
 30
0.0
 11
889.3951386424753
 21
-1847.727994663113
 31
0.0
  0
LINE
  5
458D
330
18
100
AcDbEntity
  8
FERRO
 62
   250
100
AcDbLine
 10
885.8641308905372
 20
-1859.821017918927
 30
0.0
 11
885.8641308905372
 21
-1858.309390011951
 31
0.0
  0
LINE
  5
458E
330
18
100
AcDbEntity
  8
FERRO
 62
   250
100
AcDbLine
 10
871.7556037587543
 20
-1859.821017918927
 30
0.0
 11
885.8641308905372
 21
-1859.821017918927
 31
0.0
  0
LINE
  5
458F
330
18
100
AcDbEntity
  8
FERRO
 62
   250
100
AcDbLine
 10
885.8641308905372
 20
-1858.309390011951
 30
0.0
 11
889.3951386424753
 21
-1858.309390011951
 31
0.0
  0
LINE
  5
4590
330
18
100
AcDbEntity
  8
FERRO
 62
   250
100
AcDbLine
 10
871.7556037587543
 20
-1864.153673657642
 30
0.0
 11
871.7556037587543
 21
-1843.222498076787
 31
0.0
  0
ARC
  5
4593
330
18
100
AcDbEntity
  8
FERRO
 62
   250
100
AcDbCircle
 10
841.5230456192194
 20
-1864.153673657642
 30
0.0
 40
30.23255813953491
100
AcDbArc
 50
305.3765401519416
 51
0.0
  0
LINE
  5
4594
330
18
100
AcDbEntity
  8
FERRO
 62
   250
100
AcDbLine
 10
889.3951386424749
 20
-1878.289796691695
 30
0.0
 11
889.3951386424751
 21
-1829.669144626511
 31
0.0
  0
ARC
  5
4595
330
18
100
AcDbEntity
  8
FERRO
 62
   250
100
AcDbCircle
 10
886.8718828285217
 20
-1843.222498076787
 30
0.0
 40
15.11627906976745
100
AcDbArc
 50
89.99999999999998
 51
180.0
  0
LINE
  5
4596
330
18
100
AcDbEntity
  8
FERRO
 62
   250
100
AcDbLine
 10
852.3294626984251
 20
-1898.409776092487
 30
0.0
 11
853.121001215414
 21
-1896.350286512579
 31
0.0
  0
ARC
  5
4597
330
18
100
AcDbEntity
  8
FERRO
 62
   250
100
AcDbCircle
 10
859.0013043194888
 20
-1876.979455651551
 30
0.0
 40
8.062015503875974
100
AcDbArc
 50
270.0
 51
0.0
  0
LINE
  5
459A
330
18
100
AcDbEntity
  8
FERRO
 62
   250
100
AcDbLine
 10
859.0013043194888
 20
-1885.041471155427
 30
0.0
 11
838.8462655597987
 21
-1885.041471155427
 31
0.0
  0
LINE
  5
459B
330
18
100
AcDbEntity
  8
FERRO
 62
   250
100
AcDbLine
 10
838.8462655597987
 20
-1885.041471155427
 30
0.0
 11
851.3575344248552
 21
-1901.959722171254
 31
0.0
  0
LINE
  5
459C
330
18
100
AcDbEntity
  8
FERRO
 62
   250
100
AcDbLine
 10
852.9547926915817
 20
-1859.793703915504
 30
0.0
 11
852.9547926915817
 21
-1861.305331822481
 31
0.0
  0
LINE
  5
459D
330
18
100
AcDbEntity
  8
FERRO
 62
   250
100
AcDbLine
 10
867.0633198233646
 20
-1861.305331822481
 30
0.0
 11
852.9547926915817
 21
-1861.305331822481
 31
0.0
  0
LINE
  5
459E
330
18
100
AcDbEntity
  8
FERRO
 62
   250
100
AcDbLine
 10
852.9547926915817
 20
-1859.793703915504
 30
0.0
 11
849.3951849396436
 21
-1859.793703915504
 31
0.0
  0
LINE
  5
459F
330
18
100
AcDbEntity
  8
FERRO
 62
   250
100
AcDbLine
 10
867.0633198233646
 20
-1847.70068065969
 30
0.0
 11
852.9547926915817
 21
-1847.70068065969
 31
0.0
  0
LINE
  5
45A0
330
18
100
AcDbEntity
  8
FERRO
 62
   250
100
AcDbLine
 10
852.9547926915817
 20
-1847.70068065969
 30
0.0
 11
852.9547926915817
 21
-1849.212308566667
 31
0.0
  0
LINE
  5
45A1
330
18
100
AcDbEntity
  8
FERRO
 62
   250
100
AcDbLine
 10
852.9547926915817
 20
-1849.212308566667
 30
0.0
 11
849.3951849396436
 21
-1849.212308566667
 31
0.0
  0
LINE
  5
45A2
330
18
100
AcDbEntity
  8
FERRO
 62
   250
100
AcDbLine
 10
867.0633198233646
 20
-1844.731393636047
 30
0.0
 11
867.0633198233646
 21
-1863.647065340934
 31
0.0
  0
LINE
  5
45A3
330
18
100
AcDbEntity
  8
FERRO
 62
   250
100
AcDbLine
 10
867.0633198233646
 20
-1876.979455651551
 30
0.0
 11
867.0633198233646
 21
-1863.647065340934
 31
0.0
  0
ARC
  5
45A4
330
18
100
AcDbEntity
  8
FERRO
 62
   250
100
AcDbCircle
 10
897.2958779628994
 20
-1863.647065340934
 30
0.0
 40
30.23255813953491
100
AcDbArc
 50
180.0
 51
203.2357440999009
  0
LINE
  5
45A5
330
18
100
AcDbEntity
  8
FERRO
 62
   250
100
AcDbLine
 10
851.9470407535973
 20
-1829.61511456628
 30
0.0
 11
849.3951849396436
 21
-1829.61511456628
 31
0.0
  0
LINE
  5
45A6
330
18
100
AcDbEntity
  8
FERRO
 62
   250
100
AcDbLine
 10
849.3951849396436
 20
-1831.178040185772
 30
0.0
 11
849.3951849396434
 21
-1880.002711465505
 31
0.0
  0
ARC
  5
45A7
330
18
100
AcDbEntity
  8
FERRO
 62
   250
100
AcDbCircle
 10
851.9470407535973
 20
-1844.731393636047
 30
0.0
 40
15.11627906976745
100
AcDbArc
 50
0.0000000000000127
 51
89.99999999999992
  0
CIRCLE
  5
45A8
330
18
100
AcDbEntity
  8
FERRO
 62
   250
100
AcDbCircle
 10
869.2362239137931
 20
-1903.183738386864
 30
0.0
 40
11.58914728682171
  0
CIRCLE
  5
45A9
102
{ACAD_REACTORS
330
472C
102
}
330
18
100
AcDbEntity
  8
FERRO
 62
   250
100
AcDbCircle
 10
869.2362239137931
 20
-1903.183738386864
 30
0.0
 40
10.07751937984497
  0
ARC
  5
45AA
330
18
100
AcDbEntity
  8
FERRO
 62
   250
100
AcDbCircle
 10
869.2362239137931
 20
-1903.183738386864
 30
0.0
 40
17.63565891472869
100
AcDbArc
 50
125.3765401519416
 51
338.9763736872902
  0
ARC
  5
45AB
330
18
100
AcDbEntity
  8
FERRO
 62
   250
100
AcDbCircle
 10
934.2655113631865
 20
-1918.623519357771
 30
0.0
 40
49.06499897420025
100
AcDbArc
 50
134.3409816391349
 51
166.8379093189663
  0
LINE
  5
45B4
330
18
100
AcDbEntity
  8
ASSI
 48
5.0
100
AcDbLine
 10
749.9752930934105
 20
-1743.276670372009
 30
0.0
 11
1058.666227212908
 21
-1743.276670372009
 31
0.0
  0
LINE
  5
45B5
330
18
100
AcDbEntity
  8
FERRO
 62
   250
100
AcDbLine
 10
892.2168440688315
 20
-1680.868913924269
 30
0.0
 11
892.2168440688315
 21
-1634.512324776982
 31
0.0
  0
LINE
  5
45B6
330
18
100
AcDbEntity
  8
FERRO
 62
   250
100
AcDbLine
 10
890.2013401928627
 20
-1632.496820901013
 30
0.0
 11
890.2013401928629
 21
-1623.225503071556
 31
0.0
  0
LINE
  5
45BA
330
18
100
AcDbEntity
  8
FERRO
 62
   250
100
AcDbLine
 10
938.5734332161185
 20
-1680.868913924269
 30
0.0
 11
938.5734332161185
 21
-1634.512324776982
 31
0.0
  0
LINE
  5
45C5
330
18
100
AcDbEntity
  8
FERRO
 62
   250
100
AcDbLine
 10
890.2013401928627
 20
-1632.496820901013
 30
0.0
 11
940.5889370920874
 21
-1632.496820901013
 31
0.0
  0
LINE
  5
45C6
330
18
100
AcDbEntity
  8
FERRO
 62
   250
100
AcDbLine
 10
892.2168440688315
 20
-1634.512324776982
 30
0.0
 11
938.5734332161185
 21
-1634.512324776982
 31
0.0
  0
LINE
  5
45C7
330
18
100
AcDbEntity
  8
FERRO
 62
   250
100
AcDbLine
 10
890.2013401928629
 20
-1623.225503071555
 30
0.0
 11
908.2375811734932
 21
-1623.225503071555
 31
0.0
  0
LINE
  5
45C8
330
18
100
AcDbEntity
  8
FERRO
 62
   250
100
AcDbLine
 10
889.3951386424751
 20
-1622.419301521168
 30
0.0
 11
909.8330475684385
 21
-1622.419301521168
 31
0.0
  0
LINE
  5
45CA
330
18
100
AcDbEntity
  8
FERRO
 62
   250
100
AcDbLine
 10
909.8330475684385
 20
-1622.419301521168
 30
0.0
 11
903.372827250201
 21
-1631.186743381633
 31
0.0
  0
LINE
  5
45CB
330
18
100
AcDbEntity
  8
FERRO
 62
   250
100
AcDbLine
 10
908.2375811734932
 20
-1623.225503071555
 30
0.0
 11
902.3714041029098
 21
-1631.186743381633
 31
0.0
  0
LINE
  5
45D4
330
18
100
AcDbEntity
  8
FERRO
 62
   250
100
AcDbLine
 10
903.372827250201
 20
-1631.186743381633
 30
0.0
 11
902.3714041029098
 21
-1631.186743381633
 31
0.0
  0
LINE
  5
45D5
330
18
100
AcDbEntity
  8
FERRO
 62
   250
100
AcDbLine
 10
923.1184364440039
 20
-1623.225503071555
 30
0.0
 11
940.5889370920874
 21
-1623.225503071556
 31
0.0
  0
LINE
  5
45D6
330
18
100
AcDbEntity
  8
FERRO
 62
   250
100
AcDbLine
 10
921.5229700490585
 20
-1622.419301521168
 30
0.0
 11
941.395138642475
 21
-1622.419301521168
 31
0.0
  0
LINE
  5
45D8
330
18
100
AcDbEntity
  8
FERRO
 62
   250
100
AcDbLine
 10
921.5229700490585
 20
-1622.419301521168
 30
0.0
 11
927.983190367296
 21
-1631.186743381633
 31
0.0
  0
LINE
  5
45D9
330
18
100
AcDbEntity
  8
FERRO
 62
   250
100
AcDbLine
 10
923.1184364440039
 20
-1623.225503071555
 30
0.0
 11
928.9846135145872
 21
-1631.186743381633
 31
0.0
  0
LINE
  5
45E2
330
18
100
AcDbEntity
  8
FERRO
 62
   250
100
AcDbLine
 10
927.983190367296
 20
-1631.186743381633
 30
0.0
 11
928.9846135145872
 21
-1631.186743381633
 31
0.0
  0
LINE
  5
45E6
330
18
100
AcDbEntity
  8
FERRO
 62
   250
100
AcDbLine
 10
940.5889370920874
 20
-1632.496820901013
 30
0.0
 11
940.5889370920874
 21
-1623.225503071556
 31
0.0
  0
LINE
  5
45E7
330
18
100
AcDbEntity
  8
FERRO
 62
   250
100
AcDbLine
 10
889.3951386424751
 20
-1622.419301521168
 30
0.0
 11
889.3951386424751
 21
-1733.272014699463
 31
0.0
  0
LINE
  5
45E8
102
{ACAD_REACTORS
330
9AC2
102
}
330
18
100
AcDbEntity
  8
FERRO
 62
   250
100
AcDbLine
 10
890.2013401928625
 20
-1733.514523580996
 30
0.0
 11
890.2013401928627
 21
-1632.496820901013
 31
0.0
  0
LINE
  5
45E9
102
{ACAD_REACTORS
330
9AC2
102
}
330
18
100
AcDbEntity
  8
FERRO
 62
   250
100
AcDbLine
 10
940.5889370920874
 20
-1733.514523581024
 30
0.0
 11
940.5889370920874
 21
-1632.496820901013
 31
0.0
  0
LINE
  5
45EA
330
18
100
AcDbEntity
  8
FERRO
 62
   250
100
AcDbLine
 10
941.395138642475
 20
-1733.272014699463
 30
0.0
 11
941.395138642475
 21
-1622.419301521168
 31
0.0
  0
LINE
  5
45EB
102
{ACAD_REACTORS
330
472E
102
}
330
18
100
AcDbEntity
  8
FERRO
 62
   250
100
AcDbLine
 10
792.8394000590952
 20
-1593.788402796711
 30
0.0
 11
793.6004947869691
 21
-1595.76868123893
 31
0.0
  0
LINE
  5
45EC
102
{ACAD_REACTORS
330
472E
102
}
330
18
100
AcDbEntity
  8
FERRO
 62
   250
100
AcDbLine
 10
793.9682081954575
 20
-1672.061828698078
 30
0.0
 11
796.8751849396435
 21
-1672.061828698078
 31
0.0
  0
LINE
  5
45ED
102
{ACAD_REACTORS
330
472E
102
}
330
18
100
AcDbEntity
  8
FERRO
 62
   250
100
AcDbLine
 10
792.9992159473954
 20
-1653.194736721064
 30
0.0
 11
792.9992159473954
 21
-1654.648225093157
 31
0.0
  0
LINE
  5
45EE
102
{ACAD_REACTORS
330
472E
102
}
330
18
100
AcDbEntity
  8
FERRO
 62
   250
100
AcDbLine
 10
779.4333244745273
 20
-1654.648225093157
 30
0.0
 11
792.9992159473954
 21
-1654.648225093157
 31
0.0
  0
LINE
  5
45EF
102
{ACAD_REACTORS
330
472E
102
}
330
18
100
AcDbEntity
  8
FERRO
 62
   250
100
AcDbLine
 10
792.9992159473954
 20
-1653.194736721064
 30
0.0
 11
796.8751849396435
 21
-1653.194736721064
 31
0.0
  0
LINE
  5
45F0
102
{ACAD_REACTORS
330
472E
102
}
330
18
100
AcDbEntity
  8
FERRO
 62
   250
100
AcDbLine
 10
792.9992159473954
 20
-1641.56682974432
 30
0.0
 11
792.9992159473954
 21
-1643.020318116413
 31
0.0
  0
LINE
  5
45F1
102
{ACAD_REACTORS
330
472E
102
}
330
18
100
AcDbEntity
  8
FERRO
 62
   250
100
AcDbLine
 10
779.4333244745273
 20
-1641.56682974432
 30
0.0
 11
792.9992159473954
 21
-1641.56682974432
 31
0.0
  0
LINE
  5
45F2
102
{ACAD_REACTORS
330
472E
102
}
330
18
100
AcDbEntity
  8
FERRO
 62
   250
100
AcDbLine
 10
792.9992159473954
 20
-1643.020318116413
 30
0.0
 11
796.8751849396435
 21
-1643.020318116413
 31
0.0
  0
LINE
  5
45F3
102
{ACAD_REACTORS
330
472E
102
}
330
18
100
AcDbEntity
  8
FERRO
 62
   250
100
AcDbLine
 10
779.4333244745273
 20
-1637.400814610941
 30
0.0
 11
779.4333244745273
 21
-1657.526944977148
 31
0.0
  0
LINE
  5
45F4
330
18
100
AcDbEntity
  8
FERRO
 62
   250
100
AcDbLine
 10
796.8751849396435
 20
-1623.612216294977
 30
0.0
 11
806.5651074202637
 21
-1623.612216294977
 31
0.0
  0
LINE
  5
45F5
102
{ACAD_REACTORS
330
472E
102
}
330
18
100
AcDbEntity
  8
FERRO
 62
   250
100
AcDbLine
 10
796.8751849396435
 20
-1623.612216294977
 30
0.0
 11
806.5651074202637
 21
-1623.612216294977
 31
0.0
  0
LINE
  5
45F6
102
{ACAD_REACTORS
330
472E
102
}
330
18
100
AcDbEntity
  8
FERRO
 62
   250
100
AcDbLine
 10
806.5651074202635
 20
-1618.767255054667
 30
0.0
 11
806.5651074202635
 21
-1623.612216294977
 31
0.0
  0
ARC
  5
45F7
102
{ACAD_REACTORS
330
472E
102
}
330
18
100
AcDbEntity
  8
FERRO
 62
   250
100
AcDbCircle
 10
750.3635570326666
 20
-1637.400814610941
 30
0.0
 40
29.06976744186049
100
AcDbArc
 50
0.0000000000000127
 51
54.62345984805839
  0
LINE
  5
45F8
102
{ACAD_REACTORS
330
472E
102
}
330
18
100
AcDbEntity
  8
FERRO
 62
   250
100
AcDbLine
 10
796.8751849396435
 20
-1623.612216294977
 30
0.0
 11
796.8751849396435
 21
-1672.061828698078
 31
0.0
  0
ARC
  5
45F9
102
{ACAD_REACTORS
330
472E
102
}
330
18
100
AcDbEntity
  8
FERRO
 62
   250
100
AcDbCircle
 10
793.9682081954575
 20
-1657.526944977148
 30
0.0
 40
14.53488372093024
100
AcDbArc
 50
180.0
 51
270.0
  0
LINE
  5
45FA
330
18
100
AcDbEntity
  8
FERRO
 62
   250
100
AcDbLine
 10
772.88359378781
 20
-1583.361848779874
 30
0.0
 11
770.903315345591
 21
-1584.122943507748
 31
0.0
  0
ARC
  5
45FB
102
{ACAD_REACTORS
330
472E
102
}
330
18
100
AcDbEntity
  8
FERRO
 62
   250
100
AcDbCircle
 10
752.2775164407562
 20
-1589.77708110782
 30
0.0
 40
7.751937984496128
100
AcDbArc
 50
270.0
 51
0.0
  0
LINE
  5
45FC
102
{ACAD_REACTORS
330
472E
102
}
330
18
100
AcDbEntity
  8
FERRO
 62
   250
100
AcDbLine
 10
755.1844931849423
 20
-1570.397236146579
 30
0.0
 11
760.0294544252522
 21
-1570.397236146579
 31
0.0
  0
LINE
  5
45FD
330
18
100
AcDbEntity
  8
FERRO
 62
   250
100
AcDbLine
 10
755.1844931849423
 20
-1580.0871586272
 30
0.0
 11
755.1844931849423
 21
-1570.397236146579
 31
0.0
  0
LINE
  5
45FE
102
{ACAD_REACTORS
330
472E
102
}
330
18
100
AcDbEntity
  8
FERRO
 62
   250
100
AcDbLine
 10
755.1844931849423
 20
-1580.0871586272
 30
0.0
 11
755.1844931849423
 21
-1570.397236146579
 31
0.0
  0
LINE
  5
45FF
102
{ACAD_REACTORS
330
472E
102
}
330
18
100
AcDbEntity
  8
FERRO
 62
   250
100
AcDbLine
 10
760.0294544252522
 20
-1589.77708110782
 30
0.0
 11
760.0294544252522
 21
-1570.397236146579
 31
0.0
  0
LINE
  5
4600
330
18
100
AcDbEntity
  8
FERRO
 62
   250
100
AcDbLine
 10
760.0294544252522
 20
-1570.397236146579
 30
0.0
 11
776.9559887152074
 21
-1582.914630601663
 31
0.0
  0
LINE
  5
4601
102
{ACAD_REACTORS
330
472E
102
}
330
18
100
AcDbEntity
  8
FERRO
 62
   250
100
AcDbLine
 10
735.7527551560954
 20
-1583.963127619448
 30
0.0
 11
737.2062435281884
 21
-1583.963127619448
 31
0.0
  0
LINE
  5
4602
102
{ACAD_REACTORS
330
472E
102
}
330
18
100
AcDbEntity
  8
FERRO
 62
   250
100
AcDbLine
 10
737.2062435281884
 20
-1597.529019092316
 30
0.0
 11
737.2062435281884
 21
-1583.963127619448
 31
0.0
  0
LINE
  5
4603
102
{ACAD_REACTORS
330
472E
102
}
330
18
100
AcDbEntity
  8
FERRO
 62
   250
100
AcDbLine
 10
735.7527551560954
 20
-1583.963127619448
 30
0.0
 11
735.7527551560954
 21
-1580.0871586272
 31
0.0
  0
LINE
  5
4604
102
{ACAD_REACTORS
330
472E
102
}
330
18
100
AcDbEntity
  8
FERRO
 62
   250
100
AcDbLine
 10
724.1248481793511
 20
-1597.529019092316
 30
0.0
 11
724.1248481793511
 21
-1583.963127619448
 31
0.0
  0
LINE
  5
4605
102
{ACAD_REACTORS
330
472E
102
}
330
18
100
AcDbEntity
  8
FERRO
 62
   250
100
AcDbLine
 10
724.1248481793511
 20
-1583.963127619448
 30
0.0
 11
725.5783365514441
 21
-1583.963127619448
 31
0.0
  0
LINE
  5
4606
102
{ACAD_REACTORS
330
472E
102
}
330
18
100
AcDbEntity
  8
FERRO
 62
   250
100
AcDbLine
 10
725.5783365514441
 20
-1583.963127619448
 30
0.0
 11
725.5783365514441
 21
-1580.0871586272
 31
0.0
  0
LINE
  5
4607
102
{ACAD_REACTORS
330
472E
102
}
330
18
100
AcDbEntity
  8
FERRO
 62
   250
100
AcDbLine
 10
721.2697645027717
 20
-1597.529019092316
 30
0.0
 11
739.4579103728549
 21
-1597.529019092316
 31
0.0
  0
LINE
  5
4608
102
{ACAD_REACTORS
330
472E
102
}
330
18
100
AcDbEntity
  8
FERRO
 62
   250
100
AcDbLine
 10
752.2775164407562
 20
-1597.529019092316
 30
0.0
 11
739.4579103728549
 21
-1597.529019092316
 31
0.0
  0
ARC
  5
4609
330
18
100
AcDbEntity
  8
FERRO
 62
   250
100
AcDbCircle
 10
739.4579103728549
 20
-1626.598786534176
 30
0.0
 40
29.06976744186049
100
AcDbArc
 50
35.37654015194163
 51
90.00000000000003
  0
LINE
  5
460A
102
{ACAD_REACTORS
330
472E
102
}
330
18
100
AcDbEntity
  8
FERRO
 62
   250
100
AcDbLine
 10
706.7348807818413
 20
-1582.994135371386
 30
0.0
 11
706.7348807818413
 21
-1580.0871586272
 31
0.0
  0
LINE
  5
460B
102
{ACAD_REACTORS
330
472E
102
}
330
18
100
AcDbEntity
  8
FERRO
 62
   250
100
AcDbLine
 10
706.7348807818413
 20
-1580.0871586272
 30
0.0
 11
755.1844931849423
 21
-1580.0871586272
 31
0.0
  0
ARC
  5
460C
102
{ACAD_REACTORS
330
472E
102
}
330
18
100
AcDbEntity
  8
FERRO
 62
   250
100
AcDbCircle
 10
721.2697645027717
 20
-1582.994135371386
 30
0.0
 40
14.53488372093024
100
AcDbArc
 50
180.0
 51
270.0
  0
CIRCLE
  5
460D
102
{ACAD_REACTORS
330
472E
102
}
330
18
100
AcDbEntity
  8
FERRO
 62
   250
100
AcDbCircle
 10
777.0108438543723
 20
-1599.871906217458
 30
0.0
 40
11.14341085271318
  0
CIRCLE
  5
460E
102
{ACAD_REACTORS
330
472D
330
472E
102
}
330
18
100
AcDbEntity
  8
FERRO
 62
   250
100
AcDbCircle
 10
777.0108438543723
 20
-1599.871906217458
 30
0.0
 40
9.689922480620161
  0
ARC
  5
460F
102
{ACAD_REACTORS
330
472E
102
}
330
18
100
AcDbEntity
  8
FERRO
 62
   250
100
AcDbCircle
 10
777.0108438543723
 20
-1599.871906217458
 30
0.0
 40
16.95736434108528
100
AcDbArc
 50
21.02362631270977
 51
234.6234598480584
  0
ARC
  5
4610
102
{ACAD_REACTORS
330
472E
102
}
330
18
100
AcDbEntity
  8
FERRO
 62
   250
100
AcDbCircle
 10
839.5390048634045
 20
-1585.025962976201
 30
0.0
 40
47.1778836290387
100
AcDbArc
 50
193.1620906810336
 51
225.6590183608651
  0
LINE
  5
4611
330
18
100
AcDbEntity
  8
FERRO
 62
   250
100
AcDbLine
 10
800.2168903659999
 20
-1682.581828698078
 30
0.0
 11
846.5734795132867
 21
-1682.581828698078
 31
0.0
  0
LINE
  5
4612
330
18
100
AcDbEntity
  8
FERRO
 62
   250
100
AcDbLine
 10
798.2013864900309
 20
-1684.597332574047
 30
0.0
 11
848.5889833892557
 21
-1684.597332574047
 31
0.0
  0
LINE
  5
4613
330
18
100
AcDbEntity
  8
FERRO
 62
   250
100
AcDbLine
 10
848.5889833892557
 20
-1634.209735674822
 30
0.0
 11
848.5889833892557
 21
-1624.938417845365
 31
0.0
  0
LINE
  5
4617
330
18
100
AcDbEntity
  8
FERRO
 62
   250
100
AcDbLine
 10
835.700366498191
 20
-1632.899658155442
 30
0.0
 11
836.7017896454822
 21
-1632.899658155442
 31
0.0
  0
LINE
  5
4620
330
18
100
AcDbEntity
  8
FERRO
 62
   250
100
AcDbLine
 10
830.8356125748987
 20
-1624.938417845365
 30
0.0
 11
836.7017896454822
 21
-1632.899658155442
 31
0.0
  0
LINE
  5
4621
330
18
100
AcDbEntity
  8
FERRO
 62
   250
100
AcDbLine
 10
829.2401461799535
 20
-1624.132216294977
 30
0.0
 11
835.700366498191
 21
-1632.899658155442
 31
0.0
  0
LINE
  5
4623
330
18
100
AcDbEntity
  8
FERRO
 62
   250
100
AcDbLine
 10
829.2401461799535
 20
-1624.132216294977
 30
0.0
 11
849.3951849396434
 21
-1624.132216294977
 31
0.0
  0
LINE
  5
4624
330
18
100
AcDbEntity
  8
FERRO
 62
   250
100
AcDbLine
 10
830.8356125748987
 20
-1624.938417845365
 30
0.0
 11
848.5889833892557
 21
-1624.938417845365
 31
0.0
  0
LINE
  5
4625
330
18
100
AcDbEntity
  8
FERRO
 62
   250
100
AcDbLine
 10
811.0900033810958
 20
-1632.899658155442
 30
0.0
 11
810.0885802338046
 21
-1632.899658155442
 31
0.0
  0
LINE
  5
462F
330
18
100
AcDbEntity
  8
FERRO
 62
   250
100
AcDbLine
 10
815.954757304388
 20
-1624.938417845365
 30
0.0
 11
810.0885802338046
 21
-1632.899658155442
 31
0.0
  0
LINE
  5
4630
330
18
100
AcDbEntity
  8
FERRO
 62
   250
100
AcDbLine
 10
817.5502236993335
 20
-1624.132216294977
 30
0.0
 11
811.0900033810958
 21
-1632.899658155442
 31
0.0
  0
LINE
  5
4632
330
18
100
AcDbEntity
  8
FERRO
 62
   250
100
AcDbLine
 10
798.2013864900309
 20
-1634.209735674822
 30
0.0
 11
798.2013864900311
 21
-1624.938417845365
 31
0.0
  0
LINE
  5
4633
330
18
100
AcDbEntity
  8
FERRO
 62
   250
100
AcDbLine
 10
797.3951849396435
 20
-1624.132216294977
 30
0.0
 11
817.5502236993335
 21
-1624.132216294977
 31
0.0
  0
LINE
  5
4634
330
18
100
AcDbEntity
  8
FERRO
 62
   250
100
AcDbLine
 10
798.2013864900311
 20
-1624.938417845365
 30
0.0
 11
815.954757304388
 21
-1624.938417845365
 31
0.0
  0
LINE
  5
4635
330
18
100
AcDbEntity
  8
FERRO
 62
   250
100
AcDbLine
 10
800.2168903659999
 20
-1636.225239550791
 30
0.0
 11
846.5734795132869
 21
-1636.225239550791
 31
0.0
  0
LINE
  5
4636
330
18
100
AcDbEntity
  8
FERRO
 62
   250
100
AcDbLine
 10
798.2013864900309
 20
-1634.209735674822
 30
0.0
 11
848.5889833892557
 21
-1634.209735674822
 31
0.0
  0
LINE
  5
4649
330
18
100
AcDbEntity
  8
FERRO
 62
   250
100
AcDbLine
 10
846.5734795132867
 20
-1682.581828698078
 30
0.0
 11
846.5734795132869
 21
-1636.225239550791
 31
0.0
  0
LINE
  5
464A
330
18
100
AcDbEntity
  8
FERRO
 62
   250
100
AcDbLine
 10
800.2168903659999
 20
-1682.581828698078
 30
0.0
 11
800.2168903659999
 21
-1636.225239550791
 31
0.0
  0
LINE
  5
464B
330
18
100
AcDbEntity
  8
FERRO
 62
   250
100
AcDbLine
 10
849.3951849396434
 20
-1734.984929473272
 30
0.0
 11
849.3951849396434
 21
-1624.132216294977
 31
0.0
  0
LINE
  5
464C
330
18
100
AcDbEntity
  8
FERRO
 62
   250
100
AcDbLine
 10
848.5889833892557
 20
-1735.227438354833
 30
0.0
 11
848.5889833892557
 21
-1634.209735674822
 31
0.0
  0
LINE
  5
464D
330
18
100
AcDbEntity
  8
FERRO
 62
   250
100
AcDbLine
 10
798.2013864900309
 20
-1735.227438354806
 30
0.0
 11
798.2013864900309
 21
-1634.209735674822
 31
0.0
  0
LINE
  5
464E
330
18
100
AcDbEntity
  8
FERRO
 62
   250
100
AcDbLine
 10
797.3951849396435
 20
-1624.132216294977
 30
0.0
 11
797.3951849396435
 21
-1734.984929473272
 31
0.0
  0
LINE
  5
4655
330
18
100
AcDbEntity
  8
0
 62
     7
100
AcDbLine
 10
1033.395092345306
 20
-1509.087158627199
 30
0.0
 11
620.5584748715361
 21
-1509.087158627199
 31
0.0
  0
INSERT
  5
46E9
330
18
100
AcDbEntity
  8
ALLUMINIO
 62
     1
100
AcDbBlockReference
  2
WMF3
 10
1358.329111410511
 20
161.8851418267927
 30
0.0
 41
2.0
 42
2.0
 43
2.0
  0
INSERT
  5
46EA
330
18
100
AcDbEntity
  8
ALLUMINIO
 62
     1
100
AcDbBlockReference
  2
WMF4
 10
1353.345415970526
 20
158.5667057425198
 30
0.0
 41
2.0
 42
2.0
 43
2.0
  0
SPLINE
  5
4721
330
18
100
AcDbEntity
  8
FERRO
 62
   250
100
AcDbSpline
210
0.0
220
0.0
230
1.0
 70
  1064
 71
     3
 72
    14
 73
    10
 74
     8
 42
0.000000001
 43
0.0000000001
 44
0.0000000001
 40
0.0
 40
0.0
 40
0.0
 40
0.0
 40
0.8418856795807474
 40
12.45413535531995
 40
27.15457310255376
 40
35.59079673856992
 40
44.29605862002413
 40
53.69220198114485
 40
54.53408766072603
 40
54.53408766072603
 40
54.53408766072603
 40
54.53408766072603
 10
797.3951849396437
 20
-1734.984929473273
 30
0.0
 10
797.6639046495986
 20
-1735.063934165325
 30
0.0
 10
801.639113780234
 20
-1736.232661882627
 30
0.0
 10
810.3267652897667
 20
-1741.402734601498
 30
0.0
 10
821.3213198624924
 20
-1732.8318911695
 30
0.0
 10
831.828115438383
 20
-1735.756764155645
 30
0.0
 10
840.2641547403527
 20
-1740.980393898298
 30
0.0
 10
845.8508398955245
 20
-1735.9966321306
 30
0.0
 10
849.125874804009
 20
-1735.06180172371
 30
0.0
 10
849.3951849396436
 20
-1734.984929473273
 30
0.0
 11
797.3951849396437
 21
-1734.984929473273
 31
0.0
 11
798.2013864900311
 21
-1735.227438354834
 31
0.0
 11
809.3206440979329
 21
-1738.575042390681
 31
0.0
 11
823.4300402761917
 21
-1734.448565752527
 31
0.0
 11
831.689196301926
 21
-1736.167929291589
 31
0.0
 11
839.94835232766
 21
-1738.918915690552
 31
0.0
 11
848.5889833892558
 21
-1735.227438354834
 31
0.0
 11
849.3951849396436
 21
-1734.984929473273
 31
0.0
  0
SPLINE
  5
4723
102
{ACAD_REACTORS
330
9AD2
102
}
330
18
100
AcDbEntity
  8
FERRO
 62
   250
100
AcDbSpline
210
0.0
220
0.0
230
1.0
 70
  1064
 71
     3
 72
    14
 73
    10
 74
     8
 42
0.000000001
 43
0.0000000001
 44
0.0000000001
 40
0.0
 40
0.0
 40
0.0
 40
0.0
 40
0.8418856795808784
 40
11.51000646978154
 40
23.11865280866604
 40
34.55748339710097
 40
45.5696948018113
 40
52.7098890510604
 40
53.55177473064149
 40
53.55177473064149
 40
53.55177473064149
 40
53.55177473064149
 10
889.3951386424753
 20
-1767.437083513401
 30
0.0
 10
889.6636400265093
 20
-1767.356870160643
 30
0.0
 10
893.3345097684851
 20
-1766.260217453988
 30
0.0
 10
900.9695342936691
 20
-1763.355896843724
 30
0.0
 10
912.0608780575762
 20
-1769.542304180441
 30
0.0
 10
922.6360195543243
 20
-1763.48304188745
 30
0.0
 10
933.1053737393906
 20
-1763.084756726239
 30
0.0
 10
938.5683289564303
 20
-1766.618773006436
 30
0.0
 10
941.1254355748075
 20
-1767.359009331357
 30
0.0
 10
941.3951386424754
 20
-1767.437083513401
 30
0.0
 11
889.3951386424753
 21
-1767.437083513401
 31
0.0
 11
890.2013401928627
 21
-1767.19457463184
 31
0.0
 11
900.6523514136622
 21
-1765.053274639537
 31
0.0
 11
912.0086922129457
 21
-1767.46038773863
 31
0.0
 11
923.020898562059
 21
-1764.365528039797
 31
0.0
 11
934.0331099667693
 21
-1764.365528039797
 31
0.0
 11
940.5889370920876
 21
-1767.19457463184
 31
0.0
 11
941.3951386424754
 21
-1767.437083513401
 31
0.0
  0
LINE
  5
4725
102
{ACAD_REACTORS
330
9AD2
102
}
330
18
100
AcDbEntity
  8
FERRO
 62
   250
100
AcDbLine
 10
890.2013401928627
 20
-1817.830229883593
 30
0.0
 11
940.5889370920874
 21
-1817.830229883593
 31
0.0
  0
LINE
  5
4726
330
18
100
AcDbEntity
  8
FERRO
 62
   250
100
AcDbLine
 10
892.2168440688315
 20
-1819.840184288595
 30
0.0
 11
938.5734332161185
 21
-1819.840184288595
 31
0.0
  0
LINE
  5
4727
102
{ACAD_REACTORS
330
9AC2
102
}
330
18
100
AcDbEntity
  8
FERRO
 62
   250
100
AcDbLine
 10
890.2013401928627
 20
-1682.87886832927
 30
0.0
 11
940.5889370920874
 21
-1682.87886832927
 31
0.0
  0
LINE
  5
4728
330
18
100
AcDbEntity
  8
FERRO
 62
   250
100
AcDbLine
 10
892.2168440688315
 20
-1680.731431770821
 30
0.0
 11
938.5734332161185
 21
-1680.731431770821
 31
0.0
  0
HATCH
  5
4729
330
18
100
AcDbEntity
  8
AREA166
 62
   166
100
AcDbHatch
 10
0.0
 20
0.0
 30
0.0
210
0.0
220
0.0
230
1.0
  2
DOTS
 70
     0
 71
     0
 91
        6
 92
        7
 72
     1
 73
     1
 93
       11
 10
890.045138642475
 20
-1878.493815906244
 42
0.0
 10
890.045138642475
 20
-1858.309390011951
 42
0.0
 10
886.0141308905372
 20
-1858.309390011951
 42
0.0
 10
886.0141308905372
 20
-1859.821017918927
 42
0.0
 10
871.9056037587547
 20
-1859.821017918927
 42
0.0
 10
871.9056037587543
 20
-1864.153673657644
 42
-0.2429577986666143
 10
859.1761055947396
 20
-1888.804240855046
 42
1.346499099032977
 10
885.8479223667046
 20
-1909.510581944442
 42
0.0
 10
886.6394608836939
 20
-1907.451092364533
 42
-0.1427525949938915
 10
900.1226580223201
 20
-1883.532575596167
 42
0.0
 10
900.1226580223201
 20
-1878.493815906244
 42
0.0
 97
        0
 92
       22
 72
     1
 73
     1
 93
        2
 10
880.9753712006147
 20
-1903.183738386864
 42
-1.0
 10
857.7970766269713
 20
-1903.183738386864
 42
-1.0
 97
        0
 92
        6
 72
     1
 73
     1
 93
        2
 10
879.4637432936379
 20
-1903.183738386864
 42
-1.0
 10
859.3087045339482
 20
-1903.183738386864
 42
-1.0
 97
        0
 92
        7
 72
     1
 73
     1
 93
        7
 10
890.045138642475
 20
-1828.106219007019
 42
0.0
 10
887.0218828285205
 20
-1828.106219007019
 42
0.4142135623730709
 10
871.9056037587543
 20
-1843.222498076787
 42
0.0
 10
871.9056037587543
 20
-1846.216366756136
 42
0.0
 10
886.0141308905372
 20
-1846.216366756136
 42
0.0
 10
886.0141308905372
 20
-1847.727994663113
 42
0.0
 10
890.0451386424753
 20
-1847.727994663113
 42
0.0
 97
        0
 92
        7
 72
     1
 73
     1
 93
        7
 10
852.0970407535973
 20
-1829.61511456628
 42
0.0
 10
849.0737849396435
 20
-1829.615114566279
 42
0.0
 10
849.0737849396435
 20
-1849.212308566667
 42
0.0
 10
853.1047926915819
 20
-1849.212308566666
 42
0.0
 10
853.1047926915817
 20
-1847.70068065969
 42
0.0
 10
867.2133198233646
 20
-1847.70068065969
 42
0.0
 10
867.2133198233646
 20
-1844.731393636047
 42
0.4142135623730837
 97
        0
 92
        7
 72
     1
 73
     1
 93
       10
 10
849.0737849396435
 20
-1880.002711465505
 42
0.0
 10
838.9962655597987
 20
-1880.002711465505
 42
0.0
 10
838.9962655597987
 20
-1885.041471155427
 42
0.0
 10
859.1513043194888
 20
-1885.041471155427
 42
0.4142135623730911
 10
867.2133198233646
 20
-1876.979455651551
 42
0.0
 10
867.2133198233646
 20
-1863.647065340934
 42
0.0
 10
867.2133198233646
 20
-1861.305331822481
 42
0.0
 10
853.1047926915817
 20
-1861.305331822481
 42
0.0
 10
853.1047926915817
 20
-1859.793703915504
 42
0.0
 10
849.0737849396438
 20
-1859.793703915504
 42
0.0
 97
        0
 75
     0
 76
     1
 52
0.0
 41
2.08
 77
     0
 78
     1
 53
0.0
 43
-119.7942814864613
 44
144.3896100502471
 45
1.650999999999999
 46
3.302
 79
     2
 49
0.0
 49
-3.302
 47
0.8037546124443833
 98
        6
 10
890.8516869236974
 20
-1880.494527549129
 10
890.8516869236974
 20
-1880.494527549129
 10
890.8516869236974
 20
-1880.494527549129
 10
883.1812602911536
 20
-1839.347381311182
 10
860.9774031210189
 20
-1840.557591415802
 10
855.3255127044463
 20
-1870.812846712169
  0
HATCH
  5
472C
330
18
100
AcDbEntity
  8
AREA166
 62
   250
100
AcDbHatch
 10
0.0
 20
0.0
 30
0.0
210
0.0
220
0.0
230
1.0
  2
SOLID
 70
     1
 71
     1
 91
        1
 92
        7
 72
     1
 73
     1
 93
        2
 10
879.3137432936379
 20
-1903.183738386864
 42
1.0
 10
859.1587045339482
 20
-1903.183738386864
 42
1.0
 97
        1
330
45A9
 75
     0
 76
     1
 47
0.6043986274836677
 98
        1
 10
868.0112592961553
 20
-1904.079575149461
  0
HATCH
  5
472D
330
18
100
AcDbEntity
  8
AREA166
 62
   250
100
AcDbHatch
 10
0.0
 20
0.0
 30
0.0
210
0.0
220
0.0
230
1.0
  2
SOLID
 70
     1
 71
     1
 91
        1
 92
        7
 72
     1
 73
     1
 93
        2
 10
767.3209213737521
 20
-1599.871906217458
 42
1.0
 10
786.7007663349925
 20
-1599.871906217458
 42
1.0
 97
        1
330
460E
 75
     0
 76
     1
 47
1.043845980145889
 98
        1
 10
780.2900184044412
 20
-1598.622760335127
  0
HATCH
  5
472E
330
18
100
AcDbEntity
  8
AREA166
 62
   166
100
AcDbHatch
 10
0.0
 20
0.0
 30
0.0
210
0.0
220
0.0
230
1.0
  2
DOTS
 70
     0
 71
     1
 91
        6
 92
        7
 72
     1
 73
     1
 93
       11
 10
796.875184939642
 20
-1623.612216294977
 42
0.0
 10
806.5651074202635
 20
-1623.612216294977
 42
0.0
 10
806.5651074202635
 20
-1618.767255054667
 42
-0.1427525949938868
 10
793.6004947869694
 20
-1595.768681238931
 42
0.0
 10
792.8394000590953
 20
-1593.788402796712
 42
1.346499099033015
 10
767.1934223937437
 20
-1613.698346151898
 42
-0.2429577986666299
 10
779.4333244745273
 20
-1637.40081461094
 42
0.0
 10
779.4333244745273
 20
-1641.56682974432
 42
0.0
 10
792.9992159473954
 20
-1641.56682974432
 42
0.0
 10
792.9992159473954
 20
-1643.020318116413
 42
0.0
 10
796.8751849396435
 20
-1643.020318116413
 42
0.0
 97
       11
330
45F5
330
45F6
330
4610
330
45EB
330
460F
330
45F7
330
45F3
330
45F1
330
45F0
330
45F2
330
45F8
 92
       22
 72
     1
 73
     1
 93
        2
 10
765.8674330016591
 20
-1599.871906217458
 42
-1.0
 10
788.1542547070855
 20
-1599.871906217458
 42
-1.0
 97
        1
330
460D
 92
        6
 72
     1
 73
     1
 93
        2
 10
767.3209213737521
 20
-1599.871906217458
 42
-1.0
 10
786.7007663349925
 20
-1599.871906217458
 42
-1.0
 97
        1
330
460E
 92
        7
 72
     1
 73
     1
 93
        7
 10
779.4333244745273
 20
-1654.648225093157
 42
0.0
 10
779.4333244745273
 20
-1657.526944977148
 42
0.4142135623730906
 10
793.9682081954575
 20
-1672.061828698078
 42
0.0
 10
796.8751849396435
 20
-1672.061828698078
 42
0.0
 10
796.8751849396435
 20
-1653.194736721064
 42
0.0
 10
792.9992159473954
 20
-1653.194736721065
 42
0.0
 10
792.9992159473954
 20
-1654.648225093158
 42
0.0
 97
        7
330
45EF
330
45ED
330
45EE
330
45F3
330
45F9
330
45EC
330
45F8
 92
        7
 72
     1
 73
     1
 93
       10
 10
737.2062435281885
 20
-1597.529019092316
 42
0.0
 10
739.4579103728549
 20
-1597.529019092316
 42
0.0
 10
752.2775164407562
 20
-1597.529019092316
 42
0.4142135623730866
 10
760.0294544252522
 20
-1589.77708110782
 42
0.0
 10
760.0294544252522
 20
-1570.397236146579
 42
0.0
 10
755.1844931849423
 20
-1570.397236146579
 42
0.0
 10
755.1844931849423
 20
-1580.0871586272
 42
0.0
 10
735.7527551560953
 20
-1580.087158627199
 42
0.0
 10
735.7527551560954
 20
-1583.963127619447
 42
0.0
 10
737.2062435281884
 20
-1583.963127619447
 42
0.0
 97
       10
330
45FC
330
45FE
330
460B
330
4603
330
4601
330
4602
330
4607
330
4608
330
45FB
330
45FF
 92
        7
 72
     1
 73
     1
 93
        7
 10
724.1248481793511
 20
-1583.963127619448
 42
0.0
 10
725.5783365514441
 20
-1583.963127619448
 42
0.0
 10
725.5783365514441
 20
-1580.087158627199
 42
0.0
 10
706.7348807818413
 20
-1580.0871586272
 42
0.0
 10
706.7348807818413
 20
-1582.994135371386
 42
0.4142135623730971
 10
721.2697645027717
 20
-1597.529019092316
 42
0.0
 10
724.1248481793511
 20
-1597.529019092316
 42
0.0
 97
        7
330
4605
330
4606
330
460B
330
460A
330
460C
330
4607
330
4604
 75
     0
 76
     1
 52
0.0
 41
2.0
 77
     0
 78
     1
 53
0.0
 43
-80.65037962645215
 44
73.5428957172503
 45
1.587499999999999
 46
3.174999999999999
 79
     2
 49
0.0
 49
-3.174999999999999
 47
1.043845980145889
 98
        6
 10
787.6024318153006
 20
-1623.675064817443
 10
787.6024318153006
 20
-1623.675064817443
 10
787.6024318153006
 20
-1623.675064817443
 10
788.6470606035384
 20
-1661.253519219576
 10
744.7725880671785
 20
-1588.184300521052
 10
719.7014614698867
 20
-1586.09660925464
  0
INSERT
  5
655B
330
18
100
AcDbEntity
  8
ALLUMINIO
 62
     1
100
AcDbBlockReference
  2
WMF3
 10
582.5970495602237
 20
-279.27482726071
 30
0.0
 41
3.999999999999999
 42
3.999999999999999
 43
3.999999999999999
  0
INSERT
  5
655C
330
18
100
AcDbEntity
  8
ALLUMINIO
 62
     1
100
AcDbBlockReference
  2
WMF4
 10
572.6296586802536
 20
-285.9116994292558
 30
0.0
 41
3.999999999999999
 42
3.999999999999999
 43
3.999999999999999
  0
INSERT
  5
670C
330
18
100
AcDbEntity
  8
ALLUMINIO
 62
     1
100
AcDbBlockReference
  2
WMF3
 10
589.4326850976631
 20
-88.60908119522447
 30
0.0
 41
2.0
 42
2.0
 43
2.0
  0
INSERT
  5
670D
330
18
100
AcDbEntity
  8
ALLUMINIO
 62
     1
100
AcDbBlockReference
  2
WMF4
 10
584.4489896576781
 20
-91.92751727949735
 30
0.0
 41
2.0
 42
2.0
 43
2.0
  0
INSERT
  5
8AB0
330
18
100
AcDbEntity
  8
ALLUMINIO
 62
     1
100
AcDbBlockReference
  2
WMF3
 10
1502.020270793584
 20
-711.2331799408297
 30
0.0
  0
INSERT
  5
8AB1
330
18
100
AcDbEntity
  8
ALLUMINIO
 62
     1
100
AcDbBlockReference
  2
WMF4
 10
1499.528423073591
 20
-712.8923979829663
 30
0.0
  0
INSERT
  5
8B44
330
18
100
AcDbEntity
  8
ALLUMINIO
 62
     1
100
AcDbBlockReference
  2
WMF3
 10
1964.398053197002
 20
-1286.183688527569
 30
0.0
  0
INSERT
  5
8B45
330
18
100
AcDbEntity
  8
ALLUMINIO
 62
     1
100
AcDbBlockReference
  2
WMF4
 10
1961.90620547701
 20
-1287.842906569706
 30
0.0
  0
INSERT
  5
8C16
330
18
100
AcDbEntity
  8
ALLUMINIO
 62
     1
100
AcDbBlockReference
  2
WMF3
 10
883.3426222293006
 20
-326.2071731127912
 30
0.0
  0
INSERT
  5
8C17
330
18
100
AcDbEntity
  8
ALLUMINIO
 62
     1
100
AcDbBlockReference
  2
WMF4
 10
880.8507745093081
 20
-327.8663911549277
 30
0.0
  0
INSERT
  5
8DD8
330
18
100
AcDbEntity
  8
ALLUMINIO
 62
     1
100
AcDbBlockReference
  2
WMF3
 10
668.4959233042757
 20
-188.290246797548
 30
0.0
 41
2.245639534883713
 42
2.245639534883713
 43
2.245639534883713
  0
INSERT
  5
8DD9
330
18
100
AcDbEntity
  8
ALLUMINIO
 62
     1
100
AcDbBlockReference
  2
WMF4
 10
662.9001315493505
 20
-192.016252429962
 30
0.0
 41
2.245639534883713
 42
2.245639534883713
 43
2.245639534883713
  0
INSERT
  5
8F1B
330
18
100
AcDbEntity
  8
AREA
 62
     1
100
AcDbBlockReference
  2
WMF3
 10
1173.742395918546
 20
394.8670251580704
 30
0.0
  0
INSERT
  5
8F1C
330
18
100
AcDbEntity
  8
AREA
 62
     1
100
AcDbBlockReference
  2
WMF4
 10
1171.250548198553
 20
393.2078071159339
 30
0.0
  0
INSERT
  5
8F1E
330
18
100
AcDbEntity
  8
AREA
 62
     1
100
AcDbBlockReference
  2
WMF3
 10
1173.869010405577
 20
396.9123355019608
 30
0.0
  0
INSERT
  5
8F1F
330
18
100
AcDbEntity
  8
AREA
 62
     1
100
AcDbBlockReference
  2
WMF4
 10
1171.377162685585
 20
395.2531174598243
 30
0.0
  0
INSERT
  5
8F20
330
18
100
AcDbEntity
  8
AREA
 62
     1
100
AcDbBlockReference
  2
WMF3
 10
1173.869010405577
 20
396.9123355019608
 30
0.0
  0
INSERT
  5
8F21
330
18
100
AcDbEntity
  8
AREA
 62
     1
100
AcDbBlockReference
  2
WMF4
 10
1171.377162685585
 20
395.2531174598243
 30
0.0
  0
INSERT
  5
9079
330
18
100
AcDbEntity
  8
AREA
 62
     1
100
AcDbBlockReference
  2
WMF3
 10
1038.937020049797
 20
-791.2034078923266
 30
0.0
  0
INSERT
  5
907A
330
18
100
AcDbEntity
  8
AREA
 62
     1
100
AcDbBlockReference
  2
WMF4
 10
1036.445172329804
 20
-792.862625934463
 30
0.0
  0
INSERT
  5
907C
330
18
100
AcDbEntity
  8
AREA
 62
     1
100
AcDbBlockReference
  2
WMF3
 10
1039.063634536828
 20
-789.1580975484361
 30
0.0
  0
INSERT
  5
907D
330
18
100
AcDbEntity
  8
AREA
 62
     1
100
AcDbBlockReference
  2
WMF4
 10
1036.571786816835
 20
-790.8173155905727
 30
0.0
  0
INSERT
  5
907E
330
18
100
AcDbEntity
  8
AREA
 62
     1
100
AcDbBlockReference
  2
WMF3
 10
1039.063634536828
 20
-789.1580975484361
 30
0.0
  0
INSERT
  5
907F
330
18
100
AcDbEntity
  8
AREA
 62
     1
100
AcDbBlockReference
  2
WMF4
 10
1036.571786816835
 20
-790.8173155905727
 30
0.0
  0
SPLINE
  5
9AB1
102
{ACAD_REACTORS
330
9AE2
102
}
330
18
100
AcDbEntity
  8
FERRO
 62
   250
100
AcDbSpline
210
0.0
220
0.0
230
1.0
 70
  1064
 71
     3
 72
    14
 73
    10
 74
     8
 42
0.000000001
 43
0.0000000001
 44
0.0000000001
 40
0.0
 40
0.0
 40
0.0
 40
0.0
 40
0.8418856795808784
 40
11.51000646978161
 40
23.1186528086661
 40
34.5574833971011
 40
45.56969480181133
 40
52.70988905106031
 40
53.55177473064173
 40
53.55177473064173
 40
53.55177473064173
 40
53.55177473064173
 10
797.3951849396437
 20
-1769.14999828721
 30
0.0
 10
797.6636863236777
 20
-1769.069784934452
 30
0.0
 10
801.3345560656523
 20
-1767.973132227793
 30
0.0
 10
808.9695805908382
 20
-1765.068811617534
 30
0.0
 10
820.0609243547445
 20
-1771.255218954251
 30
0.0
 10
830.6360658514929
 20
-1765.195956661259
 30
0.0
 10
841.1054200365594
 20
-1764.797671500049
 30
0.0
 10
846.5683752535987
 20
-1768.331687780244
 30
0.0
 10
849.1254818719761
 20
-1769.071924105166
 30
0.0
 10
849.395184939644
 20
-1769.14999828721
 30
0.0
 11
797.3951849396437
 21
-1769.14999828721
 31
0.0
 11
798.2013864900311
 21
-1768.907489405649
 31
0.0
 11
808.6523977108308
 21
-1766.766189413347
 31
0.0
 11
820.0087385101143
 21
-1769.173302512439
 31
0.0
 11
831.0209448592276
 21
-1766.078442813606
 31
0.0
 11
842.0331562639377
 21
-1766.078442813606
 31
0.0
 11
848.588983389256
 21
-1768.907489405649
 31
0.0
 11
849.395184939644
 21
-1769.14999828721
 31
0.0
  0
SPLINE
  5
9AB2
102
{ACAD_REACTORS
330
9AC2
102
}
330
18
100
AcDbEntity
  8
FERRO
 62
   250
100
AcDbSpline
210
0.0
220
0.0
230
1.0
 70
  1064
 71
     3
 72
    14
 73
    10
 74
     8
 42
0.000000001
 43
0.0000000001
 44
0.0000000001
 40
0.0
 40
0.0
 40
0.0
 40
0.0
 40
0.841885679580551
 40
12.45413535531984
 40
27.15457310255352
 40
35.5907967385696
 40
44.29605862002392
 40
53.6922019811449
 40
54.53408766072588
 40
54.53408766072588
 40
54.53408766072588
 40
54.53408766072588
 10
889.3951386424753
 20
-1733.272014699464
 30
0.0
 10
889.6638583524302
 20
-1733.351019391516
 30
0.0
 10
893.6390674830683
 20
-1734.519747108817
 30
0.0
 10
902.3267189925963
 20
-1739.689819827688
 30
0.0
 10
913.3212735653243
 20
-1731.118976395693
 30
0.0
 10
923.8280691412139
 20
-1734.043849381834
 30
0.0
 10
932.2641084431857
 20
-1739.267479124492
 30
0.0
 10
937.8507935983535
 20
-1734.283717356786
 30
0.0
 10
941.1258285068408
 20
-1733.3488869499
 30
0.0
 10
941.3951386424754
 20
-1733.272014699464
 30
0.0
 11
889.3951386424753
 21
-1733.272014699464
 31
0.0
 11
890.2013401928627
 21
-1733.514523581024
 31
0.0
 11
901.3205978007645
 21
-1736.862127616872
 31
0.0
 11
915.4299939790233
 21
-1732.735650978719
 31
0.0
 11
923.6891500047574
 21
-1734.45501451778
 31
0.0
 11
931.9483060304916
 21
-1737.206000916743
 31
0.0
 11
940.5889370920874
 21
-1733.514523581024
 31
0.0
 11
941.3951386424754
 21
-1733.272014699464
 31
0.0
  0
HATCH
  5
9AC2
330
18
100
AcDbEntity
  8
AREA166
 62
   166
100
AcDbHatch
 10
0.0
 20
0.0
 30
0.0
210
0.0
220
0.0
230
1.0
  2
HONEY
 70
     0
 71
     1
 91
        1
 92
        5
 93
        4
 72
     4
 94
        3
 73
     0
 74
     0
 95
       12
 96
        8
 40
0.841885679580436
 40
0.841885679580436
 40
0.841885679580436
 40
0.841885679580551
 40
12.45413535531984
 40
27.15457310255352
 40
35.5907967385696
 40
44.29605862002392
 40
53.6922019811449
 40
53.69220198114512
 40
53.69220198114512
 40
53.69220198114512
 10
890.2013401928629
 20
-1733.514523581024
 10
893.9084147258856
 20
-1734.680037243668
 10
902.3267189925963
 20
-1739.689819827688
 10
913.3212735653243
 20
-1731.118976395692
 10
923.8280691412139
 20
-1734.043849381835
 10
932.2641084431857
 20
-1739.267479124491
 10
937.6025077937491
 20
-1734.505207787353
 10
940.5889370920872
 20
-1733.514523581024
 72
     1
 10
940.5889370920874
 20
-1733.514523581024
 11
940.5889370920874
 21
-1682.878868329271
 72
     1
 10
940.5889370920874
 20
-1682.878868329271
 11
890.2013401928625
 21
-1682.87886832927
 72
     1
 10
890.2013401928625
 20
-1682.87886832927
 11
890.2013401928625
 21
-1733.514523581024
 97
        4
330
4727
330
45E8
330
9AB2
330
45E9
 75
     0
 76
     1
 52
0.0
 41
1.455999999999999
 77
     0
 78
     3
 53
0.0
 43
-121.9827683803685
 44
142.8266844307553
 45
6.934199999999999
 46
4.003461279999999
 79
     2
 49
4.622799999999999
 49
-9.245599999999999
 53
120.0
 43
-121.9827683803685
 44
142.8266844307553
 45
-6.934199171547365
 46
4.003462714922056
 79
     2
 49
4.622799999999992
 49
-9.245599999999985
 53
60.0
 43
-121.9827683803685
 44
142.8266844307553
 45
0.0000008284526355
 46
8.006923994922052
 79
     2
 49
-9.245599999999999
 49
4.622799999999999
 47
0.4674590473530481
 98
        1
 10
916.7543459973197
 20
-1714.760994277014
  0
HATCH
  5
9AD2
330
18
100
AcDbEntity
  8
AREA166
 62
   166
100
AcDbHatch
 10
0.0
 20
0.0
 30
0.0
210
0.0
220
0.0
230
1.0
  2
HONEY
 70
     0
 71
     1
 91
        1
 92
        5
 93
        5
 72
     1
 10
890.2013401928625
 20
-1817.830229883593
 11
940.5889370920874
 21
-1817.830229883593
 72
     1
 10
940.5889370920874
 20
-1817.830229883593
 11
940.5889370920874
 21
-1767.194574631839
 72
     4
 94
        3
 73
     0
 74
     0
 95
       12
 96
        8
 40
0.8418856795805567
 40
0.8418856795808267
 40
0.8418856795808267
 40
0.8418856795808267
 40
7.982079928829648
 40
18.99429133353999
 40
30.43312192197492
 40
42.04176826085941
 40
52.70988905106008
 40
52.7098890510604
 40
52.7098890510604
 40
52.7098890510604
 10
940.5889370920874
 20
-1767.194574631839
 10
938.3261939020258
 20
-1766.462134485658
 10
933.1053737393904
 20
-1763.08475672624
 10
922.6360195543243
 20
-1763.48304188745
 10
912.0608780575762
 20
-1769.542304180441
 10
900.9695342936691
 20
-1763.355896843724
 10
893.6125457710238
 20
-1766.154454114275
 10
890.2013401928627
 20
-1767.19457463184
 72
     4
 94
        3
 73
     0
 74
     0
 95
        8
 96
        4
 40
0.0
 40
0.0000000000003214
 40
0.0000000000003214
 40
0.0000000000003214
 40
0.8418856795808784
 40
0.8418856795808784
 40
0.8418856795808784
 40
0.8418856795808784
 10
890.2013401928625
 20
-1767.19457463184
 10
889.9321414105431
 20
-1767.276656807885
 10
889.6636400265091
 20
-1767.356870160643
 10
889.3951386424753
 20
-1767.437083513401
 72
     1
 10
890.2013401928622
 20
-1767.195819721802
 11
890.2013401928625
 21
-1817.830229883593
 97
        4
330
4723
330
4551
330
4725
330
4550
 75
     0
 76
     1
 52
0.0
 41
1.455999999999999
 77
     0
 78
     3
 53
0.0
 43
-121.9827683803685
 44
142.8266844307553
 45
6.934199999999999
 46
4.003461279999999
 79
     2
 49
4.622799999999999
 49
-9.245599999999999
 53
120.0
 43
-121.9827683803685
 44
142.8266844307553
 45
-6.934199171547365
 46
4.003462714922056
 79
     2
 49
4.622799999999992
 49
-9.245599999999985
 53
60.0
 43
-121.9827683803685
 44
142.8266844307553
 45
0.0000008284526355
 46
8.006923994922052
 79
     2
 49
-9.245599999999999
 49
4.622799999999999
 47
0.4674590473530481
 98
        1
 10
907.996943238905
 20
-1792.546185443049
  0
HATCH
  5
9AE2
330
18
100
AcDbEntity
  8
AREA166
 62
   166
100
AcDbHatch
 10
0.0
 20
0.0
 30
0.0
210
0.0
220
0.0
230
1.0
  2
HONEY
 70
     0
 71
     1
 91
        1
 92
        5
 93
        5
 72
     4
 94
        3
 73
     0
 74
     0
 95
       12
 96
        8
 40
0.8418856795807059
 40
0.8418856795810754
 40
0.8418856795810754
 40
0.8418856795810754
 40
7.982079928829691
 40
18.99429133353992
 40
30.43312192197492
 40
42.04176826085941
 40
52.70988905106015
 40
52.70988905106031
 40
52.70988905106031
 40
52.70988905106031
 10
848.5889833892557
 20
-1768.907489405648
 10
846.3262401991942
 20
-1768.175049259468
 10
841.1054200365592
 20
-1764.797671500048
 10
830.6360658514929
 20
-1765.19595666126
 10
820.0609243547445
 20
-1771.25521895425
 10
808.9695805908382
 20
-1765.068811617534
 10
801.6125920681909
 20
-1767.867368888082
 10
798.2013864900309
 20
-1768.907489405648
 72
     4
 94
        3
 73
     0
 74
     0
 95
        8
 96
        4
 40
0.0
 40
0.0000000000001719
 40
0.0000000000001719
 40
0.0000000000001719
 40
0.8418856795808784
 40
0.8418856795808784
 40
0.8418856795808784
 40
0.8418856795808784
 10
798.2013864900309
 20
-1768.907489405648
 10
797.9321877077114
 20
-1768.989571581695
 10
797.6636863236775
 20
-1769.069784934452
 10
797.3951849396437
 20
-1769.14999828721
 72
     1
 10
798.201386490031
 20
-1768.90873449561
 11
798.201386490031
 21
-1819.537595186435
 72
     1
 10
798.201386490031
 20
-1819.537595186435
 11
848.5889833892557
 21
-1819.537595186435
 72
     1
 10
848.5889833892557
 20
-1819.537595186435
 11
848.5889833892557
 21
-1768.907489405648
 97
        4
330
9AB1
330
4516
330
454D
330
4517
 75
     0
 76
     1
 52
0.0
 41
1.455999999999999
 77
     0
 78
     3
 53
0.0
 43
-117.6459074442191
 44
142.8266844307553
 45
6.934199999999999
 46
4.003461279999999
 79
     2
 49
4.622799999999999
 49
-9.245599999999999
 53
120.0
 43
-117.6459074442191
 44
142.8266844307553
 45
-6.934199171547365
 46
4.003462714922056
 79
     2
 49
4.622799999999994
 49
-9.245599999999988
 53
60.0
 43
-117.6459074442191
 44
142.8266844307553
 45
0.0000008284526355
 46
8.006923994922052
 79
     2
 49
-9.245599999999999
 49
4.622799999999999
 47
0.4674590473530481
 98
        1
 10
833.0305952687293
 20
-1798.380073302405
  0
HATCH
  5
9B04
330
18
100
AcDbEntity
  8
AREA166
 62
   166
100
AcDbHatch
 10
0.0
 20
0.0
 30
0.0
210
0.0
220
0.0
230
1.0
  2
HONEY
 70
     0
 71
     0
 91
        1
 92
        5
 93
        4
 72
     1
 10
848.5889833892557
 20
-1684.597332574047
 11
798.2013864900309
 21
-1684.597332574046
 72
     1
 10
798.2013864900309
 20
-1684.597332574046
 11
798.201386490031
 21
-1735.227438354834
 72
     4
 94
        3
 73
     0
 74
     0
 95
       12
 96
        8
 40
0.8095054611353289
 40
0.8095054611355564
 40
0.8095054611355564
 40
0.8095054611355564
 40
11.9751301493461
 40
26.1101664447631
 40
34.22191994093235
 40
42.5923640577153
 40
51.62711728956213
 40
51.62711728956215
 40
51.62711728956215
 40
51.62711728956215
 10
798.201386490031
 20
-1735.227438354834
 10
801.9084610230519
 20
-1736.392952017477
 10
810.326765289766
 20
-1741.402734601496
 10
821.3213198624924
 20
-1732.831891169501
 10
831.8281154383825
 20
-1735.756764155644
 10
840.2641547403531
 20
-1740.980393898297
 10
845.6025540909182
 20
-1736.218122561164
 10
848.5889833892557
 20
-1735.227438354834
 72
     1
 10
848.5889833892557
 20
-1735.227438354834
 11
848.5889833892557
 21
-1684.597332574047
 97
        0
 75
     0
 76
     1
 52
0.0
 41
1.455999999999999
 77
     0
 78
     3
 53
0.0
 43
-117.6459074442191
 44
142.8266844307553
 45
6.934199999999999
 46
4.003461279999999
 79
     2
 49
4.622799999999999
 49
-9.245599999999999
 53
120.0
 43
-117.6459074442191
 44
142.8266844307553
 45
-6.934199171547365
 46
4.003462714922056
 79
     2
 49
4.622799999999994
 49
-9.245599999999988
 53
60.0
 43
-117.6459074442191
 44
142.8266844307553
 45
0.0000008284526355
 46
8.006923994922052
 79
     2
 49
-9.245599999999999
 49
4.622799999999999
 47
0.4674590473530481
 98
        1
 10
830.1114579561673
 20
-1707.468633109096
  0
INSERT
  5
9E04
330
18
100
AcDbEntity
  8
AREA
 62
     1
100
AcDbBlockReference
  2
WMF3
 10
2060.696351223306
 20
-755.2071482055043
 30
0.0
  0
INSERT
  5
9E05
330
18
100
AcDbEntity
  8
AREA
 62
     1
100
AcDbBlockReference
  2
WMF4
 10
2058.204503503314
 20
-756.8663662476408
 30
0.0
  0
INSERT
  5
9E06
330
18
100
AcDbEntity
  8
AREA
 62
     1
100
AcDbBlockReference
  2
WMF3
 10
2060.822965710338
 20
-753.161837861614
 30
0.0
  0
INSERT
  5
9E07
330
18
100
AcDbEntity
  8
AREA
 62
     1
100
AcDbBlockReference
  2
WMF4
 10
2058.331117990345
 20
-754.8210559037504
 30
0.0
  0
INSERT
  5
9E08
330
18
100
AcDbEntity
  8
AREA
 62
     1
100
AcDbBlockReference
  2
WMF3
 10
2060.822965710338
 20
-753.161837861614
 30
0.0
  0
INSERT
  5
9E09
330
18
100
AcDbEntity
  8
AREA
 62
     1
100
AcDbBlockReference
  2
WMF4
 10
2058.331117990345
 20
-754.8210559037504
 30
0.0
  0
INSERT
  5
9E9C
330
18
100
AcDbEntity
  8
AREA
 62
     1
100
AcDbBlockReference
  2
WMF3
 10
2433.320275653887
 20
-673.3966400332365
 30
0.0
  0
INSERT
  5
9E9D
330
18
100
AcDbEntity
  8
AREA
 62
     1
100
AcDbBlockReference
  2
WMF4
 10
2430.828427933894
 20
-675.0558580753729
 30
0.0
  0
INSERT
  5
9FF9
330
18
100
AcDbEntity
  8
AREA
 62
     1
100
AcDbBlockReference
  2
WMF3
 10
942.165018739738
 20
-886.0443957620208
 30
0.0
 41
2.0
 42
2.0
 43
2.0
  0
INSERT
  5
9FFA
330
18
100
AcDbEntity
  8
AREA
 62
     1
100
AcDbBlockReference
  2
WMF4
 10
937.1813232997531
 20
-889.3628318462939
 30
0.0
 41
2.0
 42
2.0
 43
2.0
  0
INSERT
  5
9FFB
330
18
100
AcDbEntity
  8
AREA
 62
     1
100
AcDbBlockReference
  2
WMF3
 10
942.4182477138005
 20
-881.9537750742401
 30
0.0
 41
2.0
 42
2.0
 43
2.0
  0
INSERT
  5
9FFC
330
18
100
AcDbEntity
  8
AREA
 62
     1
100
AcDbBlockReference
  2
WMF4
 10
937.4345522738156
 20
-885.272211158513
 30
0.0
 41
2.0
 42
2.0
 43
2.0
  0
INSERT
  5
9FFD
330
18
100
AcDbEntity
  8
AREA
 62
     1
100
AcDbBlockReference
  2
WMF3
 10
942.4182477138005
 20
-881.9537750742401
 30
0.0
 41
2.0
 42
2.0
 43
2.0
  0
INSERT
  5
9FFE
330
18
100
AcDbEntity
  8
AREA
 62
     1
100
AcDbBlockReference
  2
WMF4
 10
937.4345522738156
 20
-885.272211158513
 30
0.0
 41
2.0
 42
2.0
 43
2.0
  0
INSERT
  5
A091
330
18
100
AcDbEntity
  8
AREA
 62
     1
100
AcDbBlockReference
  2
WMF3
 10
1687.412867600899
 20
-722.4233794174852
 30
0.0
 41
2.0
 42
2.0
 43
2.0
  0
INSERT
  5
A092
330
18
100
AcDbEntity
  8
AREA
 62
     1
100
AcDbBlockReference
  2
WMF4
 10
1682.429172160914
 20
-725.7418155017581
 30
0.0
 41
2.0
 42
2.0
 43
2.0
  0
LEADER
  5
A0CA
330
18
100
AcDbEntity
  8
QUOTE
100
AcDbLeader
  3
STANDARD_WS
 73
     0
 75
     1
 40
26.66666666666668
 41
71.66666666666667
 76
     3
 10
686.1101021083109
 20
-1554.48699810085
 30
0.0
 10
657.2391173531282
 20
-1577.738237035567
 30
0.0
 10
654.2391173531282
 20
-1577.738237035567
 30
0.0
340
A0CB
213
-3.0
223
-0.9001029535534144
233
0.0
1001
ACAD
1000
DSTYLE
1002
{
1070
    40
1040
3.0
1070
    41
1040
1.0
1070
    42
1040
1.5
1070
    43
1040
10.0
1070
    44
1040
0.0
1070
    79
1070
     2
1070
   141
1040
2.0
1070
   147
1040
1.0
1070
   176
1070
   256
1070
   177
1070
   256
1070
   178
1070
   256
1070
   179
1070
     1
1070
   271
1070
     1
1070
   272
1070
     1
1070
   341
1005
A96C
1070
   342
1005
A96C
1002
}
  0
MTEXT
  5
A0CB
102
{ACAD_REACTORS
330
A0CA
102
}
330
18
100
AcDbEntity
  8
QUOTE
100
AcDbMText
 10
654.2391173531282
 20
-1560.504800748681
 30
0.0
 40
10.0
 41
0.0
 71
     6
 72
     1
  1
tubolare\P70x70x2
 73
     1
 44
1.0
1001
ACAD
1000
MTEXTBEGIN
1070
    73
1070
     1
1070
    44
1040
1.0
1070
    74
1070
     0
1000
MTEXTEND
  0
INSERT
  5
A1E3
330
18
100
AcDbEntity
  8
AREA
 62
     1
100
AcDbBlockReference
  2
WMF3
 10
1359.441396540012
 20
-1359.345123808488
 30
0.0
 41
2.0
 42
2.0
 43
2.0
  0
INSERT
  5
A1E4
330
18
100
AcDbEntity
  8
AREA
 62
     1
100
AcDbBlockReference
  2
WMF4
 10
1354.457701100026
 20
-1362.663559892761
 30
0.0
 41
2.0
 42
2.0
 43
2.0
  0
INSERT
  5
A1E5
330
18
100
AcDbEntity
  8
AREA
 62
     1
100
AcDbBlockReference
  2
WMF3
 10
1359.694625514074
 20
-1355.254503120707
 30
0.0
 41
2.0
 42
2.0
 43
2.0
  0
INSERT
  5
A1E6
330
18
100
AcDbEntity
  8
AREA
 62
     1
100
AcDbBlockReference
  2
WMF4
 10
1354.710930074089
 20
-1358.57293920498
 30
0.0
 41
2.0
 42
2.0
 43
2.0
  0
INSERT
  5
A1E7
330
18
100
AcDbEntity
  8
AREA
 62
     1
100
AcDbBlockReference
  2
WMF3
 10
1359.694625514074
 20
-1355.254503120707
 30
0.0
 41
2.0
 42
2.0
 43
2.0
  0
INSERT
  5
A1E8
330
18
100
AcDbEntity
  8
AREA
 62
     1
100
AcDbBlockReference
  2
WMF4
 10
1354.710930074089
 20
-1358.57293920498
 30
0.0
 41
2.0
 42
2.0
 43
2.0
  0
INSERT
  5
A27B
330
18
100
AcDbEntity
  8
AREA
 62
     1
100
AcDbBlockReference
  2
WMF3
 10
2104.689245401173
 20
-1195.724107463952
 30
0.0
 41
2.0
 42
2.0
 43
2.0
  0
INSERT
  5
A27C
330
18
100
AcDbEntity
  8
AREA
 62
     1
100
AcDbBlockReference
  2
WMF4
 10
2099.705549961187
 20
-1199.042543548225
 30
0.0
 41
2.0
 42
2.0
 43
2.0
  0
LINE
  5
A40B
330
18
100
AcDbEntity
  8
TABELLA
100
AcDbLine
 10
568.455106347372
 20
-2042.127871729546
 30
0.0
 11
877.4551063473721
 21
-2042.127871729546
 31
0.0
  0
LINE
  5
A41B
330
18
100
AcDbEntity
  8
TABELLA
100
AcDbLine
 10
1169.313814728061
 20
-2042.127871729546
 30
0.0
 11
877.4551063473721
 21
-2042.127871729546
 31
0.0
  0
INSERT
  5
A41E
330
18
100
AcDbEntity
  8
AREA166
 62
     1
100
AcDbBlockReference
  2
WMF3
 10
1775.826786576635
 20
-1194.211980900148
 30
0.0
 41
3.0
 42
3.0
 43
3.0
  0
INSERT
  5
A41F
330
18
100
AcDbEntity
  8
AREA166
 62
     1
100
AcDbBlockReference
  2
WMF4
 10
1768.351243416657
 20
-1199.189635026558
 30
0.0
 41
3.0
 42
3.0
 43
3.0
  0
LINE
  5
A45C
330
18
100
AcDbEntity
  8
FERRO
100
AcDbLine
 10
568.455106347372
 20
-2042.127871729546
 30
0.0
 11
877.4551063473721
 21
-2042.127871729546
 31
0.0
  0
LINE
  5
A45D
330
18
100
AcDbEntity
  8
FERRO
100
AcDbLine
 10
877.4551063473721
 20
-2042.127871729546
 30
0.0
 11
1169.313814728061
 21
-2042.127871729546
 31
0.0
  0
DIMENSION
  5
A471
330
18
100
AcDbEntity
  8
QUOTE
100
AcDbDimension
  2
*D3
 10
849.395184939644
 20
-1756.284004537841
 30
0.0
 11
823.3951849396436
 21
-1749.534004537841
 31
0.0
 70
    32
 71
     5
 42
52.00000000000045
  3
STANDARD_WS
100
AcDbAlignedDimension
 13
797.3951849396435
 23
-1775.200132502674
 33
0.0
 14
849.395184939644
 24
-1769.14999828721
 34
0.0
100
AcDbRotatedDimension
1001
ACAD
1000
DSTYLE
1002
{
1070
    40
1040
3.0
1070
    41
1040
1.0
1070
    42
1040
1.5
1070
    43
1040
10.0
1070
    44
1040
0.0
1070
    79
1070
     2
1070
   141
1040
2.0
1070
   147
1040
1.0
1070
   176
1070
   256
1070
   177
1070
   256
1070
   178
1070
   256
1070
   179
1070
     1
1070
   271
1070
     1
1070
   272
1070
     1
1070
   341
1005
A96C
1070
   342
1005
A96C
1002
}
  0
DIMENSION
  5
A47E
330
18
100
AcDbEntity
  8
QUOTE
100
AcDbDimension
  2
*D4
 10
889.3951386424749
 20
-1756.284004537841
 30
0.0
 11
871.8234794074691
 21
-1756.284004537841
 31
0.0
 70
   160
  1
40
 71
     5
 42
39.99995370283091
  3
STANDARD_WS
100
AcDbAlignedDimension
 13
849.395184939644
 23
-1769.14999828721
 33
0.0
 14
889.3951386424749
 24
-1775.711092927923
 34
0.0
100
AcDbRotatedDimension
1001
ACAD
1000
DSTYLE
1002
{
1070
    40
1040
3.0
1070
    41
1040
1.0
1070
    42
1040
1.5
1070
    43
1040
10.0
1070
    44
1040
0.0
1070
    79
1070
     2
1070
   141
1040
2.0
1070
   147
1040
1.0
1070
   176
1070
   256
1070
   177
1070
   256
1070
   178
1070
   256
1070
   179
1070
     1
1070
   271
1070
     1
1070
   272
1070
     1
1070
   341
1005
A96C
1070
   342
1005
A96C
1002
}
  0
LINE
  5
A594
330
18
100
AcDbEntity
  8
FERRO
 62
   250
100
AcDbLine
 10
806.2634019939071
 20
-1623.612216294977
 30
0.0
 11
806.263401993907
 21
-1624.132216294977
 31
0.0
  0
LWPOLYLINE
  5
A6DB
330
18
100
AcDbEntity
  8
FERRO
100
AcDbPolyline
 90
        4
 70
     1
 43
0.0
 10
834.3951849396431
 20
-1597.632216294977
 10
834.3951849396431
 20
-1583.632216294977
 10
812.395184939643
 20
-1583.632216294977
 10
812.395184939643
 20
-1597.632216294977
  0
LWPOLYLINE
  5
A6DC
330
18
100
AcDbEntity
  8
FERRO
100
AcDbPolyline
 90
        3
 70
     0
 43
0.0
 10
809.3951849396431
 20
-1580.632216294977
 10
809.3951849396431
 20
-1573.389575607858
 10
817.3345247678632
 20
-1567.571556123197
  0
LWPOLYLINE
  5
A6DD
330
18
100
AcDbEntity
  8
FERRO
100
AcDbPolyline
 90
        3
 70
     0
 43
0.0
 10
812.395184939643
 20
-1580.632216294977
 10
812.395184939643
 20
-1574.632216294977
 10
817.864854853753
 20
-1568.101886209087
  0
LINE
  5
A6DE
330
18
100
AcDbEntity
  8
FERRO
100
AcDbLine
 10
817.8648548537532
 20
-1568.101886209087
 30
0.0
 11
817.3345247678636
 21
-1567.571556123197
 31
0.0
  0
LINE
  5
A6DF
330
18
100
AcDbEntity
  8
FERRO
100
AcDbLine
 10
837.395184939643
 20
-1580.632216294977
 30
0.0
 11
837.395184939643
 21
-1575.632216294977
 31
0.0
  0
LINE
  5
A6E0
330
18
100
AcDbEntity
  8
FERRO
100
AcDbLine
 10
835.395184939643
 20
-1580.632216294977
 30
0.0
 11
837.395184939643
 21
-1575.632216294977
 31
0.0
  0
LINE
  5
A6E1
330
18
100
AcDbEntity
  8
FERRO
100
AcDbLine
 10
810.8951849396429
 20
-1623.632216294977
 30
0.0
 11
808.3951849396431
 21
-1624.132216294977
 31
0.0
  0
LINE
  5
A6E2
330
18
100
AcDbEntity
  8
FERRO
100
AcDbLine
 10
808.3951849396431
 20
-1624.132216294977
 30
0.0
 11
809.3951849396431
 21
-1622.132216294977
 31
0.0
  0
LINE
  5
A6E3
330
18
100
AcDbEntity
  8
FERRO
100
AcDbLine
 10
835.8951849396429
 20
-1623.632216294977
 30
0.0
 11
838.395184939643
 21
-1624.132216294977
 31
0.0
  0
LINE
  5
A6E4
330
18
100
AcDbEntity
  8
FERRO
100
AcDbLine
 10
838.395184939643
 20
-1624.132216294977
 30
0.0
 11
837.395184939643
 21
-1622.132216294977
 31
0.0
  0
LINE
  5
A6E5
330
18
100
AcDbEntity
  8
FERRO
100
AcDbLine
 10
818.1451849396431
 20
-1623.632216294977
 30
0.0
 11
818.1451849396431
 21
-1630.632216294977
 31
0.0
  0
LINE
  5
A6E6
330
18
100
AcDbEntity
  8
FERRO
100
AcDbLine
 10
828.645184939643
 20
-1630.632216294977
 30
0.0
 11
828.645184939643
 21
-1623.632216294977
 31
0.0
  0
LINE
  5
A6E7
330
18
100
AcDbEntity
  8
FERRO
100
AcDbLine
 10
831.145184939643
 20
-1630.132216294977
 30
0.0
 11
828.645184939643
 21
-1630.632216294977
 31
0.0
  0
LINE
  5
A6E8
330
18
100
AcDbEntity
  8
FERRO
100
AcDbLine
 10
825.8951849396432
 20
-1632.899658155442
 30
0.0
 11
831.145184939643
 21
-1630.132216294977
 31
0.0
  0
LINE
  5
A6E9
330
18
100
AcDbEntity
  8
FERRO
100
AcDbLine
 10
820.8951849396431
 20
-1632.899658155442
 30
0.0
 11
815.6451849396431
 21
-1630.132216294977
 31
0.0
  0
LINE
  5
A6EA
330
18
100
AcDbEntity
  8
FERRO
100
AcDbLine
 10
815.6451849396431
 20
-1630.132216294977
 30
0.0
 11
818.1451849396431
 21
-1630.632216294977
 31
0.0
  0
ARC
  5
A6EB
330
18
100
AcDbEntity
  8
FERRO
100
AcDbCircle
 10
823.3951849396429
 20
-1644.485997755759
 30
0.0
 40
11.85298550298028
100
AcDbArc
 50
77.82388473721623
 51
102.1761152627816
  0
LINE
  5
A6EC
330
18
100
AcDbEntity
  8
FERRO
100
AcDbLine
 10
821.145184939643
 20
-1624.132216294977
 30
0.0
 11
821.145184939643
 21
-1629.632216294977
 31
0.0
  0
LINE
  5
A6ED
330
18
100
AcDbEntity
  8
FERRO
100
AcDbLine
 10
821.145184939643
 20
-1629.632216294977
 30
0.0
 11
825.645184939643
 21
-1629.632216294977
 31
0.0
  0
LINE
  5
A6EE
330
18
100
AcDbEntity
  8
FERRO
100
AcDbLine
 10
825.645184939643
 20
-1624.132216294977
 30
0.0
 11
825.645184939643
 21
-1629.632216294977
 31
0.0
  0
ARC
  5
A6EF
330
18
100
AcDbEntity
  8
FERRO
100
AcDbCircle
 10
823.3951849396433
 20
-1626.163466294977
 30
0.0
 40
3.03125000000001
100
AcDbArc
 50
42.0750220508379
 51
137.9249779491621
  0
LINE
  5
A6F0
330
18
100
AcDbEntity
  8
FERRO
100
AcDbLine
 10
837.395184939643
 20
-1622.132216294977
 30
0.0
 11
837.395184939643
 21
-1580.632216294977
 31
0.0
  0
LINE
  5
A6F1
330
18
100
AcDbEntity
  8
FERRO
100
AcDbLine
 10
835.395184939643
 20
-1580.632216294977
 30
0.0
 11
812.395184939643
 21
-1580.632216294977
 31
0.0
  0
LINE
  5
A6F2
330
18
100
AcDbEntity
  8
FERRO
100
AcDbLine
 10
809.3951849396431
 20
-1580.632216294977
 30
0.0
 11
809.3951849396431
 21
-1622.132216294977
 31
0.0
  0
LINE
  5
A6F3
330
18
100
AcDbEntity
  8
FERRO
100
AcDbLine
 10
810.8951849396429
 20
-1623.632216294977
 30
0.0
 11
818.1451849396431
 21
-1623.632216294977
 31
0.0
  0
LINE
  5
A6F4
330
18
100
AcDbEntity
  8
FERRO
100
AcDbLine
 10
835.8951849396429
 20
-1623.632216294977
 30
0.0
 11
828.645184939643
 21
-1623.632216294977
 31
0.0
  0
LINE
  5
A6F5
330
18
100
AcDbEntity
  8
FERRO
100
AcDbLine
 10
812.395184939643
 20
-1600.632216294977
 30
0.0
 11
834.3951849396431
 21
-1600.632216294977
 31
0.0
  0
LINE
  5
A6F6
330
18
100
AcDbEntity
  8
FERRO
100
AcDbLine
 10
812.395184939643
 20
-1620.632216294977
 30
0.0
 11
834.3951849396431
 21
-1620.632216294977
 31
0.0
  0
LINE
  5
A6F7
330
18
100
AcDbEntity
  8
FERRO
100
AcDbLine
 10
812.395184939643
 20
-1600.632216294977
 30
0.0
 11
812.395184939643
 21
-1620.632216294977
 31
0.0
  0
LINE
  5
A6F8
330
18
100
AcDbEntity
  8
FERRO
100
AcDbLine
 10
834.3951849396431
 20
-1600.632216294977
 30
0.0
 11
834.3951849396431
 21
-1620.632216294977
 31
0.0
  0
INSERT
  5
A78B
330
18
100
AcDbEntity
  8
ALLUMINIO
 62
     1
100
AcDbBlockReference
  2
WMF3
 10
1817.613906467558
 20
-1646.13420216101
 30
0.0
 41
0.5
 42
0.5
 43
0.5
  0
INSERT
  5
A78C
330
18
100
AcDbEntity
  8
ALLUMINIO
 62
     1
100
AcDbBlockReference
  2
WMF4
 10
1816.367982607561
 20
-1646.963811182078
 30
0.0
 41
0.5
 42
0.5
 43
0.5
  0
LWPOLYLINE
  5
A7DA
330
18
100
AcDbEntity
  8
FERRO
100
AcDbPolyline
 90
        4
 70
     1
 43
0.0
 10
834.3951849396431
 20
-1883.502711465505
 10
834.3951849396431
 20
-1897.502711465505
 10
812.395184939643
 20
-1897.502711465505
 10
812.395184939643
 20
-1883.502711465505
  0
LWPOLYLINE
  5
A7DB
330
18
100
AcDbEntity
  8
FERRO
100
AcDbPolyline
 90
        3
 70
     0
 43
0.0
 10
809.3951849396431
 20
-1900.502711465504
 10
809.3951849396431
 20
-1907.745352152624
 10
817.3345247678632
 20
-1913.563371637284
  0
LWPOLYLINE
  5
A7DC
330
18
100
AcDbEntity
  8
FERRO
100
AcDbPolyline
 90
        3
 70
     0
 43
0.0
 10
812.395184939643
 20
-1900.502711465504
 10
812.395184939643
 20
-1906.502711465505
 10
817.864854853753
 20
-1913.033041551395
  0
LINE
  5
A7DD
330
18
100
AcDbEntity
  8
FERRO
100
AcDbLine
 10
817.864854853753
 20
-1913.033041551395
 30
0.0
 11
817.3345247678632
 21
-1913.563371637284
 31
0.0
  0
LINE
  5
A7DE
330
18
100
AcDbEntity
  8
FERRO
100
AcDbLine
 10
837.395184939643
 20
-1900.502711465504
 30
0.0
 11
837.395184939643
 21
-1905.502711465505
 31
0.0
  0
LINE
  5
A7DF
330
18
100
AcDbEntity
  8
FERRO
100
AcDbLine
 10
835.395184939643
 20
-1900.502711465504
 30
0.0
 11
837.395184939643
 21
-1905.502711465505
 31
0.0
  0
LINE
  5
A7E0
330
18
100
AcDbEntity
  8
FERRO
100
AcDbLine
 10
810.8951849396429
 20
-1880.502711465505
 30
0.0
 11
808.3951849396431
 21
-1880.002711465505
 31
0.0
  0
LINE
  5
A7E1
330
18
100
AcDbEntity
  8
FERRO
100
AcDbLine
 10
808.3951849396431
 20
-1880.002711465505
 30
0.0
 11
809.3951849396431
 21
-1882.002711465505
 31
0.0
  0
LINE
  5
A7E2
330
18
100
AcDbEntity
  8
FERRO
100
AcDbLine
 10
835.8951849396429
 20
-1880.502711465505
 30
0.0
 11
838.395184939643
 21
-1880.002711465505
 31
0.0
  0
LINE
  5
A7E3
330
18
100
AcDbEntity
  8
FERRO
100
AcDbLine
 10
838.395184939643
 20
-1880.002711465505
 30
0.0
 11
837.395184939643
 21
-1882.002711465505
 31
0.0
  0
LINE
  5
A7E4
330
18
100
AcDbEntity
  8
FERRO
100
AcDbLine
 10
818.1451849396431
 20
-1880.502711465505
 30
0.0
 11
818.1451849396431
 21
-1873.502711465505
 31
0.0
  0
LINE
  5
A7E5
330
18
100
AcDbEntity
  8
FERRO
100
AcDbLine
 10
828.645184939643
 20
-1873.502711465505
 30
0.0
 11
828.645184939643
 21
-1880.502711465505
 31
0.0
  0
LINE
  5
A7E6
330
18
100
AcDbEntity
  8
FERRO
100
AcDbLine
 10
831.145184939643
 20
-1874.002711465504
 30
0.0
 11
828.645184939643
 21
-1873.502711465505
 31
0.0
  0
LINE
  5
A7E7
330
18
100
AcDbEntity
  8
FERRO
100
AcDbLine
 10
825.8951849396439
 20
-1871.23526960504
 30
0.0
 11
831.145184939643
 21
-1874.002711465504
 31
0.0
  0
LINE
  5
A7E8
330
18
100
AcDbEntity
  8
FERRO
100
AcDbLine
 10
820.8951849396431
 20
-1871.23526960504
 30
0.0
 11
815.6451849396431
 21
-1874.002711465504
 31
0.0
  0
LINE
  5
A7E9
330
18
100
AcDbEntity
  8
FERRO
100
AcDbLine
 10
815.6451849396431
 20
-1874.002711465504
 30
0.0
 11
818.1451849396431
 21
-1873.502711465505
 31
0.0
  0
ARC
  5
A7EA
330
18
100
AcDbEntity
  8
FERRO
100
AcDbCircle
 10
823.3951849396435
 20
-1859.648930004709
 30
0.0
 40
11.8529855029944
100
AcDbArc
 50
257.8238847372298
 51
282.1761152627697
  0
LINE
  5
A7EB
330
18
100
AcDbEntity
  8
FERRO
100
AcDbLine
 10
821.145184939643
 20
-1880.002711465505
 30
0.0
 11
821.145184939643
 21
-1874.502711465505
 31
0.0
  0
LINE
  5
A7EC
330
18
100
AcDbEntity
  8
FERRO
100
AcDbLine
 10
821.145184939643
 20
-1874.502711465505
 30
0.0
 11
825.645184939643
 21
-1874.502711465505
 31
0.0
  0
LINE
  5
A7ED
330
18
100
AcDbEntity
  8
FERRO
100
AcDbLine
 10
825.645184939643
 20
-1880.002711465505
 30
0.0
 11
825.645184939643
 21
-1874.502711465505
 31
0.0
  0
ARC
  5
A7EE
330
18
100
AcDbEntity
  8
FERRO
100
AcDbCircle
 10
823.3951849396433
 20
-1877.971461465505
 30
0.0
 40
3.03125000000001
100
AcDbArc
 50
222.0750220508379
 51
317.9249779491621
  0
LINE
  5
A7EF
330
18
100
AcDbEntity
  8
FERRO
100
AcDbLine
 10
837.395184939643
 20
-1882.002711465505
 30
0.0
 11
837.395184939643
 21
-1900.502711465504
 31
0.0
  0
LINE
  5
A7F0
330
18
100
AcDbEntity
  8
FERRO
100
AcDbLine
 10
835.395184939643
 20
-1900.502711465504
 30
0.0
 11
812.395184939643
 21
-1900.502711465504
 31
0.0
  0
LINE
  5
A7F1
330
18
100
AcDbEntity
  8
FERRO
100
AcDbLine
 10
809.3951849396431
 20
-1900.502711465504
 30
0.0
 11
809.3951849396431
 21
-1882.002711465505
 31
0.0
  0
LINE
  5
A7F2
330
18
100
AcDbEntity
  8
FERRO
100
AcDbLine
 10
810.8951849396429
 20
-1880.502711465505
 30
0.0
 11
818.1451849396431
 21
-1880.502711465505
 31
0.0
  0
LINE
  5
A7F3
330
18
100
AcDbEntity
  8
FERRO
100
AcDbLine
 10
835.8951849396429
 20
-1880.502711465505
 30
0.0
 11
828.645184939643
 21
-1880.502711465505
 31
0.0
  0
INSERT
  5
A886
330
18
100
AcDbEntity
  8
ALLUMINIO
 62
     1
100
AcDbBlockReference
  2
WMF3
 10
1705.460171629709
 20
-1676.692457393573
 30
0.0
 41
0.5
 42
0.5
 43
0.5
  0
INSERT
  5
A887
330
18
100
AcDbEntity
  8
ALLUMINIO
 62
     1
100
AcDbBlockReference
  2
WMF4
 10
1704.214247769713
 20
-1677.522066414642
 30
0.0
 41
0.5
 42
0.5
 43
0.5
  0
LINE
  5
A8C0
330
18
100
AcDbEntity
  8
FERRO
100
AcDbLine
 10
927.1122684762016
 20
-1601.919301521168
 30
0.0
 11
904.1122684762015
 21
-1601.919301521168
 31
0.0
  0
LINE
  5
A8C1
330
18
100
AcDbEntity
  8
FERRO
100
AcDbLine
 10
917.6122684762015
 20
-1631.186743381633
 30
0.0
 11
922.8622684762015
 21
-1628.419301521168
 31
0.0
  0
LWPOLYLINE
  5
A8C2
330
18
100
AcDbEntity
  8
FERRO
100
AcDbPolyline
 90
        4
 70
     1
 43
0.0
 10
926.1122684762014
 20
-1618.919301521168
 10
926.1122684762014
 20
-1604.919301521167
 10
904.1122684762015
 20
-1604.919301521167
 10
904.1122684762015
 20
-1618.919301521168
  0
LINE
  5
A8C3
330
18
100
AcDbEntity
  8
FERRO
100
AcDbLine
 10
929.1122684762015
 20
-1620.419301521168
 30
0.0
 11
929.1122684762015
 21
-1601.919301521168
 31
0.0
  0
LINE
  5
A8C4
330
18
100
AcDbEntity
  8
FERRO
100
AcDbLine
 10
920.3622684762015
 20
-1628.919301521168
 30
0.0
 11
920.3622684762015
 21
-1621.919301521168
 31
0.0
  0
LINE
  5
A8C5
330
18
100
AcDbEntity
  8
FERRO
100
AcDbLine
 10
927.6122684762015
 20
-1621.919301521168
 30
0.0
 11
930.1122684762015
 21
-1622.419301521168
 31
0.0
  0
LINE
  5
A8C6
330
18
100
AcDbEntity
  8
FERRO
100
AcDbLine
 10
930.1122684762015
 20
-1622.419301521168
 30
0.0
 11
929.1122684762015
 21
-1620.419301521168
 31
0.0
  0
LINE
  5
A8C7
330
18
100
AcDbEntity
  8
FERRO
100
AcDbLine
 10
927.6122684762015
 20
-1621.919301521168
 30
0.0
 11
920.3622684762015
 21
-1621.919301521168
 31
0.0
  0
LINE
  5
A8C8
330
18
100
AcDbEntity
  8
FERRO
100
AcDbLine
 10
922.8622684762015
 20
-1628.419301521168
 30
0.0
 11
920.3622684762015
 21
-1628.919301521168
 31
0.0
  0
LINE
  5
A8C9
330
18
100
AcDbEntity
  8
FERRO
100
AcDbLine
 10
929.1122684762015
 20
-1601.919301521168
 30
0.0
 11
929.1122684762015
 21
-1596.919301521168
 31
0.0
  0
LINE
  5
A8CA
330
18
100
AcDbEntity
  8
FERRO
100
AcDbLine
 10
927.1122684762016
 20
-1601.919301521168
 30
0.0
 11
929.1122684762015
 21
-1596.919301521168
 31
0.0
  0
LINE
  5
A8CB
330
18
100
AcDbEntity
  8
FERRO
100
AcDbLine
 10
901.1122684762014
 20
-1601.919301521168
 30
0.0
 11
901.1122684762014
 21
-1620.419301521168
 31
0.0
  0
LINE
  5
A8CC
330
18
100
AcDbEntity
  8
FERRO
100
AcDbLine
 10
907.3622684762014
 20
-1628.419301521168
 30
0.0
 11
909.8622684762014
 21
-1628.919301521168
 31
0.0
  0
LINE
  5
A8CD
330
18
100
AcDbEntity
  8
FERRO
100
AcDbLine
 10
902.6122684762015
 20
-1621.919301521168
 30
0.0
 11
909.8622684762014
 21
-1621.919301521168
 31
0.0
  0
LINE
  5
A8CE
330
18
100
AcDbEntity
  8
FERRO
100
AcDbLine
 10
912.6122684762011
 20
-1631.186743381633
 30
0.0
 11
907.3622684762014
 21
-1628.419301521168
 31
0.0
  0
LINE
  5
A8CF
330
18
100
AcDbEntity
  8
FERRO
100
AcDbLine
 10
909.8622684762014
 20
-1621.919301521168
 30
0.0
 11
909.8622684762014
 21
-1628.919301521168
 31
0.0
  0
LINE
  5
A8D0
330
18
100
AcDbEntity
  8
FERRO
100
AcDbLine
 10
912.8622684762015
 20
-1622.419301521168
 30
0.0
 11
912.8622684762015
 21
-1627.919301521168
 31
0.0
  0
LINE
  5
A8D1
330
18
100
AcDbEntity
  8
FERRO
100
AcDbLine
 10
912.8622684762015
 20
-1627.919301521168
 30
0.0
 11
917.3622684762015
 21
-1627.919301521168
 31
0.0
  0
LINE
  5
A8D2
330
18
100
AcDbEntity
  8
FERRO
100
AcDbLine
 10
917.3622684762015
 20
-1622.419301521168
 30
0.0
 11
917.3622684762015
 21
-1627.919301521168
 31
0.0
  0
ARC
  5
A8D3
330
18
100
AcDbEntity
  8
FERRO
100
AcDbCircle
 10
915.1122684762016
 20
-1624.450551521167
 30
0.0
 40
3.03125000000001
100
AcDbArc
 50
42.0750220508379
 51
137.9249779491621
  0
ARC
  5
A8D4
330
18
100
AcDbEntity
  8
FERRO
100
AcDbCircle
 10
915.1122684762013
 20
-1642.77308298195
 30
0.0
 40
11.85298550298124
100
AcDbArc
 50
77.82388473721717
 51
102.1761152627823
  0
LINE
  5
A8D5
330
18
100
AcDbEntity
  8
FERRO
100
AcDbLine
 10
900.1122684762014
 20
-1622.419301521168
 30
0.0
 11
901.1122684762014
 21
-1620.419301521168
 31
0.0
  0
LINE
  5
A8D6
330
18
100
AcDbEntity
  8
FERRO
100
AcDbLine
 10
902.6122684762015
 20
-1621.919301521168
 30
0.0
 11
900.1122684762014
 21
-1622.419301521168
 31
0.0
  0
LWPOLYLINE
  5
A8D7
330
18
100
AcDbEntity
  8
FERRO
100
AcDbPolyline
 90
        3
 70
     0
 43
0.0
 10
904.1122684762015
 20
-1601.919301521168
 10
904.1122684762015
 20
-1595.919301521168
 10
909.5819383903116
 20
-1589.388971435278
  0
LWPOLYLINE
  5
A8D8
330
18
100
AcDbEntity
  8
FERRO
100
AcDbPolyline
 90
        3
 70
     0
 43
0.0
 10
901.1122684762014
 20
-1601.919301521168
 10
901.1122684762014
 20
-1594.676660834048
 10
909.0516083044217
 20
-1588.858641349388
  0
LINE
  5
A8D9
330
18
100
AcDbEntity
  8
FERRO
100
AcDbLine
 10
909.5819383903116
 20
-1589.388971435278
 30
0.0
 11
909.0516083044217
 21
-1588.858641349388
 31
0.0
  0
LINE
  5
A8DA
330
18
100
AcDbEntity
  8
FERRO
100
AcDbLine
 10
917.8951386424756
 20
-1869.522354831231
 30
0.0
 11
923.1451386424749
 21
-1872.289796691696
 31
0.0
  0
LWPOLYLINE
  5
A8DB
330
18
100
AcDbEntity
  8
FERRO
100
AcDbPolyline
 90
        4
 70
     1
 43
0.0
 10
926.3951386424748
 20
-1881.789796691696
 10
926.3951386424748
 20
-1895.789796691695
 10
904.3951386424749
 20
-1895.789796691695
 10
904.3951386424749
 20
-1881.789796691696
  0
LINE
  5
A8DC
330
18
100
AcDbEntity
  8
FERRO
100
AcDbLine
 10
927.3951386424748
 20
-1898.789796691696
 30
0.0
 11
904.3951386424749
 21
-1898.789796691696
 31
0.0
  0
LINE
  5
A8DE
330
18
100
AcDbEntity
  8
FERRO
100
AcDbLine
 10
929.3951386424749
 20
-1880.289796691696
 30
0.0
 11
929.3951386424749
 21
-1898.789796691696
 31
0.0
  0
LINE
  5
A8DF
330
18
100
AcDbEntity
  8
FERRO
100
AcDbLine
 10
927.3951386424748
 20
-1898.789796691696
 30
0.0
 11
929.3951386424749
 21
-1903.789796691696
 31
0.0
  0
LINE
  5
A8E0
330
18
100
AcDbEntity
  8
FERRO
100
AcDbLine
 10
929.3951386424749
 20
-1898.789796691696
 30
0.0
 11
929.3951386424749
 21
-1903.789796691696
 31
0.0
  0
LINE
  5
A8E1
330
18
100
AcDbEntity
  8
FERRO
100
AcDbLine
 10
923.1451386424749
 20
-1872.289796691696
 30
0.0
 11
920.6451386424749
 21
-1871.789796691696
 31
0.0
  0
LINE
  5
A8E2
330
18
100
AcDbEntity
  8
FERRO
100
AcDbLine
 10
927.8951386424749
 20
-1878.789796691696
 30
0.0
 11
920.6451386424749
 21
-1878.789796691696
 31
0.0
  0
LINE
  5
A8E3
330
18
100
AcDbEntity
  8
FERRO
100
AcDbLine
 10
930.3951386424749
 20
-1878.289796691695
 30
0.0
 11
929.3951386424749
 21
-1880.289796691696
 31
0.0
  0
LINE
  5
A8E4
330
18
100
AcDbEntity
  8
FERRO
100
AcDbLine
 10
927.8951386424749
 20
-1878.789796691696
 30
0.0
 11
930.3951386424749
 21
-1878.289796691695
 31
0.0
  0
LINE
  5
A8E5
330
18
100
AcDbEntity
  8
FERRO
100
AcDbLine
 10
920.6451386424749
 20
-1871.789796691696
 30
0.0
 11
920.6451386424749
 21
-1878.789796691696
 31
0.0
  0
LINE
  5
A8E6
330
18
100
AcDbEntity
  8
FERRO
100
AcDbLine
 10
901.3951386424748
 20
-1898.789796691696
 30
0.0
 11
901.3951386424748
 21
-1880.289796691696
 31
0.0
  0
LWPOLYLINE
  5
A8E7
330
18
100
AcDbEntity
  8
FERRO
100
AcDbPolyline
 90
        3
 70
     0
 43
0.0
 10
901.3951386424748
 20
-1898.789796691696
 10
901.3951386424748
 20
-1906.032437378815
 10
909.3344784706951
 20
-1911.850456863475
  0
LWPOLYLINE
  5
A8E8
330
18
100
AcDbEntity
  8
FERRO
100
AcDbPolyline
 90
        3
 70
     0
 43
0.0
 10
904.3951386424749
 20
-1898.789796691696
 10
904.3951386424749
 20
-1904.789796691696
 10
909.8648085565848
 20
-1911.320126777585
  0
LINE
  5
A8E9
330
18
100
AcDbEntity
  8
FERRO
100
AcDbLine
 10
909.8648085565848
 20
-1911.320126777585
 30
0.0
 11
909.3344784706951
 21
-1911.850456863475
 31
0.0
  0
LINE
  5
A8EA
330
18
100
AcDbEntity
  8
FERRO
100
AcDbLine
 10
907.6451386424748
 20
-1872.289796691696
 30
0.0
 11
910.1451386424749
 21
-1871.789796691696
 31
0.0
  0
LINE
  5
A8EB
330
18
100
AcDbEntity
  8
FERRO
100
AcDbLine
 10
912.8951386424748
 20
-1869.522354831231
 30
0.0
 11
907.6451386424748
 21
-1872.289796691696
 31
0.0
  0
LINE
  5
A8EC
330
18
100
AcDbEntity
  8
FERRO
100
AcDbLine
 10
902.8951386424749
 20
-1878.789796691696
 30
0.0
 11
910.1451386424749
 21
-1878.789796691696
 31
0.0
  0
ARC
  5
A8ED
330
18
100
AcDbEntity
  8
FERRO
100
AcDbCircle
 10
915.3951386424752
 20
-1857.936015230901
 30
0.0
 40
11.85298550299351
100
AcDbArc
 50
257.8238847372289
 51
282.1761152627706
  0
LINE
  5
A8EE
330
18
100
AcDbEntity
  8
FERRO
100
AcDbLine
 10
913.1451386424748
 20
-1872.789796691696
 30
0.0
 11
917.6451386424748
 21
-1872.789796691696
 31
0.0
  0
ARC
  5
A8EF
330
18
100
AcDbEntity
  8
FERRO
100
AcDbCircle
 10
915.3951386424751
 20
-1876.258546691695
 30
0.0
 40
3.03125000000001
100
AcDbArc
 50
222.0750220508379
 51
317.9249779491621
  0
LINE
  5
A8F0
330
18
100
AcDbEntity
  8
FERRO
100
AcDbLine
 10
917.6451386424748
 20
-1878.289796691696
 30
0.0
 11
917.6451386424748
 21
-1872.789796691696
 31
0.0
  0
LINE
  5
A8F1
330
18
100
AcDbEntity
  8
FERRO
100
AcDbLine
 10
913.1451386424748
 20
-1878.289796691696
 30
0.0
 11
913.1451386424748
 21
-1872.789796691696
 31
0.0
  0
LINE
  5
A8F2
330
18
100
AcDbEntity
  8
FERRO
100
AcDbLine
 10
910.1451386424749
 20
-1878.789796691696
 30
0.0
 11
910.1451386424749
 21
-1871.789796691696
 31
0.0
  0
LINE
  5
A8F3
330
18
100
AcDbEntity
  8
FERRO
100
AcDbLine
 10
902.8951386424749
 20
-1878.789796691696
 30
0.0
 11
900.3951386424748
 21
-1878.289796691696
 31
0.0
  0
LINE
  5
A8F4
330
18
100
AcDbEntity
  8
FERRO
100
AcDbLine
 10
900.3951386424748
 20
-1878.289796691696
 30
0.0
 11
901.3951386424748
 21
-1880.289796691696
 31
0.0
  0
HATCH
  5
A9E2
330
18
100
AcDbEntity
  8
AREA166
 62
   250
100
AcDbHatch
 10
0.0
 20
0.0
 30
0.0
210
0.0
220
0.0
230
1.0
  2
SOLID
 70
     1
 71
     0
 91
        2
 92
        7
 72
     0
 73
     1
 93
        4
 10
848.5889833892557
 20
-1634.209735674822
 10
798.2013864900309
 20
-1634.209735674822
 10
798.2013864900309
 20
-1684.597332574047
 10
848.5889833892557
 20
-1684.597332574047
 97
        0
 92
       22
 72
     0
 73
     1
 93
        4
 10
800.2168903659997
 20
-1636.225239550791
 10
846.573479513287
 20
-1636.225239550792
 10
846.5734795132867
 20
-1682.581828698078
 10
800.2168903659999
 20
-1682.581828698078
 97
        0
 75
     0
 76
     1
 47
0.4626583194212935
 98
        2
 10
799.5936148328196
 20
-1667.688117154307
 10
799.5936148328196
 20
-1667.688117154307
  0
HATCH
  5
AA01
330
18
100
AcDbEntity
  8
AREA166
 62
   250
100
AcDbHatch
 10
0.0
 20
0.0
 30
0.0
210
0.0
220
0.0
230
1.0
  2
SOLID
 70
     1
 71
     0
 91
        2
 92
        7
 72
     0
 73
     1
 93
        4
 10
848.5889833892555
 20
-1819.537595186435
 10
798.2013864900309
 20
-1819.537595186435
 10
798.2013864900308
 20
-1869.925192085659
 10
848.5889833892555
 20
-1869.925192085659
 97
        0
 92
       22
 72
     0
 73
     1
 93
        4
 10
800.2168903659997
 20
-1821.553099062404
 10
846.5734795132867
 20
-1821.553099062403
 10
846.573479513287
 20
-1867.909688209691
 10
800.2168903659999
 20
-1867.909688209691
 97
        0
 75
     0
 76
     1
 47
0.3426058585364969
 98
        2
 10
799.0192578561054
 20
-1848.848560094047
 10
799.0192578561054
 20
-1848.848560094047
  0
HATCH
  5
AA20
330
18
100
AcDbEntity
  8
AREA166
 62
   250
100
AcDbHatch
 10
0.0
 20
0.0
 30
0.0
210
0.0
220
0.0
230
1.0
  2
SOLID
 70
     1
 71
     0
 91
        2
 92
        7
 72
     0
 73
     1
 93
        4
 10
940.5889370920876
 20
-1817.830229883594
 10
890.2013401928627
 20
-1817.830229883594
 10
890.2013401928625
 20
-1868.21227731185
 10
940.5889370920872
 20
-1868.21227731185
 97
        0
 92
       22
 72
     0
 73
     1
 93
        4
 10
892.2168440688315
 20
-1819.840184288595
 10
938.5734332161183
 20
-1819.840184288595
 10
938.5734332161186
 20
-1866.196773435881
 10
892.2168440688317
 20
-1866.196773435882
 97
        0
 75
     0
 76
     1
 47
0.3426058585364969
 98
        2
 10
891.60033944631
 20
-1854.672859406542
 10
891.60033944631
 20
-1854.672859406542
  0
HATCH
  5
AA43
330
18
100
AcDbEntity
  8
AREA166
 62
   250
100
AcDbHatch
 10
0.0
 20
0.0
 30
0.0
210
0.0
220
0.0
230
1.0
  2
SOLID
 70
     1
 71
     0
 91
        2
 92
        7
 72
     0
 73
     1
 93
        4
 10
940.5889370920874
 20
-1632.496820901013
 10
890.2013401928627
 20
-1632.496820901013
 10
890.2013401928627
 20
-1682.878868329271
 10
940.5889370920874
 20
-1682.878868329271
 97
        0
 92
       22
 72
     0
 73
     1
 93
        4
 10
892.2168440688317
 20
-1634.512324776982
 10
938.5734332161186
 20
-1634.512324776982
 10
938.5734332161183
 20
-1680.731431770821
 10
892.2168440688313
 20
-1680.731431770821
 97
        0
 75
     0
 76
     1
 47
0.2932133146534028
 98
        2
 10
891.1185179844297
 20
-1645.796217217231
 10
891.1185179844297
 20
-1645.796217217231
  0
LINE
  5
AA54
330
18
100
AcDbEntity
  8
FERRO
 62
   250
100
AcDbLine
 10
686.6844931849422
 20
-1511.5871586272
 30
0.0
 11
752.6844931849423
 21
-1511.5871586272
 31
0.0
  0
LINE
  5
AA55
330
18
100
AcDbEntity
  8
FERRO
 62
   250
100
AcDbLine
 10
752.6844931849423
 20
-1511.5871586272
 30
0.0
 11
752.6844931849423
 21
-1577.587158627199
 31
0.0
  0
LINE
  5
AA56
330
18
100
AcDbEntity
  8
FERRO
 62
   250
100
AcDbLine
 10
752.6844931849423
 20
-1577.587158627199
 30
0.0
 11
686.6844931849422
 21
-1577.587158627199
 31
0.0
  0
LINE
  5
AA57
330
18
100
AcDbEntity
  8
FERRO
 62
   250
100
AcDbLine
 10
686.6844931849422
 20
-1577.587158627199
 30
0.0
 11
686.6844931849422
 21
-1511.5871586272
 31
0.0
  0
LINE
  5
AA58
330
18
100
AcDbEntity
  8
FERRO
 62
   250
100
AcDbLine
 10
684.6844931849423
 20
-1509.5871586272
 30
0.0
 11
754.6844931849423
 21
-1509.5871586272
 31
0.0
  0
LINE
  5
AA59
330
18
100
AcDbEntity
  8
FERRO
 62
   250
100
AcDbLine
 10
754.6844931849423
 20
-1509.5871586272
 30
0.0
 11
754.6844931849423
 21
-1579.587158627199
 31
0.0
  0
LINE
  5
AA5A
330
18
100
AcDbEntity
  8
FERRO
 62
   250
100
AcDbLine
 10
754.6844931849423
 20
-1579.587158627199
 30
0.0
 11
684.6844931849423
 21
-1579.587158627199
 31
0.0
  0
LINE
  5
AA5B
330
18
100
AcDbEntity
  8
FERRO
 62
   250
100
AcDbLine
 10
684.6844931849423
 20
-1579.587158627199
 30
0.0
 11
684.6844931849423
 21
-1509.5871586272
 31
0.0
  0
HATCH
  5
AA64
330
18
100
AcDbEntity
  8
AREA166
 62
   250
100
AcDbHatch
 10
0.0
 20
0.0
 30
0.0
210
0.0
220
0.0
230
1.0
  2
SOLID
 70
     1
 71
     0
 91
        2
 92
        7
 72
     0
 73
     1
 93
        4
 10
754.6844931849423
 20
-1509.5871586272
 10
684.6844931849422
 20
-1509.587158627199
 10
684.6844931849423
 20
-1579.587158627199
 10
754.6844931849421
 20
-1579.587158627199
 97
        0
 92
       22
 72
     0
 73
     1
 93
        4
 10
686.6844931849422
 20
-1511.5871586272
 10
752.6844931849423
 20
-1511.5871586272
 10
752.6844931849423
 20
-1577.587158627199
 10
686.6844931849422
 20
-1577.587158627199
 97
        0
 75
     0
 76
     1
 47
0.3651970449718584
 98
        2
 10
685.4520517916235
 20
-1538.03098474178
 10
685.4520517916235
 20
-1538.03098474178
  0
SPLINE
  5
AA8A
102
{ACAD_REACTORS
330
AA92
102
}
330
18
100
AcDbEntity
  8
FERRO
 62
   250
100
AcDbSpline
210
0.0
220
0.0
230
1.0
 70
  1064
 71
     3
 72
    14
 73
    10
 74
     8
 42
0.000000001
 43
0.0000000001
 44
0.0000000001
 40
0.0
 40
0.0
 40
0.0
 40
0.0
 40
0.841885679580551
 40
12.45413535531984
 40
27.15457310255352
 40
35.5907967385696
 40
44.29605862002392
 40
53.6922019811449
 40
54.53408766072588
 40
54.53408766072588
 40
54.53408766072588
 40
54.53408766072588
 10
981.3950923453067
 20
-1769.149998287209
 30
0.0
 10
981.6638120552616
 20
-1769.070993595156
 30
0.0
 10
985.6390211858997
 20
-1767.902265877858
 30
0.0
 10
994.3266726954274
 20
-1762.732193158983
 30
0.0
 10
1005.321227268155
 20
-1771.303036590981
 30
0.0
 10
1015.828022844045
 20
-1768.378163604837
 30
0.0
 10
1024.264062146016
 20
-1763.154533862183
 30
0.0
 10
1029.850747301186
 20
-1768.138295629882
 30
0.0
 10
1033.125782209672
 20
-1769.073126036772
 30
0.0
 10
1033.395092345307
 20
-1769.149998287209
 30
0.0
 11
981.3950923453067
 21
-1769.149998287209
 31
0.0
 11
982.2012938956941
 21
-1768.907489405648
 31
0.0
 11
993.3205515035959
 21
-1765.5598853698
 31
0.0
 11
1007.429947681854
 21
-1769.686362007954
 31
0.0
 11
1015.689103707589
 21
-1767.966998468892
 31
0.0
 11
1023.948259733323
 21
-1765.216012069929
 31
0.0
 11
1032.588890794919
 21
-1768.907489405648
 31
0.0
 11
1033.395092345307
 21
-1769.149998287209
 31
0.0
  0
LINE
  5
AA8B
330
18
100
AcDbEntity
  8
FERRO
 62
   250
100
AcDbLine
 10
984.2167977716629
 20
-1821.553099062403
 30
0.0
 11
984.2167977716629
 21
-1867.90968820969
 31
0.0
  0
LINE
  5
AA8C
330
18
100
AcDbEntity
  8
FERRO
 62
   250
100
AcDbLine
 10
1030.57338691895
 20
-1821.553099062403
 30
0.0
 11
1030.57338691895
 21
-1867.90968820969
 31
0.0
  0
LINE
  5
AA8D
330
18
100
AcDbEntity
  8
FERRO
 62
   250
100
AcDbLine
 10
981.3950923453065
 20
-1880.002711465504
 30
0.0
 11
981.3950923453065
 21
-1769.149998287209
 31
0.0
  0
LINE
  5
AA8E
102
{ACAD_REACTORS
330
AA92
102
}
330
18
100
AcDbEntity
  8
FERRO
 62
   250
100
AcDbLine
 10
982.2012938956939
 20
-1768.907489405676
 30
0.0
 11
982.2012938956941
 21
-1869.925192085659
 31
0.0
  0
LINE
  5
AA8F
102
{ACAD_REACTORS
330
AA92
102
}
330
18
100
AcDbEntity
  8
FERRO
 62
   250
100
AcDbLine
 10
1032.588890794919
 20
-1768.907489405648
 30
0.0
 11
1032.588890794919
 21
-1869.925192085659
 31
0.0
  0
LINE
  5
AA90
330
18
100
AcDbEntity
  8
FERRO
 62
   250
100
AcDbLine
 10
1033.395092345306
 20
-1769.14999828721
 30
0.0
 11
1033.395092345306
 21
-1880.002711465504
 31
0.0
  0
HATCH
  5
AA91
330
18
100
AcDbEntity
  8
AREA166
 62
   250
100
AcDbHatch
 10
0.0
 20
0.0
 30
0.0
210
0.0
220
0.0
230
1.0
  2
SOLID
 70
     1
 71
     0
 91
        2
 92
        7
 72
     0
 73
     1
 93
        4
 10
1032.588890794919
 20
-1869.925192085659
 10
982.2012938956941
 20
-1869.925192085659
 10
982.2012938956941
 20
-1819.543144657402
 10
1032.588890794919
 20
-1819.543144657402
 97
        0
 92
       22
 72
     0
 73
     1
 93
        4
 10
984.2167977716629
 20
-1867.909688209691
 10
1030.57338691895
 20
-1867.909688209691
 10
1030.573386918949
 20
-1821.690581215851
 10
984.2167977716629
 20
-1821.690581215851
 97
        0
 75
     0
 76
     1
 47
0.2932133146534028
 98
        2
 10
983.1184716872611
 20
-1856.625795769441
 10
983.1184716872611
 20
-1856.625795769441
  0
HATCH
  5
AA92
330
18
100
AcDbEntity
  8
AREA166
 62
   166
100
AcDbHatch
 10
0.0
 20
0.0
 30
0.0
210
0.0
220
0.0
230
1.0
  2
HONEY
 70
     0
 71
     1
 91
        1
 92
        5
 93
        4
 72
     4
 94
        3
 73
     0
 74
     0
 95
       12
 96
        8
 40
0.8418856795805425
 40
0.841885679580578
 40
0.841885679580578
 40
0.841885679580578
 40
10.23802904070152
 40
18.94329092215584
 40
27.37951455817192
 40
42.0799523054056
 40
53.69220198114489
 40
53.6922019811449
 40
53.6922019811449
 40
53.6922019811449
 10
1032.588890794919
 20
-1768.907489405648
 10
1029.602461496581
 20
-1767.916805199317
 10
1024.264062146016
 20
-1763.154533862183
 10
1015.828022844045
 20
-1768.378163604837
 10
1005.321227268155
 20
-1771.303036590981
 10
994.3266726954274
 20
-1762.732193158982
 10
985.908368428717
 20
-1767.741975743008
 10
982.2012938956941
 20
-1768.907489405648
 72
     1
 10
982.2012938956937
 20
-1768.907489405648
 11
982.2012938956941
 21
-1819.543144657402
 72
     1
 10
982.2012938956941
 20
-1819.543144657402
 11
1032.588890794919
 21
-1819.543144657403
 72
     1
 10
1032.588890794919
 20
-1819.543144657403
 11
1032.588890794919
 21
-1768.907489405648
 97
        4
330
AA93
330
AA8E
330
AA8A
330
AA8F
 75
     0
 76
     1
 52
0.0
 41
1.455999999999999
 77
     0
 78
     3
 53
0.0
 43
-29.98281467753715
 44
-3645.248697417429
 45
6.934199999999999
 46
-4.003461279999999
 79
     2
 49
4.622799999999999
 49
-9.245599999999999
 53
240.0
 43
-29.98281467753715
 44
-3645.248697417429
 45
-6.934199171547365
 46
-4.003462714922056
 79
     2
 49
4.622799999999991
 49
-9.245599999999983
 53
300.0
 43
-29.98281467753715
 44
-3645.248697417429
 45
0.0000008284526355
 46
-8.006923994922052
 79
     2
 49
-9.245599999999999
 49
4.622799999999999
 47
0.4674590473530481
 98
        1
 10
1008.754299700151
 20
-1787.661018709658
  0
LINE
  5
AA93
102
{ACAD_REACTORS
330
AA92
102
}
330
18
100
AcDbEntity
  8
FERRO
 62
   250
100
AcDbLine
 10
982.2012938956941
 20
-1819.543144657402
 30
0.0
 11
1032.588890794919
 21
-1819.543144657402
 31
0.0
  0
LINE
  5
AA94
330
18
100
AcDbEntity
  8
FERRO
 62
   250
100
AcDbLine
 10
984.2167977716629
 20
-1821.690581215851
 30
0.0
 11
1030.57338691895
 21
-1821.690581215851
 31
0.0
  0
SPLINE
  5
AAC1
330
18
100
AcDbEntity
  8
FERRO
 62
   250
100
AcDbSpline
210
0.0
220
0.0
230
1.0
 70
  1064
 71
     3
 72
    14
 73
    10
 74
     8
 42
0.000000001
 43
0.0000000001
 44
0.0000000001
 40
0.0
 40
0.0
 40
0.0
 40
0.0
 40
0.8418856795808784
 40
11.51000646978154
 40
23.11865280866604
 40
34.55748339710097
 40
45.5696948018113
 40
52.7098890510604
 40
53.55177473064149
 40
53.55177473064149
 40
53.55177473064149
 40
53.55177473064149
 10
981.3950923453067
 20
-1734.984929473271
 30
0.0
 10
981.6635937293407
 20
-1735.065142826029
 30
0.0
 10
985.3344634713163
 20
-1736.161795532686
 30
0.0
 10
992.9694879965008
 20
-1739.066116142948
 30
0.0
 10
1004.060831760408
 20
-1732.879708806231
 30
0.0
 10
1014.635973257155
 20
-1738.938971099222
 30
0.0
 10
1025.105327442222
 20
-1739.337256260433
 30
0.0
 10
1030.568282659261
 20
-1735.803239980236
 30
0.0
 10
1033.125389277639
 20
-1735.063003655315
 30
0.0
 10
1033.395092345307
 20
-1734.984929473271
 30
0.0
 11
981.3950923453067
 21
-1734.984929473271
 31
0.0
 11
982.2012938956941
 21
-1735.227438354832
 31
0.0
 11
992.6523051164936
 21
-1737.368738347135
 31
0.0
 11
1004.008645915777
 21
-1734.961625248042
 31
0.0
 11
1015.02085226489
 21
-1738.056484946875
 31
0.0
 11
1026.033063669601
 21
-1738.056484946875
 31
0.0
 11
1032.588890794919
 21
-1735.227438354832
 31
0.0
 11
1033.395092345307
 21
-1734.984929473271
 31
0.0
  0
LINE
  5
AAC2
330
18
100
AcDbEntity
  8
FERRO
 62
   250
100
AcDbLine
 10
959.0632735261959
 20
-1641.116681164191
 30
0.0
 11
944.9547463944131
 21
-1641.116681164191
 31
0.0
  0
LINE
  5
AAC3
330
18
100
AcDbEntity
  8
FERRO
 62
   250
100
AcDbLine
 10
959.0632735261959
 20
-1654.721332326982
 30
0.0
 11
944.9547463944131
 21
-1654.721332326982
 31
0.0
  0
ARC
  5
AAC4
330
18
100
AcDbEntity
  8
FERRO
 62
   250
100
AcDbCircle
 10
943.9469944564287
 20
-1657.690619350625
 30
0.0
 40
15.11627906976745
100
AcDbArc
 50
270.0000000000001
 51
0.0
  0
CIRCLE
  5
AAC5
330
18
100
AcDbEntity
  8
FERRO
 62
   250
100
AcDbCircle
 10
961.2361776166244
 20
-1599.238274599808
 30
0.0
 40
11.58914728682171
  0
ARC
  5
AAC6
330
18
100
AcDbEntity
  8
FERRO
 62
   250
100
AcDbCircle
 10
961.2361776166244
 20
-1599.238274599808
 30
0.0
 40
17.63565891472869
100
AcDbArc
 50
21.02362631270981
 51
234.6234598480584
  0
LINE
  5
AAC7
330
18
100
AcDbEntity
  8
FERRO
 62
   250
100
AcDbLine
 10
951.0012580223202
 20
-1617.380541831245
 30
0.0
 11
930.8462192626301
 21
-1617.380541831245
 31
0.0
  0
HATCH
  5
AAC8
330
18
100
AcDbEntity
  8
AREA166
 62
   166
100
AcDbHatch
 10
0.0
 20
0.0
 30
0.0
210
0.0
220
0.0
230
1.0
  2
DOTS
 70
     0
 71
     0
 91
        6
 92
        7
 72
     1
 73
     1
 93
       11
 10
982.0450923453066
 20
-1623.928197080428
 42
0.0
 10
982.0450923453066
 20
-1644.112622974722
 42
0.0
 10
978.0140845933685
 20
-1644.112622974722
 42
0.0
 10
978.0140845933685
 20
-1642.600995067746
 42
0.0
 10
963.9055574615861
 20
-1642.600995067745
 42
0.0
 10
963.9055574615856
 20
-1638.268339329028
 42
0.2429577986666143
 10
951.1760592975708
 20
-1613.617772131626
 42
-1.346499099032977
 10
977.8478760695358
 20
-1592.911431042231
 42
0.0
 10
978.6394145865253
 20
-1594.97092062214
 42
0.1427525949938915
 10
992.1226117251515
 20
-1618.889437390506
 42
0.0
 10
992.1226117251515
 20
-1623.928197080428
 42
0.0
 97
        0
 92
       22
 72
     1
 73
     1
 93
        2
 10
972.9753249034461
 20
-1599.238274599808
 42
1.0
 10
949.7970303298027
 20
-1599.238274599808
 42
1.0
 97
        0
 92
        6
 72
     1
 73
     1
 93
        2
 10
971.4636969964692
 20
-1599.238274599808
 42
1.0
 10
951.3086582367794
 20
-1599.238274599808
 42
1.0
 97
        0
 92
        7
 72
     1
 73
     1
 93
        7
 10
982.0450923453066
 20
-1674.315793979653
 42
0.0
 10
979.0218365313519
 20
-1674.315793979653
 42
-0.4142135623730709
 10
963.9055574615856
 20
-1659.199514909885
 42
0.0
 10
963.9055574615856
 20
-1656.205646230536
 42
0.0
 10
978.0140845933685
 20
-1656.205646230536
 42
0.0
 10
978.0140845933685
 20
-1654.694018323559
 42
0.0
 10
982.0450923453066
 20
-1654.694018323559
 42
0.0
 97
        0
 92
        7
 72
     1
 73
     1
 93
        7
 10
944.0969944564287
 20
-1672.806898420393
 42
0.0
 10
941.073738642475
 20
-1672.806898420393
 42
0.0
 10
941.0737386424749
 20
-1653.209704420006
 42
0.0
 10
945.1047463944133
 20
-1653.209704420006
 42
0.0
 10
945.104746394413
 20
-1654.721332326982
 42
0.0
 10
959.2132735261959
 20
-1654.721332326982
 42
0.0
 10
959.2132735261959
 20
-1657.690619350626
 42
-0.4142135623730837
 97
        0
 92
        7
 72
     1
 73
     1
 93
       10
 10
941.073738642475
 20
-1622.419301521168
 42
0.0
 10
930.9962192626301
 20
-1622.419301521168
 42
0.0
 10
930.9962192626301
 20
-1617.380541831245
 42
0.0
 10
951.15125802232
 20
-1617.380541831245
 42
-0.4142135623730911
 10
959.2132735261959
 20
-1625.442557335121
 42
0.0
 10
959.2132735261959
 20
-1638.774947645738
 42
0.0
 10
959.2132735261959
 20
-1641.116681164191
 42
0.0
 10
945.104746394413
 20
-1641.116681164191
 42
0.0
 10
945.104746394413
 20
-1642.628309071168
 42
0.0
 10
941.073738642475
 20
-1642.628309071168
 42
0.0
 97
        0
 75
     0
 76
     1
 52
0.0
 41
2.08
 77
     0
 78
     1
 53
0.0
 43
-27.79432778362993
 44
-3646.811623036921
 45
1.650999999999999
 46
-3.302
 79
     2
 49
0.0
 49
-3.302
 47
0.8037546124443833
 98
        6
 10
982.8516406265286
 20
-1621.927485437543
 10
982.8516406265286
 20
-1621.927485437543
 10
982.8516406265286
 20
-1621.927485437543
 10
975.181213993985
 20
-1663.07463167549
 10
952.9773568238503
 20
-1661.86442157087
 10
947.3254664072776
 20
-1631.609166274503
  0
DIMENSION
  5
AAC9
330
18
100
AcDbEntity
  8
QUOTE
100
AcDbDimension
  2
*D6
 10
981.3950923453061
 20
-1757.996919311649
 30
0.0
 11
963.8234331103005
 21
-1757.996919311649
 31
0.0
 70
   160
  1
40
 71
     5
 42
39.99995370283091
  3
STANDARD_WS
100
AcDbAlignedDimension
 13
941.3951386424754
 23
-1767.437083513401
 33
0.0
 14
981.3950923453061
 24
-1777.424007701732
 34
0.0
100
AcDbRotatedDimension
1001
ACAD
1000
DSTYLE
1002
{
1070
    40
1040
3.0
1070
    41
1040
1.0
1070
    42
1040
1.5
1070
    43
1040
10.0
1070
    44
1040
0.0
1070
    79
1070
     2
1070
   141
1040
2.0
1070
   147
1040
1.0
1070
   176
1070
   256
1070
   177
1070
   256
1070
   178
1070
   256
1070
   179
1070
     1
1070
   271
1070
     1
1070
   272
1070
     1
1070
   341
1005
A96C
1070
   342
1005
A96C
1002
}
  0
LINE
  5
AACA
330
18
100
AcDbEntity
  8
FERRO
 62
   250
100
AcDbLine
 10
930.8462192626301
 20
-1617.380541831245
 30
0.0
 11
943.3574881276866
 21
-1600.462290815418
 31
0.0
  0
LINE
  5
AACB
330
18
100
AcDbEntity
  8
FERRO
 62
   250
100
AcDbLine
 10
944.3294164012566
 20
-1604.012236894185
 30
0.0
 11
945.1209549182454
 21
-1606.071726474093
 31
0.0
  0
LINE
  5
AACD
330
18
100
AcDbEntity
  8
FERRO
 62
   250
100
AcDbLine
 10
944.9547463944131
 20
-1642.628309071168
 30
0.0
 11
944.9547463944131
 21
-1641.116681164191
 31
0.0
  0
LINE
  5
AACE
330
18
100
AcDbEntity
  8
FERRO
 62
   250
100
AcDbLine
 10
944.9547463944131
 20
-1654.721332326982
 30
0.0
 11
944.9547463944131
 21
-1653.209704420006
 31
0.0
  0
LINE
  5
AACF
330
18
100
AcDbEntity
  8
FERRO
 62
   250
100
AcDbLine
 10
943.9469944564287
 20
-1672.806898420393
 30
0.0
 11
941.395138642475
 21
-1672.806898420393
 31
0.0
  0
LINE
  5
AAD0
330
18
100
AcDbEntity
  8
FERRO
 62
   250
100
AcDbLine
 10
944.9547463944131
 20
-1642.628309071168
 30
0.0
 11
941.395138642475
 21
-1642.628309071168
 31
0.0
  0
LINE
  5
AAD1
330
18
100
AcDbEntity
  8
FERRO
 62
   250
100
AcDbLine
 10
944.9547463944131
 20
-1653.209704420006
 30
0.0
 11
941.395138642475
 21
-1653.209704420006
 31
0.0
  0
LINE
  5
AAD2
330
18
100
AcDbEntity
  8
FERRO
 62
   250
100
AcDbLine
 10
1033.395092345307
 20
-1734.984929473271
 30
0.0
 11
1033.395092345307
 21
-1624.132216294977
 31
0.0
  0
LINE
  5
AAD3
330
18
100
AcDbEntity
  8
FERRO
 62
   250
100
AcDbLine
 10
1032.588890794919
 20
-1735.227438354833
 30
0.0
 11
1032.588890794919
 21
-1634.209735674822
 31
0.0
  0
LINE
  5
AAD4
330
18
100
AcDbEntity
  8
FERRO
 62
   250
100
AcDbLine
 10
982.2012938956939
 20
-1735.227438354833
 30
0.0
 11
982.2012938956941
 21
-1634.209735674822
 31
0.0
  0
LINE
  5
AAD5
330
18
100
AcDbEntity
  8
FERRO
 62
   250
100
AcDbLine
 10
981.3950923453065
 20
-1624.132216294977
 30
0.0
 11
981.3950923453065
 21
-1734.984929473271
 31
0.0
  0
LINE
  5
AAD6
330
18
100
AcDbEntity
  8
FERRO
 62
   250
100
AcDbLine
 10
981.3950923453065
 20
-1624.132216294977
 30
0.0
 11
981.3950923453065
 21
-1672.752868360161
 31
0.0
  0
HATCH
  5
AAD7
330
18
100
AcDbEntity
  8
AREA166
 62
   250
100
AcDbHatch
 10
0.0
 20
0.0
 30
0.0
210
0.0
220
0.0
230
1.0
  2
SOLID
 70
     1
 71
     0
 91
        2
 92
        7
 72
     0
 73
     1
 93
        4
 10
1032.588890794919
 20
-1684.591783103078
 10
982.2012938956941
 20
-1684.591783103078
 10
982.2012938956939
 20
-1634.209735674822
 10
1032.588890794919
 20
-1634.209735674822
 97
        0
 92
       22
 72
     0
 73
     1
 93
        4
 10
984.2167977716629
 20
-1682.581828698078
 10
1030.573386918949
 20
-1682.581828698077
 10
1030.57338691895
 20
-1636.225239550791
 10
984.2167977716629
 20
-1636.22523955079
 97
        0
 75
     0
 76
     1
 47
0.3426058585364969
 98
        2
 10
983.6002931491414
 20
-1647.74915358013
 10
983.6002931491414
 20
-1647.74915358013
  0
ARC
  5
AAD8
330
18
100
AcDbEntity
  8
FERRO
 62
   250
100
AcDbCircle
 10
933.5229993220508
 20
-1638.26833932903
 30
0.0
 40
30.23255813953491
100
AcDbArc
 50
0.0
 51
54.6234598480584
  0
LINE
  5
AAD9
330
18
100
AcDbEntity
  8
FERRO
 62
   250
100
AcDbLine
 10
959.0632735261959
 20
-1625.442557335121
 30
0.0
 11
959.0632735261959
 21
-1638.774947645738
 31
0.0
  0
ARC
  5
AADA
330
18
100
AcDbEntity
  8
FERRO
 62
   250
100
AcDbCircle
 10
989.2958316657306
 20
-1638.774947645738
 30
0.0
 40
30.23255813953491
100
AcDbArc
 50
156.7642559000991
 51
180.0
  0
LINE
  5
AADB
330
18
100
AcDbEntity
  8
FERRO
 62
   250
100
AcDbLine
 10
999.9546647100512
 20
-1624.938417845364
 30
0.0
 11
994.0884876394678
 21
-1632.899658155442
 31
0.0
  0
LINE
  5
AADC
330
18
100
AcDbEntity
  8
FERRO
 62
   250
100
AcDbLine
 10
1001.550131104996
 20
-1624.132216294977
 30
0.0
 11
995.089910786759
 21
-1632.899658155442
 31
0.0
  0
LINE
  5
AADD
330
18
100
AcDbEntity
  8
FERRO
 62
   250
100
AcDbLine
 10
981.3950923453065
 20
-1624.132216294977
 30
0.0
 11
1001.550131104996
 21
-1624.132216294977
 31
0.0
  0
LINE
  5
AADE
330
18
100
AcDbEntity
  8
FERRO
 62
   250
100
AcDbLine
 10
982.2012938956943
 20
-1624.938417845364
 30
0.0
 11
999.9546647100512
 21
-1624.938417845364
 31
0.0
  0
LINE
  5
AADF
330
18
100
AcDbEntity
  8
FERRO
 62
   250
100
AcDbLine
 10
995.089910786759
 20
-1632.899658155442
 30
0.0
 11
994.0884876394678
 21
-1632.899658155442
 31
0.0
  0
LWPOLYLINE
  5
AAE1
330
18
100
AcDbEntity
  8
FERRO
100
AcDbPolyline
 90
        4
 70
     1
 43
0.0
 10
1018.395092345306
 20
-1620.632216294977
 10
1018.395092345306
 20
-1606.632216294977
 10
996.3950923453062
 20
-1606.632216294977
 10
996.3950923453062
 20
-1620.632216294977
  0
LINE
  5
AAE2
330
18
100
AcDbEntity
  8
FERRO
100
AcDbLine
 10
1019.395092345306
 20
-1603.632216294977
 30
0.0
 11
996.3950923453062
 21
-1603.632216294977
 31
0.0
  0
LINE
  5
AAE3
330
18
100
AcDbEntity
  8
FERRO
100
AcDbLine
 10
1019.895092345306
 20
-1623.632216294977
 30
0.0
 11
1012.645092345306
 21
-1623.632216294977
 31
0.0
  0
LINE
  5
AAE4
330
18
100
AcDbEntity
  8
FERRO
 62
   250
100
AcDbLine
 10
982.2012938956941
 20
-1634.209735674822
 30
0.0
 11
1032.588890794919
 21
-1634.209735674822
 31
0.0
  0
HATCH
  5
AAE5
330
18
100
AcDbEntity
  8
AREA166
 62
   250
100
AcDbHatch
 10
0.0
 20
0.0
 30
0.0
210
0.0
220
0.0
230
1.0
  2
SOLID
 70
     1
 71
     1
 91
        1
 92
        7
 72
     1
 73
     1
 93
        2
 10
951.1586582367796
 20
-1599.238274599808
 42
1.0
 10
971.3136969964693
 20
-1599.238274599808
 42
1.0
 97
        1
330
AAE6
 75
     0
 76
     1
 47
0.6043986274836677
 98
        1
 10
960.0112129989865
 20
-1598.342437837211
  0
CIRCLE
  5
AAE6
102
{ACAD_REACTORS
330
AAE5
102
}
330
18
100
AcDbEntity
  8
FERRO
 62
   250
100
AcDbCircle
 10
961.2361776166244
 20
-1599.238274599808
 30
0.0
 40
10.07751937984497
  0
ARC
  5
AAE7
330
18
100
AcDbEntity
  8
FERRO
 62
   250
100
AcDbCircle
 10
951.0012580223202
 20
-1625.442557335121
 30
0.0
 40
8.062015503875974
100
AcDbArc
 50
0.0
 51
90.00000000000003
  0
ARC
  5
AAE8
330
18
100
AcDbEntity
  8
FERRO
 62
   250
100
AcDbCircle
 10
1026.265465066018
 20
-1583.798493628901
 30
0.0
 40
49.06499897420025
100
AcDbArc
 50
193.1620906810336
 51
225.6590183608651
  0
LINE
  5
AAE9
330
18
100
AcDbEntity
  8
FERRO
 62
   250
100
AcDbLine
 10
982.2012938956941
 20
-1634.209735674822
 30
0.0
 11
982.2012938956943
 21
-1624.938417845364
 31
0.0
  0
LINE
  5
AAEA
330
18
100
AcDbEntity
  8
FERRO
 62
   250
100
AcDbLine
 10
977.6978760695362
 20
-1592.911431042232
 30
0.0
 11
978.4894145865253
 21
-1594.97092062214
 31
0.0
  0
LINE
  5
AAEB
330
18
100
AcDbEntity
  8
FERRO
 62
   250
100
AcDbLine
 10
991.9726117251515
 20
-1618.889437390506
 30
0.0
 11
991.9726117251515
 21
-1624.132216294977
 31
0.0
  0
LINE
  5
AAEC
330
18
100
AcDbEntity
  8
FERRO
100
AcDbLine
 10
1021.395092345306
 20
-1622.132216294977
 30
0.0
 11
1021.395092345306
 21
-1603.632216294977
 31
0.0
  0
LINE
  5
AAED
330
18
100
AcDbEntity
  8
FERRO
100
AcDbLine
 10
1019.395092345306
 20
-1603.632216294977
 30
0.0
 11
1021.395092345306
 21
-1598.632216294977
 31
0.0
  0
LINE
  5
AAEE
330
18
100
AcDbEntity
  8
FERRO
100
AcDbLine
 10
1021.395092345306
 20
-1603.632216294977
 30
0.0
 11
1021.395092345306
 21
-1598.632216294977
 31
0.0
  0
LINE
  5
AAEF
330
18
100
AcDbEntity
  8
FERRO
100
AcDbLine
 10
1022.395092345306
 20
-1624.132216294977
 30
0.0
 11
1021.395092345306
 21
-1622.132216294977
 31
0.0
  0
LINE
  5
AAF0
330
18
100
AcDbEntity
  8
FERRO
100
AcDbLine
 10
1019.895092345306
 20
-1623.632216294977
 30
0.0
 11
1022.395092345306
 21
-1624.132216294977
 31
0.0
  0
LINE
  5
AAF1
330
18
100
AcDbEntity
  8
FERRO
 62
   250
100
AcDbLine
 10
1014.835519980562
 20
-1624.938417845364
 30
0.0
 11
1020.701697051145
 21
-1632.899658155442
 31
0.0
  0
LWPOLYLINE
  5
AAF2
330
18
100
AcDbEntity
  8
FERRO
100
AcDbPolyline
 90
        3
 70
     0
 43
0.0
 10
993.3950923453062
 20
-1603.632216294977
 10
993.3950923453062
 20
-1596.389575607857
 10
1001.334432173526
 20
-1590.571556123197
  0
LINE
  5
AAF3
330
18
100
AcDbEntity
  8
FERRO
 62
   250
100
AcDbLine
 10
1019.700273903854
 20
-1632.899658155442
 30
0.0
 11
1020.701697051145
 21
-1632.899658155442
 31
0.0
  0
LINE
  5
AAF5
330
18
100
AcDbEntity
  8
FERRO
 62
   250
100
AcDbLine
 10
1013.240053585616
 20
-1624.132216294977
 30
0.0
 11
1019.700273903854
 21
-1632.899658155442
 31
0.0
  0
LINE
  5
AAF6
330
18
100
AcDbEntity
  8
FERRO
100
AcDbLine
 10
994.8950923453063
 20
-1623.632216294977
 30
0.0
 11
1002.145092345306
 21
-1623.632216294977
 31
0.0
  0
LINE
  5
AAF7
330
18
100
AcDbEntity
  8
FERRO
 62
   250
100
AcDbLine
 10
1013.240053585616
 20
-1624.132216294977
 30
0.0
 11
1033.395092345307
 21
-1624.132216294977
 31
0.0
  0
LINE
  5
AAF8
330
18
100
AcDbEntity
  8
FERRO
 62
   250
100
AcDbLine
 10
1014.835519980562
 20
-1624.938417845364
 30
0.0
 11
1032.588890794919
 21
-1624.938417845364
 31
0.0
  0
ARC
  5
AAF9
330
18
100
AcDbEntity
  8
FERRO
100
AcDbCircle
 10
1007.395092345306
 20
-1644.485997755771
 30
0.0
 40
11.85298550299351
100
AcDbArc
 50
77.82388473722942
 51
102.1761152627711
  0
LINE
  5
AAFA
330
18
100
AcDbEntity
  8
FERRO
100
AcDbLine
 10
1005.145092345306
 20
-1629.632216294977
 30
0.0
 11
1009.645092345306
 21
-1629.632216294977
 31
0.0
  0
ARC
  5
AAFB
330
18
100
AcDbEntity
  8
FERRO
100
AcDbCircle
 10
1007.395092345306
 20
-1626.163466294977
 30
0.0
 40
3.03125000000001
100
AcDbArc
 50
42.0750220508379
 51
137.9249779491621
  0
LINE
  5
AAFD
330
18
100
AcDbEntity
  8
FERRO
100
AcDbLine
 10
1012.645092345306
 20
-1630.632216294977
 30
0.0
 11
1012.645092345306
 21
-1623.632216294977
 31
0.0
  0
LINE
  5
AAFE
330
18
100
AcDbEntity
  8
FERRO
100
AcDbLine
 10
1009.645092345306
 20
-1624.132216294977
 30
0.0
 11
1009.645092345306
 21
-1629.632216294977
 31
0.0
  0
LINE
  5
AAFF
330
18
100
AcDbEntity
  8
FERRO
100
AcDbLine
 10
1009.895092345307
 20
-1632.899658155442
 30
0.0
 11
1015.145092345306
 21
-1630.132216294977
 31
0.0
  0
LINE
  5
AB00
330
18
100
AcDbEntity
  8
FERRO
100
AcDbLine
 10
1015.145092345306
 20
-1630.132216294977
 30
0.0
 11
1012.645092345306
 21
-1630.632216294977
 31
0.0
  0
LINE
  5
AB02
330
18
100
AcDbEntity
  8
FERRO
100
AcDbLine
 10
1005.145092345306
 20
-1624.132216294977
 30
0.0
 11
1005.145092345306
 21
-1629.632216294977
 31
0.0
  0
LINE
  5
AB03
330
18
100
AcDbEntity
  8
FERRO
100
AcDbLine
 10
1002.145092345306
 20
-1623.632216294977
 30
0.0
 11
1002.145092345306
 21
-1630.632216294977
 31
0.0
  0
LWPOLYLINE
  5
AB04
330
18
100
AcDbEntity
  8
FERRO
100
AcDbPolyline
 90
        3
 70
     0
 43
0.0
 10
996.3950923453062
 20
-1603.632216294977
 10
996.3950923453062
 20
-1597.632216294977
 10
1001.864762259416
 20
-1591.101886209087
  0
LINE
  5
AB05
330
18
100
AcDbEntity
  8
FERRO
100
AcDbLine
 10
1001.864762259416
 20
-1591.101886209087
 30
0.0
 11
1001.334432173526
 21
-1590.571556123197
 31
0.0
  0
LINE
  5
AB06
330
18
100
AcDbEntity
  8
FERRO
100
AcDbLine
 10
999.6450923453062
 20
-1630.132216294977
 30
0.0
 11
1002.145092345306
 21
-1630.632216294977
 31
0.0
  0
LINE
  5
AB07
330
18
100
AcDbEntity
  8
FERRO
100
AcDbLine
 10
1004.895092345306
 20
-1632.899658155442
 30
0.0
 11
999.6450923453062
 21
-1630.132216294977
 31
0.0
  0
LINE
  5
AB08
330
18
100
AcDbEntity
  8
FERRO
100
AcDbLine
 10
993.3950923453062
 20
-1603.632216294977
 30
0.0
 11
993.3950923453062
 21
-1622.132216294977
 31
0.0
  0
LINE
  5
AB09
330
18
100
AcDbEntity
  8
FERRO
100
AcDbLine
 10
994.8950923453063
 20
-1623.632216294977
 30
0.0
 11
992.3950923453062
 21
-1624.132216294977
 31
0.0
  0
LINE
  5
AB0A
330
18
100
AcDbEntity
  8
FERRO
100
AcDbLine
 10
992.3950923453062
 20
-1624.132216294977
 30
0.0
 11
993.3950923453062
 21
-1622.132216294977
 31
0.0
  0
LINE
  5
AB0B
330
18
100
AcDbEntity
  8
FERRO
 62
   250
100
AcDbLine
 10
1032.588890794919
 20
-1634.209735674822
 30
0.0
 11
1032.588890794919
 21
-1624.938417845364
 31
0.0
  0
HATCH
  5
AB0C
330
18
100
AcDbEntity
  8
AREA166
 62
   166
100
AcDbHatch
 10
0.0
 20
0.0
 30
0.0
210
0.0
220
0.0
230
1.0
  2
HONEY
 70
     0
 71
     0
 91
        1
 92
        5
 93
        4
 72
     4
 94
        3
 73
     0
 74
     0
 95
       12
 96
        8
 40
0.8418856795805648
 40
0.8418856795805648
 40
0.8418856795805648
 40
0.8418856795808784
 40
11.51000646978154
 40
23.11865280866604
 40
34.55748339710097
 40
45.5696948018113
 40
52.70988905106024
 40
52.70988905106024
 40
52.70988905106024
 40
52.7098890510604
 10
982.2012938956939
 20
-1735.227438354832
 10
985.612499473855
 20
-1736.267558872397
 10
992.9694879965005
 20
-1739.066116142948
 10
1004.060831760408
 20
-1732.879708806231
 10
1014.635973257155
 20
-1738.938971099222
 10
1025.105327442222
 20
-1739.337256260432
 10
1030.326147604857
 20
-1735.959878501015
 10
1032.588890794919
 20
-1735.227438354833
 72
     1
 10
1032.588890794919
 20
-1735.227438354833
 11
1032.588890794919
 21
-1684.591783103079
 72
     1
 10
1032.588890794919
 20
-1684.591783103079
 11
982.2012938956939
 21
-1684.591783103079
 72
     1
 10
982.2012938956939
 20
-1684.591783103079
 11
982.2012938956939
 21
-1735.227438354832
 97
        0
 75
     0
 76
     1
 52
0.0
 41
1.455999999999999
 77
     0
 78
     3
 53
0.0
 43
-29.98281467753715
 44
-3645.248697417429
 45
6.934199999999999
 46
-4.003461279999999
 79
     2
 49
4.622799999999999
 49
-9.245599999999999
 53
240.0
 43
-29.98281467753715
 44
-3645.248697417429
 45
-6.934199171547365
 46
-4.003462714922056
 79
     2
 49
4.622799999999991
 49
-9.245599999999983
 53
300.0
 43
-29.98281467753715
 44
-3645.248697417429
 45
0.0000008284526355
 46
-8.006923994922052
 79
     2
 49
-9.245599999999999
 49
4.622799999999999
 47
0.4674590473530481
 98
        1
 10
999.9968969417365
 20
-1709.875827543624
  0
LINE
  5
AB0D
330
18
100
AcDbEntity
  8
FERRO
 62
   250
100
AcDbLine
 10
982.2012938956941
 20
-1684.591783103079
 30
0.0
 11
1032.588890794919
 21
-1684.591783103079
 31
0.0
  0
LINE
  5
AB0E
330
18
100
AcDbEntity
  8
FERRO
 62
   250
100
AcDbLine
 10
984.2167977716629
 20
-1636.225239550791
 30
0.0
 11
1030.57338691895
 21
-1636.225239550791
 31
0.0
  0
LINE
  5
AB0F
330
18
100
AcDbEntity
  8
FERRO
 62
   250
100
AcDbLine
 10
984.2167977716629
 20
-1682.581828698078
 30
0.0
 11
1030.57338691895
 21
-1682.581828698078
 31
0.0
  0
LINE
  5
AB10
330
18
100
AcDbEntity
  8
FERRO
 62
   250
100
AcDbLine
 10
963.7555574615857
 20
-1656.205646230536
 30
0.0
 11
977.8640845933685
 21
-1656.205646230536
 31
0.0
  0
LINE
  5
AB11
330
18
100
AcDbEntity
  8
FERRO
 62
   250
100
AcDbLine
 10
963.7555574615857
 20
-1642.600995067745
 30
0.0
 11
977.8640845933685
 21
-1642.600995067745
 31
0.0
  0
ARC
  5
AB12
330
18
100
AcDbEntity
  8
FERRO
 62
   250
100
AcDbCircle
 10
978.8718365313531
 20
-1659.199514909886
 30
0.0
 40
15.11627906976745
100
AcDbArc
 50
180.0
 51
270.0
  0
LINE
  5
AB13
330
18
100
AcDbEntity
  8
FERRO
 62
   250
100
AcDbLine
 10
959.0632735261959
 20
-1657.690619350625
 30
0.0
 11
959.0632735261959
 21
-1638.774947645738
 31
0.0
  0
LINE
  5
AB14
330
18
100
AcDbEntity
  8
FERRO
 62
   250
100
AcDbLine
 10
963.7555574615857
 20
-1638.26833932903
 30
0.0
 11
963.7555574615857
 21
-1659.199514909886
 31
0.0
  0
LINE
  5
AB15
330
18
100
AcDbEntity
  8
FERRO
 62
   250
100
AcDbLine
 10
984.2167977716629
 20
-1682.581828698078
 30
0.0
 11
984.2167977716629
 21
-1636.225239550791
 31
0.0
  0
LINE
  5
AB16
330
18
100
AcDbEntity
  8
FERRO
 62
   250
100
AcDbLine
 10
977.8640845933685
 20
-1654.694018323559
 30
0.0
 11
977.8640845933685
 21
-1656.205646230536
 31
0.0
  0
LINE
  5
AB17
330
18
100
AcDbEntity
  8
FERRO
 62
   250
100
AcDbLine
 10
977.8640845933685
 20
-1642.600995067745
 30
0.0
 11
977.8640845933685
 21
-1644.112622974722
 31
0.0
  0
LINE
  5
AB18
330
18
100
AcDbEntity
  8
FERRO
 62
   250
100
AcDbLine
 10
978.8718365313531
 20
-1674.315793979653
 30
0.0
 11
981.3950923453065
 21
-1674.315793979653
 31
0.0
  0
LINE
  5
AB19
330
18
100
AcDbEntity
  8
FERRO
 62
   250
100
AcDbLine
 10
977.8640845933685
 20
-1654.694018323559
 30
0.0
 11
981.3950923453065
 21
-1654.694018323559
 31
0.0
  0
LINE
  5
AB1A
330
18
100
AcDbEntity
  8
FERRO
 62
   250
100
AcDbLine
 10
977.8640845933685
 20
-1644.112622974722
 30
0.0
 11
981.3950923453065
 21
-1644.112622974722
 31
0.0
  0
LINE
  5
AB1B
330
18
100
AcDbEntity
  8
FERRO
 62
   250
100
AcDbLine
 10
1030.57338691895
 20
-1682.581828698078
 30
0.0
 11
1030.57338691895
 21
-1636.225239550791
 31
0.0
  0
LINE
  5
AB1C
330
18
100
AcDbEntity
  8
FERRO
 62
   250
100
AcDbLine
 10
930.8462192626301
 20
-1622.419301521168
 30
0.0
 11
930.8462192626301
 21
-1617.380541831245
 31
0.0
  0
INSERT
  5
ADA5
330
18
100
AcDbEntity
  8
ALLUMINIO
 62
     1
100
AcDbBlockReference
  2
WMF3
 10
2012.888827054073
 20
-1932.710558532678
 30
0.0
 41
0.5
 42
0.5
 43
0.5
  0
INSERT
  5
ADA6
330
18
100
AcDbEntity
  8
ALLUMINIO
 62
     1
100
AcDbBlockReference
  2
WMF4
 10
2011.642903194077
 20
-1933.540167553745
 30
0.0
 41
0.5
 42
0.5
 43
0.5
  0
INSERT
  5
ADF6
330
18
100
AcDbEntity
  8
ALLUMINIO
 62
     1
100
AcDbBlockReference
  2
WMF3
 10
2155.297098030617
 20
-1908.766118661302
 30
0.0
 41
0.5
 42
0.5
 43
0.5
  0
INSERT
  5
ADF7
330
18
100
AcDbEntity
  8
ALLUMINIO
 62
     1
100
AcDbBlockReference
  2
WMF4
 10
2154.051174170621
 20
-1909.59572768237
 30
0.0
 41
0.5
 42
0.5
 43
0.5
  0
INSERT
  5
AE14
330
18
100
AcDbEntity
  8
ALLUMINIO
 62
     1
100
AcDbBlockReference
  2
WMF3
 10
1624.252636001087
 20
-1787.871406016009
 30
0.0
  0
INSERT
  5
AE15
330
18
100
AcDbEntity
  8
ALLUMINIO
 62
     1
100
AcDbBlockReference
  2
WMF4
 10
1621.760788281095
 20
-1789.530624058145
 30
0.0
  0
HATCH
  5
AF22
330
18
100
AcDbEntity
  8
AREA166
 62
   250
100
AcDbHatch
 10
0.0
 20
0.0
 30
0.0
210
0.0
220
0.0
230
1.0
  2
ANSI35
 70
     0
 71
     0
 91
        1
 92
        7
 72
     0
 73
     1
 93
        4
 10
1033.395092345306
 20
-1420.771051635765
 10
633.0337747018741
 20
-1420.771051635764
 10
633.0337747018742
 20
-1509.0871586272
 10
1033.395092345306
 20
-1509.087158627199
 97
        0
 75
     0
 76
     1
 52
0.0
 41
3.0
 77
     0
 78
     2
 53
45.0
 43
-11.27283068527527
 44
45.62716570821385
 45
-13.47038418160372
 46
13.47038418160373
 79
     0
 53
45.0
 43
2.197559314724735
 44
45.62716570821385
 45
-13.47038418160372
 46
13.47038418160373
 79
     4
 49
23.8125
 49
-4.762499999999999
 49
0.0
 49
-4.762499999999999
 47
0.6209641437526419
 98
        1
 10
816.4841775648813
 20
-1480.197777477318
  0
MTEXT
  5
AF3E
330
18
100
AcDbEntity
  8
FERRO
 62
   140
100
AcDbMText
 10
1057.307043229115
 20
-1971.501664960456
 30
0.0
 40
7.5
 41
0.0
 71
     1
 72
     1
  1

 73
     1
 44
1.0
1001
ACAD
1000
MTEXTBEGIN
1070
    73
1070
     1
1070
    44
1040
1.0
1070
    74
1070
     0
1000
MTEXTEND
  0
LEADER
  5
AFDA
330
18
100
AcDbEntity
  8
QUOTE
100
AcDbLeader
  3
STANDARD_WS
 73
     0
 40
22.5
 41
120.0
 76
     2
 10
813.798938391409
 20
-1790.7646908077
 30
0.0
 10
752.5517621722542
 20
-1797.4348380314
 30
0.0
340
AFDB
213
0.0
223
0.079852776299731
233
0.0
1001
ACAD
1000
DSTYLE
1002
{
1070
    40
1040
3.0
1070
    41
1040
1.0
1070
    42
1040
1.5
1070
    43
1040
10.0
1070
    44
1040
0.0
1070
    79
1070
     2
1070
   141
1040
2.0
1070
   147
1040
1.0
1070
   176
1070
   256
1070
   177
1070
   256
1070
   178
1070
   256
1070
   179
1070
     1
1070
   271
1070
     1
1070
   272
1070
     1
1070
   341
1005
A96C
1070
   342
1005
A96C
1002
}
  0
MTEXT
  5
AFDB
102
{ACAD_REACTORS
330
AFDA
102
}
330
18
100
AcDbEntity
  8
QUOTE
100
AcDbMText
 10
749.5517621722542
 20
-1794.514690807699
 30
0.0
 40
7.5
 41
0.0
 71
     9
 72
     1
  1
MATERIALE INTERNO\PCOIBENTE Sp.50mm.
 73
     1
 44
1.0
1001
ACAD
1000
MTEXTBEGIN
1070
    73
1070
     1
1070
    44
1040
1.0
1070
    74
1070
     0
1000
MTEXTEND
  0
LINE
  5
B04B
330
18
100
AcDbEntity
  8
0
100
AcDbLine
 10
1033.395092345306
 20
-1509.087158627199
 30
0.0
 11
1033.395092345306
 21
-1420.192249682447
 31
0.0
  0
DIMENSION
  5
B071
330
18
100
AcDbEntity
  8
QUOTE
100
AcDbDimension
  2
*D7
 10
1033.395092345306
 20
-2031.596894585361
 30
0.0
 11
859.0397927651244
 21
-2024.846894585361
 31
0.0
 70
    32
  1
350
 71
     5
 42
348.7105991603641
  3
STANDARD_WS
100
AcDbAlignedDimension
 13
684.6844931849423
 23
-1579.587158627199
 33
0.0
 14
1033.395092345306
 24
-1880.002711465505
 34
0.0
100
AcDbRotatedDimension
1001
ACAD
1000
DSTYLE
1002
{
1070
    40
1040
3.0
1070
    41
1040
1.0
1070
    42
1040
1.5
1070
    43
1040
10.0
1070
    44
1040
0.0
1070
    79
1070
     2
1070
   141
1040
2.0
1070
   147
1040
1.0
1070
   176
1070
   256
1070
   177
1070
   256
1070
   178
1070
   256
1070
   179
1070
     1
1070
   271
1070
     1
1070
   272
1070
     1
1070
   341
1005
A96C
1070
   342
1005
A96C
1002
}
  0
LINE
  5
B0E3
330
18
100
AcDbEntity
  8
FERRO
100
AcDbLine
 10
1023.862222179033
 20
-1880.002711465505
 30
0.0
 11
1023.862222179033
 21
-1923.427572417846
 31
0.0
  0
ARC
  5
B0E4
330
18
100
AcDbEntity
  8
FERRO
100
AcDbCircle
 10
1024.538497910345
 20
-1904.761690880455
 30
0.0
 40
18.67812845101637
100
AcDbArc
 50
180.807010901622
 51
267.9250482055323
  0
LWPOLYLINE
  5
B0E5
330
18
100
AcDbEntity
  8
FERRO
100
AcDbPolyline
 90
        5
 70
     0
 43
0.0
 10
1020.862222179033
 20
-1902.002711465505
 10
1020.862222179033
 20
-1920.002711465505
 42
-0.3421714355369481
 10
1008.862222179033
 20
-1905.002711465504
 10
1008.862222179033
 20
-1902.002711465505
 10
1020.862222179033
 20
-1902.002711465505
  0
LINE
  5
B0E6
330
18
100
AcDbEntity
  8
FERRO
100
AcDbLine
 10
988.8622221790326
 20
-1885.002711465505
 30
0.0
 11
999.5235948600029
 21
-1885.002711465505
 31
0.0
  0
LINE
  5
B0E7
330
18
100
AcDbEntity
  8
FERRO
100
AcDbLine
 10
990.3622221790326
 20
-1880.502711465505
 30
0.0
 11
1001.862222179033
 21
-1880.502711465505
 31
0.0
  0
LINE
  5
B0E8
330
18
100
AcDbEntity
  8
FERRO
 62
   250
100
AcDbLine
 10
1001.267260938722
 20
-1880.002711465505
 30
0.0
 11
981.3950923453061
 21
-1880.002711465505
 31
0.0
  0
LINE
  5
B0E9
330
18
100
AcDbEntity
  8
FERRO
 62
   250
100
AcDbLine
 10
999.6717945437774
 20
-1879.196509915117
 30
0.0
 11
982.2012938956939
 21
-1879.196509915116
 31
0.0
  0
LINE
  5
B0EA
330
18
100
AcDbEntity
  8
FERRO
 62
   250
100
AcDbLine
 10
999.6717945437774
 20
-1879.196509915117
 30
0.0
 11
993.805617473194
 21
-1871.235269605039
 31
0.0
  0
LINE
  5
B0EB
330
18
100
AcDbEntity
  8
FERRO
 62
   250
100
AcDbLine
 10
1001.267260938722
 20
-1880.002711465505
 30
0.0
 11
994.8070406204854
 21
-1871.235269605039
 31
0.0
  0
LINE
  5
B0EC
330
18
100
AcDbEntity
  8
FERRO
 62
   250
100
AcDbLine
 10
1030.57338691895
 20
-1867.909688209691
 30
0.0
 11
984.2167977716629
 21
-1867.90968820969
 31
0.0
  0
LINE
  5
B0ED
330
18
100
AcDbEntity
  8
FERRO
 62
   250
100
AcDbLine
 10
1032.588890794919
 20
-1869.925192085659
 30
0.0
 11
982.2012938956939
 21
-1869.925192085659
 31
0.0
  0
LINE
  5
B0EE
330
18
100
AcDbEntity
  8
FERRO
 62
   250
100
AcDbLine
 10
982.2012938956939
 20
-1869.925192085659
 30
0.0
 11
982.2012938956939
 21
-1879.196509915116
 31
0.0
  0
LINE
  5
B0EF
330
18
100
AcDbEntity
  8
FERRO
100
AcDbLine
 10
988.8622221790326
 20
-1880.002711465505
 30
0.0
 11
988.8622221790326
 21
-1885.002711465505
 31
0.0
  0
LINE
  5
B0F0
330
18
100
AcDbEntity
  8
FERRO
100
AcDbLine
 10
990.3622221790326
 20
-1880.502711465505
 30
0.0
 11
988.8622221790326
 21
-1880.002711465505
 31
0.0
  0
LINE
  5
B0F1
330
18
100
AcDbEntity
  8
FERRO
 62
   250
100
AcDbLine
 10
994.8070406204854
 20
-1871.235269605039
 30
0.0
 11
993.805617473194
 21
-1871.235269605039
 31
0.0
  0
LINE
  5
B0F2
330
18
100
AcDbEntity
  8
FERRO
100
AcDbLine
 10
1020.862222179033
 20
-1900.002711465505
 30
0.0
 11
1008.862222179033
 21
-1900.002711465505
 31
0.0
  0
LINE
  5
B0F3
330
18
100
AcDbEntity
  8
FERRO
100
AcDbLine
 10
1020.862222179033
 20
-1885.002711465505
 30
0.0
 11
1005.268157506541
 21
-1885.002711465505
 31
0.0
  0
LINE
  5
B0F4
330
18
100
AcDbEntity
  8
FERRO
100
AcDbLine
 10
1022.362222179033
 20
-1880.502711465505
 30
0.0
 11
1012.362222179033
 21
-1880.502711465505
 31
0.0
  0
LINE
  5
B0F5
330
18
100
AcDbEntity
  8
FERRO
 62
   250
100
AcDbLine
 10
1033.395092345306
 20
-1880.002711465504
 30
0.0
 11
1012.957183419343
 21
-1880.002711465505
 31
0.0
  0
LINE
  5
B0F6
330
18
100
AcDbEntity
  8
FERRO
 62
   250
100
AcDbLine
 10
1032.588890794918
 20
-1879.196509915117
 30
0.0
 11
1014.552649814288
 21
-1879.196509915117
 31
0.0
  0
LINE
  5
B0F7
330
18
100
AcDbEntity
  8
FERRO
 62
   250
100
AcDbLine
 10
1014.552649814288
 20
-1879.196509915117
 30
0.0
 11
1020.418826884871
 21
-1871.235269605039
 31
0.0
  0
LINE
  5
B0F8
330
18
100
AcDbEntity
  8
FERRO
 62
   250
100
AcDbLine
 10
1012.957183419343
 20
-1880.002711465505
 30
0.0
 11
1019.41740373758
 21
-1871.235269605039
 31
0.0
  0
ARC
  5
B0F9
330
18
100
AcDbEntity
  8
FERRO
100
AcDbCircle
 10
1007.112222179033
 20
-1859.648930004722
 30
0.0
 40
11.85298550298124
100
AcDbArc
 50
257.8238847372167
 51
282.1761152627833
  0
LINE
  5
B0FA
330
18
100
AcDbEntity
  8
FERRO
100
AcDbLine
 10
1008.862222179033
 20
-1900.002711465505
 30
0.0
 11
1006.387659589839
 21
-1887.629898519537
 31
0.0
  0
ARC
  5
B0FB
330
18
100
AcDbEntity
  8
FERRO
100
AcDbCircle
 10
1007.112222179032
 20
-1877.971461465505
 30
0.0
 40
3.03125000000001
100
AcDbArc
 50
222.0750220508378
 51
317.9249779491621
  0
LINE
  5
B0FC
330
18
100
AcDbEntity
  8
FERRO
100
AcDbLine
 10
1009.362222179033
 20
-1874.502711465505
 30
0.0
 11
1004.862222179033
 21
-1874.502711465505
 31
0.0
  0
LINE
  5
B0FD
330
18
100
AcDbEntity
  8
FERRO
100
AcDbLine
 10
1004.612222179033
 20
-1871.23526960504
 30
0.0
 11
999.3622221790328
 21
-1874.002711465505
 31
0.0
  0
LINE
  5
B0FE
330
18
100
AcDbEntity
  8
FERRO
100
AcDbLine
 10
1005.862222179032
 20
-1905.024763571294
 30
0.0
 11
1005.862222179032
 21
-1900.299770006284
 31
0.0
  0
ARC
  5
B0FF
330
18
100
AcDbEntity
  8
FERRO
100
AcDbCircle
 10
999.5235948600031
 20
-1889.002711465505
 30
0.0
 40
7.0
100
AcDbArc
 50
11.30993247402404
 51
34.84990457903818
  0
ARC
  5
B100
330
18
100
AcDbEntity
  8
FERRO
100
AcDbCircle
 10
999.5235948600031
 20
-1889.002711465505
 30
0.0
 40
4.0
100
AcDbArc
 50
11.30993247402404
 51
90.0
  0
LINE
  5
B101
330
18
100
AcDbEntity
  8
FERRO
100
AcDbLine
 10
1005.862222179032
 20
-1900.299770006284
 30
0.0
 11
1003.445917562767
 21
-1888.218246924952
 31
0.0
  0
LINE
  5
B102
330
18
100
AcDbEntity
  8
FERRO
100
AcDbLine
 10
999.3622221790328
 20
-1874.002711465505
 30
0.0
 11
1001.862222179033
 21
-1873.502711465505
 31
0.0
  0
LINE
  5
B103
330
18
100
AcDbEntity
  8
FERRO
100
AcDbLine
 10
1004.862222179033
 20
-1880.002711465505
 30
0.0
 11
1004.862222179033
 21
-1874.502711465505
 31
0.0
  0
LINE
  5
B104
330
18
100
AcDbEntity
  8
FERRO
100
AcDbLine
 10
1001.862222179033
 20
-1873.502711465505
 30
0.0
 11
1001.862222179033
 21
-1880.502711465505
 31
0.0
  0
LINE
  5
B105
330
18
100
AcDbEntity
  8
FERRO
100
AcDbLine
 10
1009.612222179033
 20
-1871.23526960504
 30
0.0
 11
1014.862222179033
 21
-1874.002711465505
 31
0.0
  0
LINE
  5
B106
330
18
100
AcDbEntity
  8
FERRO
100
AcDbLine
 10
1014.862222179033
 20
-1874.002711465505
 30
0.0
 11
1012.362222179033
 21
-1873.502711465505
 31
0.0
  0
LINE
  5
B107
330
18
100
AcDbEntity
  8
FERRO
100
AcDbLine
 10
1009.362222179033
 20
-1880.002711465505
 30
0.0
 11
1009.362222179033
 21
-1874.502711465505
 31
0.0
  0
LINE
  5
B108
330
18
100
AcDbEntity
  8
FERRO
100
AcDbLine
 10
1012.362222179033
 20
-1880.502711465505
 30
0.0
 11
1012.362222179033
 21
-1873.502711465505
 31
0.0
  0
LINE
  5
B109
330
18
100
AcDbEntity
  8
FERRO
100
AcDbLine
 10
1020.862222179033
 20
-1885.002711465505
 30
0.0
 11
1020.862222179033
 21
-1900.002711465505
 31
0.0
  0
LINE
  5
B10A
330
18
100
AcDbEntity
  8
FERRO
100
AcDbLine
 10
1022.362222179033
 20
-1880.502711465505
 30
0.0
 11
1023.862222179033
 21
-1880.002711465505
 31
0.0
  0
LINE
  5
B10B
330
18
100
AcDbEntity
  8
FERRO
 62
   250
100
AcDbLine
 10
1019.41740373758
 20
-1871.235269605039
 30
0.0
 11
1020.418826884871
 21
-1871.235269605039
 31
0.0
  0
LINE
  5
B10C
330
18
100
AcDbEntity
  8
FERRO
 62
   250
100
AcDbLine
 10
1032.588890794919
 20
-1869.925192085659
 30
0.0
 11
1032.588890794918
 21
-1879.196509915116
 31
0.0
  0
VIEWPORT
  5
32
102
{ACAD_XDICTIONARY
360
B1BF
102
}
330
15
100
AcDbEntity
 67
     1
  8
0
100
AcDbViewport
 10
7.258166969147005
 20
4.25
 30
0.0
 40
14.51633393829401
 41
8.5
 68
     2
 69
     1
 12
7.258166969147005
 22
4.25
 13
0.0
 23
0.0
 14
10.0
 24
10.0
 15
10.0
 25
10.0
 16
0.0
 26
0.0
 36
1.0
 17
0.0
 27
0.0
 37
0.0
 42
50.0
 43
0.0
 44
0.0
 45
8.5
 50
0.0
 51
0.0
 72
   100
 90
    32800
  1

281
     0
 71
     1
 74
     0
110
0.0
120
0.0
130
0.0
111
1.0
121
0.0
131
0.0
112
0.0
122
1.0
132
0.0
 79
     0
146
0.0
  0
VIEWPORT
  5
35
102
{ACAD_XDICTIONARY
360
B1C1
102
}
330
15
100
AcDbEntity
 67
     1
  8
QUOTE
100
AcDbViewport
 10
5.5
 20
4.25
 30
0.0
 40
11.0
 41
8.5
 68
     1
 69
     2
 12
148.5
 22
105.0
 13
0.0
 23
0.0
 14
7.0
 24
7.0
 15
7.0
 25
7.0
 16
0.0
 26
0.0
 36
1.0
 17
0.0
 27
0.0
 37
0.0
 42
50.0
 43
0.0
 44
0.0
 45
234.0126404494382
 50
0.0
 51
0.0
 72
   100
 90
    32800
  1

281
     0
 71
     1
 74
     0
110
0.0
120
0.0
130
0.0
111
1.0
121
0.0
131
0.0
112
0.0
122
1.0
132
0.0
 79
     0
146
0.0
  0
ENDSEC
  0
SECTION
  2
OBJECTS
  0
DICTIONARY
  5
C
330
0
100
AcDbDictionary
281
     1
  3
ACAD_CIP_PREVIOUS_PRODUCT_INFO
350
B19D
  3
ACAD_COLOR
350
B17B
  3
ACAD_DETAILVIEWSTYLE
350
B194
  3
ACAD_GROUP
350
D
  3
ACAD_LAYOUT
350
A2C4
  3
ACAD_MATERIAL
350
B149
  3
ACAD_MLEADERSTYLE
350
B190
  3
ACAD_MLINESTYLE
350
1B
  3
ACAD_PLOTSETTINGS
350
A2C5
  3
ACAD_PLOTSTYLENAME
350
A2C2
  3
ACAD_SCALELIST
350
B17E
  3
ACAD_SECTIONVIEWSTYLE
350
B192
  3
ACAD_TABLESTYLE
350
B17C
  3
ACAD_VISUALSTYLE
350
B162
  3
ACDB_RECOMPOSE_DATA
350
B1BD
  3
ACDBVARIABLEDICTIONARY
350
36
  3
CONTENTDICTIONARY
350
23
  3
DWGPROPS
350
B1BE
  0
DICTIONARY
  5
B19E
330
E
100
AcDbDictionary
280
     1
281
     1
  3
ADSK_XREC_LAYER_RECONCILED
360
B19F
  0
DICTIONARY
  5
B1A0
330
33
100
AcDbDictionary
280
     1
281
     1
  3
ADSK_XREC_LAYER_RECONCILED
360
B1A1
  0
DICTIONARY
  5
B1A2
330
43
100
AcDbDictionary
280
     1
281
     1
  3
ADSK_XREC_LAYER_RECONCILED
360
B1A3
  0
DICTIONARY
  5
B1A4
330
59
100
AcDbDictionary
280
     1
281
     1
  3
ADSK_XREC_LAYER_RECONCILED
360
B1A5
  0
DICTIONARY
  5
B1A6
330
5AF
100
AcDbDictionary
280
     1
281
     1
  3
ADSK_XREC_LAYER_RECONCILED
360
B1A7
  0
DICTIONARY
  5
B1A8
330
185F
100
AcDbDictionary
280
     1
281
     1
  3
ADSK_XREC_LAYER_RECONCILED
360
B1A9
  0
DICTIONARY
  5
B1AA
330
2DBD
100
AcDbDictionary
280
     1
281
     1
  3
ADSK_XREC_LAYER_RECONCILED
360
B1AB
  0
DICTIONARY
  5
B1AC
330
A388
100
AcDbDictionary
280
     1
281
     1
  3
ADSK_XREC_LAYER_RECONCILED
360
B1AD
  0
DICTIONARY
  5
B1AE
330
A46E
100
AcDbDictionary
280
     1
281
     1
  3
ADSK_XREC_LAYER_RECONCILED
360
B1AF
  0
DICTIONARY
  5
B1B0
330
A6D9
100
AcDbDictionary
280
     1
281
     1
  3
ADSK_XREC_LAYER_RECONCILED
360
B1B1
  0
DICTIONARY
  5
B1BF
330
32
100
AcDbDictionary
280
     1
281
     1
  3
ACAD_XREC_ROUNDTRIP
360
B1C0
  0
DICTIONARY
  5
B1C1
330
35
100
AcDbDictionary
280
     1
281
     1
  3
ACAD_XREC_ROUNDTRIP
360
B1C2
  0
XRECORD
  5
B19D
102
{ACAD_REACTORS
330
C
102
}
330
C
100
AcDbXrecord
280
     1
300
ACDLT
300
2013
300
ACDLT_F_S
  0
DICTIONARY
  5
B17B
102
{ACAD_REACTORS
330
C
102
}
330
C
100
AcDbDictionary
281
     1
  0
DICTIONARY
  5
B194
102
{ACAD_REACTORS
330
C
102
}
330
C
100
AcDbDictionary
281
     1
  3
Metric50
350
B195
  0
DICTIONARY
  5
D
102
{ACAD_REACTORS
330
C
102
}
330
C
100
AcDbDictionary
281
     1
  0
DICTIONARY
  5
A2C4
102
{ACAD_REACTORS
330
C
102
}
330
C
100
AcDbDictionary
281
     1
  3
Layout1
350
A2C7
  3
Model
350
A2C6
  0
DICTIONARY
  5
B149
102
{ACAD_REACTORS
330
C
102
}
330
C
100
AcDbDictionary
281
     1
  3
ByBlock
350
B152
  3
ByLayer
350
B14A
  3
Global
350
B15A
  0
DICTIONARY
  5
B190
102
{ACAD_REACTORS
330
C
102
}
330
C
100
AcDbDictionary
281
     1
  3
Standard
350
B191
  0
DICTIONARY
  5
1B
102
{ACAD_REACTORS
330
C
102
}
330
C
100
AcDbDictionary
281
     1
  3
STANDARD
350
1C
  0
DICTIONARY
  5
A2C5
102
{ACAD_REACTORS
330
C
102
}
330
C
100
AcDbDictionary
281
     1
  0
ACDBDICTIONARYWDFLT
  5
A2C2
102
{ACAD_REACTORS
330
C
102
}
330
C
100
AcDbDictionary
281
     1
  3
Normal
350
A2C3
100
AcDbDictionaryWithDefault
340
A2C3
  0
DICTIONARY
  5
B17E
102
{ACAD_REACTORS
330
C
102
}
330
C
100
AcDbDictionary
281
     1
  3
A0
350
B17F
  3
A1
350
B180
  3
A2
350
B181
  3
A3
350
B182
  3
A4
350
B183
  3
A5
350
B184
  3
A6
350
B185
  3
A7
350
B186
  3
A8
350
B187
  3
A9
350
B188
  3
B0
350
B189
  3
B1
350
B18A
  3
B2
350
B18B
  3
B3
350
B18C
  3
B4
350
B18D
  3
B5
350
B18E
  3
B6
350
B18F
  0
DICTIONARY
  5
B192
102
{ACAD_REACTORS
330
C
102
}
330
C
100
AcDbDictionary
281
     1
  3
Metric50
350
B193
  0
DICTIONARY
  5
B17C
102
{ACAD_REACTORS
330
C
102
}
330
C
100
AcDbDictionary
281
     1
  3
Standard
350
B17D
  0
DICTIONARY
  5
B162
102
{ACAD_REACTORS
330
C
102
}
330
C
100
AcDbDictionary
281
     1
  3
2dWireframe
350
B168
  3
Basic
350
B167
  3
Brighten
350
B16E
  3
ColorChange
350
B172
  3
Conceptual
350
B16B
  3
Dim
350
B16D
  3
EdgeColorOff
350
B17A
  3
Facepattern
350
B171
  3
Flat
350
B163
  3
FlatWithEdges
350
B164
  3
Gouraud
350
B165
  3
GouraudWithEdges
350
B166
  3
Hidden
350
B16A
  3
JitterOff
350
B178
  3
Linepattern
350
B170
  3
OverhangOff
350
B179
  3
Realistic
350
B16C
  3
Shaded
350
B177
  3
Shaded with edges
350
B176
  3
Shades of Gray
350
B173
  3
Sketchy
350
B174
  3
Thicken
350
B16F
  3
Wireframe
350
B169
  3
X-Ray
350
B175
  0
XRECORD
  5
B1BD
102
{ACAD_REACTORS
330
C
102
}
330
C
100
AcDbXrecord
280
     1
 90
        1
330
B17D
  0
DICTIONARY
  5
36
102
{ACAD_REACTORS
330
C
102
}
330
C
100
AcDbDictionary
281
     1
  3
CANNOSCALE
350
B1B6
  3
CMLEADERSTYLE
350
B1B3
  3
CTABLESTYLE
350
B1B2
  3
CVIEWDETAILSTYLE
350
B1B4
  3
CVIEWSECTIONSTYLE
350
B1B5
  3
DIMADEC
350
37
  3
DIMASSOC
350
B1B8
  3
INDEXCTL
350
B1B7
  3
SORTENTS
350
10E
  3
XCLIPFRAME
350
B1B9
  0
DICTIONARY
  5
23
102
{ACAD_REACTORS
330
C
102
}
330
C
100
AcDbDictionary
281
     1
  0
XRECORD
  5
B1BE
102
{ACAD_REACTORS
330
C
102
}
330
C
100
AcDbXrecord
280
     1
  1
DWGPROPS COOKIE
  2

  3

  4

  6

  7

  8
demom
  9

300
=
301
=
302
=
303
=
304
=
305
=
306
=
307
=
308
=
309
=
 40
0.2694679166666666
 41
2451513.764827315
 42
2457730.484278947
  1

 90
        0
  0
XRECORD
  5
B19F
102
{ACAD_REACTORS
330
B19E
102
}
330
B19E
100
AcDbXrecord
280
     1
290
     1
  0
XRECORD
  5
B1A1
102
{ACAD_REACTORS
330
B1A0
102
}
330
B1A0
100
AcDbXrecord
280
     1
290
     1
  0
XRECORD
  5
B1A3
102
{ACAD_REACTORS
330
B1A2
102
}
330
B1A2
100
AcDbXrecord
280
     1
290
     1
  0
XRECORD
  5
B1A5
102
{ACAD_REACTORS
330
B1A4
102
}
330
B1A4
100
AcDbXrecord
280
     1
290
     1
  0
XRECORD
  5
B1A7
102
{ACAD_REACTORS
330
B1A6
102
}
330
B1A6
100
AcDbXrecord
280
     1
290
     1
  0
XRECORD
  5
B1A9
102
{ACAD_REACTORS
330
B1A8
102
}
330
B1A8
100
AcDbXrecord
280
     1
290
     1
  0
XRECORD
  5
B1AB
102
{ACAD_REACTORS
330
B1AA
102
}
330
B1AA
100
AcDbXrecord
280
     1
290
     1
  0
XRECORD
  5
B1AD
102
{ACAD_REACTORS
330
B1AC
102
}
330
B1AC
100
AcDbXrecord
280
     1
290
     1
  0
XRECORD
  5
B1AF
102
{ACAD_REACTORS
330
B1AE
102
}
330
B1AE
100
AcDbXrecord
280
     1
290
     1
  0
XRECORD
  5
B1B1
102
{ACAD_REACTORS
330
B1B0
102
}
330
B1B0
100
AcDbXrecord
280
     1
290
     1
  0
XRECORD
  5
B1C0
102
{ACAD_REACTORS
330
B1BF
102
}
330
B1BF
100
AcDbXrecord
280
     1
102
SHADEPLOT
 70
     0
  0
XRECORD
  5
B1C2
102
{ACAD_REACTORS
330
B1C1
102
}
330
B1C1
100
AcDbXrecord
280
     1
102
SHADEPLOT
 70
     0
  0
ACDBDETAILVIEWSTYLE
  5
B195
102
{ACAD_REACTORS
330
B194
102
}
330
B194
100
AcDbModelDocViewStyle
 70
     0
  3
Metric50
290
     0
100
AcDbDetailViewStyle
 70
     0
 71
     0
 90
        3
 71
     1
340
F
 40
5.0
340
0
 40
5.0
300

 40
0.0
280
     1
 71
     2
340
14
 90
       25
 71
     3
340
F
 40
5.0
 90
        0
 40
15.0
 90
        1
300
%<\AcVar ViewDetailId>% (%<\AcVar ViewScale \f "%sn">%)
 71
     4
340
14
 90
       25
340
14
 90
       25
280
     0
  0
LAYOUT
  5
A2C7
102
{ACAD_XDICTIONARY
360
B1C5
102
}
102
{ACAD_REACTORS
330
A2C4
102
}
330
A2C4
100
AcDbPlotSettings
  1

  2
EPSON Stylus COLOR 1520
  4

  6

 40
0.0
 41
0.0
 42
0.0
 43
0.0
 44
0.0
 45
0.0
 46
0.0
 47
0.0
 48
0.0
 49
0.0
140
0.0
141
0.0
142
1.0
143
1.0
 70
   688
 72
     0
 73
     0
 74
     5
  7
aclt.ctb
 75
    16
147
1.0
148
0.0
149
0.0
100
AcDbLayout
  1
Layout1
 70
     1
 71
     1
 10
0.0
 20
0.0
 11
11.0
 21
8.5
 12
0.0
 22
0.0
 32
0.0
 14
0.0
 24
0.0
 34
0.0
 15
11.0
 25
8.5
 35
0.0
146
0.0
 13
0.0
 23
0.0
 33
0.0
 16
1.0
 26
0.0
 36
0.0
 17
0.0
 27
1.0
 37
0.0
 76
     0
330
15
331
35
  0
LAYOUT
  5
A2C6
102
{ACAD_XDICTIONARY
360
B1C3
102
}
102
{ACAD_REACTORS
330
A2C4
102
}
330
A2C4
100
AcDbPlotSettings
  1

  2
HP LaserJet 4100 PCL 6
  4
A4
  6

 40
4.233333110809326
 41
4.910679340362548
 42
4.910659790039062
 43
4.23333740234375
 44
209.9733276367187
 45
296.9259948730469
 46
0.27
 47
9.22
 48
568.455106347372
 49
-2172.627871729547
140
1169.31381472806
141
-1364.580649053193
142
1.0
143
3.0
 70
 11940
 72
     1
 73
     0
 74
     4
  7
aclt.ctb
 75
     0
147
0.3333333333333333
148
-568.455106347372
149
2172.627871729547
100
AcDbLayout
  1
Model
 70
     1
 71
     0
 10
0.0
 20
0.0
 11
12.0
 21
9.0
 12
0.0
 22
0.0
 32
0.0
 14
0.0
 24
0.0
 34
0.0
 15
0.0
 25
0.0
 35
0.0
146
0.0
 13
0.0
 23
0.0
 33
0.0
 16
1.0
 26
0.0
 36
0.0
 17
0.0
 27
1.0
 37
0.0
 76
     0
330
18
331
B147
  0
MATERIAL
  5
B152
102
{ACAD_XDICTIONARY
360
B153
102
}
102
{ACAD_REACTORS
330
B149
102
}
330
B149
100
AcDbMaterial
  1
ByBlock
 72
     0
 43
0.0208333333333333
 43
0.0
 43
0.0
 43
0.0
 43
0.0
 43
0.0208333333333333
 43
0.0
 43
0.0
 43
0.0
 43
0.0
 43
1.0
 43
0.0
 43
0.0
 43
0.0
 43
0.0
 43
1.0
 77
     0
 47
0.0208333333333333
 47
0.0
 47
0.0
 47
0.0
 47
0.0
 47
0.0208333333333333
 47
0.0
 47
0.0
 47
0.0
 47
0.0
 47
1.0
 47
0.0
 47
0.0
 47
0.0
 47
0.0
 47
1.0
171
     0
 49
0.0208333333333333
 49
0.0
 49
0.0
 49
0.0
 49
0.0
 49
0.0208333333333333
 49
0.0
 49
0.0
 49
0.0
 49
0.0
 49
1.0
 49
0.0
 49
0.0
 49
0.0
 49
0.0
 49
1.0
175
     0
142
0.0208333333333333
142
0.0
142
0.0
142
0.0
142
0.0
142
0.0208333333333333
142
0.0
142
0.0
142
0.0
142
0.0
142
1.0
142
0.0
142
0.0
142
0.0
142
0.0
142
1.0
179
     0
144
0.0208333333333333
144
0.0
144
0.0
144
0.0
144
0.0
144
0.0208333333333333
144
0.0
144
0.0
144
0.0
144
0.0
144
1.0
144
0.0
144
0.0
144
0.0
144
0.0
144
1.0
147
0.0208333333333333
147
0.0
147
0.0
147
0.0
147
0.0
147
0.0208333333333333
147
0.0
147
0.0
147
0.0
147
0.0
147
1.0
147
0.0
147
0.0
147
0.0
147
0.0
147
1.0
  0
MATERIAL
  5
B14A
102
{ACAD_XDICTIONARY
360
B14B
102
}
102
{ACAD_REACTORS
330
B149
102
}
330
B149
100
AcDbMaterial
  1
ByLayer
 72
     0
 43
0.0208333333333333
 43
0.0
 43
0.0
 43
0.0
 43
0.0
 43
0.0208333333333333
 43
0.0
 43
0.0
 43
0.0
 43
0.0
 43
1.0
 43
0.0
 43
0.0
 43
0.0
 43
0.0
 43
1.0
 77
     0
 47
0.0208333333333333
 47
0.0
 47
0.0
 47
0.0
 47
0.0
 47
0.0208333333333333
 47
0.0
 47
0.0
 47
0.0
 47
0.0
 47
1.0
 47
0.0
 47
0.0
 47
0.0
 47
0.0
 47
1.0
171
     0
 49
0.0208333333333333
 49
0.0
 49
0.0
 49
0.0
 49
0.0
 49
0.0208333333333333
 49
0.0
 49
0.0
 49
0.0
 49
0.0
 49
1.0
 49
0.0
 49
0.0
 49
0.0
 49
0.0
 49
1.0
175
     0
142
0.0208333333333333
142
0.0
142
0.0
142
0.0
142
0.0
142
0.0208333333333333
142
0.0
142
0.0
142
0.0
142
0.0
142
1.0
142
0.0
142
0.0
142
0.0
142
0.0
142
1.0
179
     0
144
0.0208333333333333
144
0.0
144
0.0
144
0.0
144
0.0
144
0.0208333333333333
144
0.0
144
0.0
144
0.0
144
0.0
144
1.0
144
0.0
144
0.0
144
0.0
144
0.0
144
1.0
147
0.0208333333333333
147
0.0
147
0.0
147
0.0
147
0.0
147
0.0208333333333333
147
0.0
147
0.0
147
0.0
147
0.0
147
1.0
147
0.0
147
0.0
147
0.0
147
0.0
147
1.0
  0
MATERIAL
  5
B15A
102
{ACAD_XDICTIONARY
360
B15B
102
}
102
{ACAD_REACTORS
330
B149
102
}
330
B149
100
AcDbMaterial
  1
Global
 72
     0
 43
0.0208333333333333
 43
0.0
 43
0.0
 43
0.0
 43
0.0
 43
0.0208333333333333
 43
0.0
 43
0.0
 43
0.0
 43
0.0
 43
1.0
 43
0.0
 43
0.0
 43
0.0
 43
0.0
 43
1.0
 77
     0
 47
0.0208333333333333
 47
0.0
 47
0.0
 47
0.0
 47
0.0
 47
0.0208333333333333
 47
0.0
 47
0.0
 47
0.0
 47
0.0
 47
1.0
 47
0.0
 47
0.0
 47
0.0
 47
0.0
 47
1.0
171
     0
 49
0.0208333333333333
 49
0.0
 49
0.0
 49
0.0
 49
0.0
 49
0.0208333333333333
 49
0.0
 49
0.0
 49
0.0
 49
0.0
 49
1.0
 49
0.0
 49
0.0
 49
0.0
 49
0.0
 49
1.0
175
     0
142
0.0208333333333333
142
0.0
142
0.0
142
0.0
142
0.0
142
0.0208333333333333
142
0.0
142
0.0
142
0.0
142
0.0
142
1.0
142
0.0
142
0.0
142
0.0
142
0.0
142
1.0
179
     0
144
0.0208333333333333
144
0.0
144
0.0
144
0.0
144
0.0
144
0.0208333333333333
144
0.0
144
0.0
144
0.0
144
0.0
144
1.0
144
0.0
144
0.0
144
0.0
144
0.0
144
1.0
147
0.0208333333333333
147
0.0
147
0.0
147
0.0
147
0.0
147
0.0208333333333333
147
0.0
147
0.0
147
0.0
147
0.0
147
1.0
147
0.0
147
0.0
147
0.0
147
0.0
147
1.0
  0
MLEADERSTYLE
  5
B191
102
{ACAD_XDICTIONARY
360
B1FC
102
}
102
{ACAD_REACTORS
330
B190
102
}
330
B190
100
AcDbMLeaderStyle
170
     2
171
     1
172
     0
 90
        2
 40
0.0
 41
0.0
173
     1
 91
-1056964608
340
12
 92
       -2
290
     1
 42
2.0
291
     1
 43
0.36
  3
Standard
 44
4.0
300

342
F
174
     1
178
     6
175
     1
176
     0
 93
-1056964608
 45
4.0
292
     0
297
     0
 46
4.0
 94
-1056964608
 47
1.0
 49
1.0
140
1.0
293
     1
141
0.0
294
     1
177
     0
142
1.0
295
     0
296
     0
143
0.125
1001
ACAD_MLEADERVER
1070
     2
  0
MLINESTYLE
  5
1C
102
{ACAD_REACTORS
330
1B
102
}
330
1B
100
AcDbMlineStyle
  2
STANDARD
 70
     0
  3

 62
   256
 51
90.0
 52
90.0
 71
     2
 49
0.5
 62
   256
  6
BYLAYER
 49
-0.5
 62
   256
  6
BYLAYER
  0
ACDBPLACEHOLDER
  5
A2C3
102
{ACAD_REACTORS
330
A2C2
102
}
330
A2C2
  0
SCALE
  5
B17F
102
{ACAD_REACTORS
330
B17E
102
}
330
B17E
100
AcDbScale
 70
     0
300
1:1
140
1.0
141
1.0
290
     1
  0
SCALE
  5
B180
102
{ACAD_REACTORS
330
B17E
102
}
330
B17E
100
AcDbScale
 70
     0
300
1:2
140
1.0
141
2.0
290
     0
  0
SCALE
  5
B181
102
{ACAD_REACTORS
330
B17E
102
}
330
B17E
100
AcDbScale
 70
     0
300
1:4
140
1.0
141
4.0
290
     0
  0
SCALE
  5
B182
102
{ACAD_REACTORS
330
B17E
102
}
330
B17E
100
AcDbScale
 70
     0
300
1:5
140
1.0
141
5.0
290
     0
  0
SCALE
  5
B183
102
{ACAD_REACTORS
330
B17E
102
}
330
B17E
100
AcDbScale
 70
     0
300
1:8
140
1.0
141
8.0
290
     0
  0
SCALE
  5
B184
102
{ACAD_REACTORS
330
B17E
102
}
330
B17E
100
AcDbScale
 70
     0
300
1:10
140
1.0
141
10.0
290
     0
  0
SCALE
  5
B185
102
{ACAD_REACTORS
330
B17E
102
}
330
B17E
100
AcDbScale
 70
     0
300
1:16
140
1.0
141
16.0
290
     0
  0
SCALE
  5
B186
102
{ACAD_REACTORS
330
B17E
102
}
330
B17E
100
AcDbScale
 70
     0
300
1:20
140
1.0
141
20.0
290
     0
  0
SCALE
  5
B187
102
{ACAD_REACTORS
330
B17E
102
}
330
B17E
100
AcDbScale
 70
     0
300
1:30
140
1.0
141
30.0
290
     0
  0
SCALE
  5
B188
102
{ACAD_REACTORS
330
B17E
102
}
330
B17E
100
AcDbScale
 70
     0
300
1:40
140
1.0
141
40.0
290
     0
  0
SCALE
  5
B189
102
{ACAD_REACTORS
330
B17E
102
}
330
B17E
100
AcDbScale
 70
     0
300
1:50
140
1.0
141
50.0
290
     0
  0
SCALE
  5
B18A
102
{ACAD_REACTORS
330
B17E
102
}
330
B17E
100
AcDbScale
 70
     0
300
1:100
140
1.0
141
100.0
290
     0
  0
SCALE
  5
B18B
102
{ACAD_REACTORS
330
B17E
102
}
330
B17E
100
AcDbScale
 70
     0
300
2:1
140
2.0
141
1.0
290
     0
  0
SCALE
  5
B18C
102
{ACAD_REACTORS
330
B17E
102
}
330
B17E
100
AcDbScale
 70
     0
300
4:1
140
4.0
141
1.0
290
     0
  0
SCALE
  5
B18D
102
{ACAD_REACTORS
330
B17E
102
}
330
B17E
100
AcDbScale
 70
     0
300
8:1
140
8.0
141
1.0
290
     0
  0
SCALE
  5
B18E
102
{ACAD_REACTORS
330
B17E
102
}
330
B17E
100
AcDbScale
 70
     0
300
10:1
140
10.0
141
1.0
290
     0
  0
SCALE
  5
B18F
102
{ACAD_REACTORS
330
B17E
102
}
330
B17E
100
AcDbScale
 70
     0
300
100:1
140
100.0
141
1.0
290
     0
  0
ACDBSECTIONVIEWSTYLE
  5
B193
102
{ACAD_REACTORS
330
B192
102
}
330
B192
100
AcDbModelDocViewStyle
 70
     0
  3
Metric50
290
     0
100
AcDbSectionViewStyle
 70
     0
 71
     0
 90
      102
 71
     1
340
F
 40
5.0
340
0
340
0
 40
5.0
300
I, O, Q, S, X, Z
 40
10.0
 90
        0
 40
2.5
 90
        0
 71
     2
340
14
 90
       25
340
14
 90
       50
 40
5.0
 40
2.5
 40
5.0
 71
     3
340
F
 40
5.0
 90
        0
 40
15.0
 90
        1
300
%<\AcVar ViewSectionStartId>%-%<\AcVar ViewSectionEndId>% (%<\AcVar ViewScale \f "%sn">%)
 71
     4
300
ANSI31
 40
1.0
 90
        0
290
     0
290
     0
 90
        6
 40
0.0
 40
1.570796326794896
 40
0.2617993877991494
 40
1.308996938995747
 40
-0.2617993877991494
 40
1.832595714594046
  0
TABLESTYLE
  5
B17D
102
{ACAD_XDICTIONARY
360
B1BB
102
}
102
{ACAD_REACTORS
330
B17C
102
}
330
B17C
100
AcDbTableStyle
  3
Standard
 70
     0
 71
     0
 40
1.5
 41
1.5
280
     0
281
     0
  7
STANDARD
140
4.5
170
     2
 62
     0
 63
     7
283
     0
274
    -2
284
     1
 64
     0
275
    -2
285
     1
 65
     0
276
    -2
286
     1
 66
     0
277
    -2
287
     1
 67
     0
278
    -2
288
     1
 68
     0
279
    -2
289
     1
 69
     0
  7
STANDARD
140
6.0
170
     5
 62
     0
 63
     7
283
     0
274
    -2
284
     1
 64
     0
275
    -2
285
     1
 65
     0
276
    -2
286
     1
 66
     0
277
    -2
287
     1
 67
     0
278
    -2
288
     1
 68
     0
279
    -2
289
     1
 69
     0
  7
STANDARD
140
4.5
170
     5
 62
     0
 63
     7
283
     0
274
    -2
284
     1
 64
     0
275
    -2
285
     1
 65
     0
276
    -2
286
     1
 66
     0
277
    -2
287
     1
 67
     0
278
    -2
288
     1
 68
     0
279
    -2
289
     1
 69
     0
  0
VISUALSTYLE
  5
B168
102
{ACAD_XDICTIONARY
360
B1D4
102
}
102
{ACAD_REACTORS
330
B162
102
}
330
B162
100
AcDbVisualStyle
  2
2dWireframe
 70
     4
 71
     0
 72
     2
 73
     0
 90
        0
 40
-0.6
 41
-30.0
 62
     5
 63
     7
 74
     1
 91
        4
 64
     7
 65
   257
 75
     1
175
     1
 42
1.0
 92
        0
 66
   257
 43
1.0
 76
     1
 77
     6
 78
     2
 67
     7
 79
     5
170
     0
171
     0
290
     0
174
     0
 93
        1
 44
0.0
173
     0
291
     0
 45
0.0
1001
ACAD
1000
AcDbSavedByObjectVersion
1070
     0
  0
VISUALSTYLE
  5
B167
102
{ACAD_XDICTIONARY
360
B1D2
102
}
102
{ACAD_REACTORS
330
B162
102
}
330
B162
100
AcDbVisualStyle
  2
Basic
 70
     7
 71
     1
 72
     0
 73
     1
 90
        0
 40
-0.6
 41
-30.0
 62
     5
 63
     7
 74
     0
 91
        4
 64
     7
 65
   257
 75
     1
175
     1
 42
1.0
 92
        8
 66
     7
 43
1.0
 76
     1
 77
     6
 78
     2
 67
     7
 79
     5
170
     0
171
     0
290
     0
174
     0
 93
        1
 44
0.0
173
     0
291
     1
 45
0.0
1001
ACAD
1000
AcDbSavedByObjectVersion
1070
     0
  0
VISUALSTYLE
  5
B16E
102
{ACAD_XDICTIONARY
360
B1E0
102
}
102
{ACAD_REACTORS
330
B162
102
}
330
B162
100
AcDbVisualStyle
  2
Brighten
 70
    12
 71
     2
 72
     2
 73
     0
 90
        0
 40
-0.6
 41
-30.0
 62
     5
 63
     7
 74
     1
 91
        4
 64
     7
 65
   257
 75
     1
175
     1
 42
1.0
 92
        8
 66
     7
 43
1.0
 76
     1
 77
     6
 78
     2
 67
     7
 79
     5
170
     0
171
     0
290
     0
174
     0
 93
        1
 44
50.0
173
     0
291
     1
 45
0.0
1001
ACAD
1000
AcDbSavedByObjectVersion
1070
     0
  0
VISUALSTYLE
  5
B172
102
{ACAD_XDICTIONARY
360
B1E8
102
}
102
{ACAD_REACTORS
330
B162
102
}
330
B162
100
AcDbVisualStyle
  2
ColorChange
 70
    16
 71
     2
 72
     2
 73
     3
 90
        0
 40
-0.6
 41
-30.0
 62
     5
 63
     8
 74
     1
 91
        4
 64
     7
 65
   257
 75
     1
175
     1
 42
1.0
 92
        8
 66
     8
 43
1.0
 76
     1
 77
     6
 78
     2
 67
     7
 79
     5
170
     0
171
     0
290
     0
174
     0
 93
        1
 44
0.0
173
     0
291
     1
 45
0.0
1001
ACAD
1000
AcDbSavedByObjectVersion
1070
     0
  0
VISUALSTYLE
  5
B16B
102
{ACAD_XDICTIONARY
360
B1DA
102
}
102
{ACAD_REACTORS
330
B162
102
}
330
B162
100
AcDbVisualStyle
  2
Conceptual
 70
     9
 71
     3
 72
     2
 73
     0
 90
        0
 40
-0.6
 41
-30.0
 62
     5
 63
     7
 74
     2
 91
        2
 64
     7
 65
   257
 75
     1
175
     1
 42
179.0
 92
        8
 66
     7
 43
1.0
 76
     1
 77
     6
 78
     2
 67
     7
 79
     3
170
     0
171
     0
290
     0
174
     0
 93
        1
 44
0.0
173
     0
291
     0
 45
0.0
1001
ACAD
1000
AcDbSavedByObjectVersion
1070
     0
  0
VISUALSTYLE
  5
B16D
102
{ACAD_XDICTIONARY
360
B1DE
102
}
102
{ACAD_REACTORS
330
B162
102
}
330
B162
100
AcDbVisualStyle
  2
Dim
 70
    11
 71
     2
 72
     2
 73
     0
 90
        0
 40
-0.6
 41
-30.0
 62
     5
 63
     7
 74
     1
 91
        4
 64
     7
 65
   257
 75
     1
175
     1
 42
1.0
 92
        8
 66
     7
 43
1.0
 76
     1
 77
     6
 78
     2
 67
     7
 79
     5
170
     0
171
     0
290
     0
174
     0
 93
        1
 44
-50.0
173
     0
291
     1
 45
0.0
1001
ACAD
1000
AcDbSavedByObjectVersion
1070
     0
  0
VISUALSTYLE
  5
B17A
102
{ACAD_XDICTIONARY
360
B1F8
102
}
102
{ACAD_REACTORS
330
B162
102
}
330
B162
100
AcDbVisualStyle
  2
EdgeColorOff
 70
    22
 71
     2
 72
     2
 73
     0
 90
        0
 40
-0.6
 41
-30.0
 62
     5
 63
     7
 74
     1
 91
        4
 64
     7
 65
   257
 75
     1
175
     1
 42
1.0
 92
        8
 66
     7
 43
1.0
 76
     1
 77
     6
 78
     2
 67
     7
 79
     5
170
     0
171
     0
290
     0
174
     0
 93
        1
 44
0.0
173
     0
291
     1
 45
0.0
1001
ACAD
1000
AcDbSavedByObjectVersion
1070
     0
  0
VISUALSTYLE
  5
B171
102
{ACAD_XDICTIONARY
360
B1E6
102
}
102
{ACAD_REACTORS
330
B162
102
}
330
B162
100
AcDbVisualStyle
  2
Facepattern
 70
    15
 71
     2
 72
     2
 73
     0
 90
        0
 40
-0.6
 41
-30.0
 62
     5
 63
     7
 74
     1
 91
        4
 64
     7
 65
   257
 75
     1
175
     1
 42
1.0
 92
        8
 66
     7
 43
1.0
 76
     1
 77
     6
 78
     2
 67
     7
 79
     5
170
     0
171
     0
290
     0
174
     0
 93
        1
 44
0.0
173
     0
291
     1
 45
0.0
1001
ACAD
1000
AcDbSavedByObjectVersion
1070
     0
  0
VISUALSTYLE
  5
B163
102
{ACAD_XDICTIONARY
360
B1CA
102
}
102
{ACAD_REACTORS
330
B162
102
}
330
B162
100
AcDbVisualStyle
  2
Flat
 70
     0
 71
     2
 72
     1
 73
     1
 90
        2
 40
-0.6
 41
30.0
 62
     5
 63
     7
 74
     0
 91
        0
 64
     7
 65
   257
 75
     1
175
     1
 42
1.0
 92
        8
 66
     7
 43
1.0
 76
     1
 77
     6
 78
     2
 67
     7
 79
     5
170
     0
171
     0
290
     0
174
     0
 93
       13
 44
0.0
173
     0
291
     1
 45
0.0
1001
ACAD
1000
AcDbSavedByObjectVersion
1070
     0
  0
VISUALSTYLE
  5
B164
102
{ACAD_XDICTIONARY
360
B1CC
102
}
102
{ACAD_REACTORS
330
B162
102
}
330
B162
100
AcDbVisualStyle
  2
FlatWithEdges
 70
     1
 71
     2
 72
     1
 73
     1
 90
        2
 40
-0.6
 41
30.0
 62
     5
 63
     7
 74
     1
 91
        0
 64
     7
 65
   257
 75
     1
175
     1
 42
1.0
 92
        0
 66
   257
 43
1.0
 76
     1
 77
     6
 78
     2
 67
     7
 79
     5
170
     0
171
     0
290
     0
174
     0
 93
       13
 44
0.0
173
     0
291
     1
 45
0.0
1001
ACAD
1000
AcDbSavedByObjectVersion
1070
     0
  0
VISUALSTYLE
  5
B165
102
{ACAD_XDICTIONARY
360
B1CE
102
}
102
{ACAD_REACTORS
330
B162
102
}
330
B162
100
AcDbVisualStyle
  2
Gouraud
 70
     2
 71
     2
 72
     2
 73
     1
 90
        2
 40
-0.6
 41
30.0
 62
     5
 63
     7
 74
     0
 91
        0
 64
     7
 65
   257
 75
     1
175
     1
 42
1.0
 92
        0
 66
     7
 43
1.0
 76
     1
 77
     6
 78
     2
 67
     7
 79
     5
170
     0
171
     0
290
     0
174
     0
 93
       13
 44
0.0
173
     0
291
     1
 45
0.0
1001
ACAD
1000
AcDbSavedByObjectVersion
1070
     0
  0
VISUALSTYLE
  5
B166
102
{ACAD_XDICTIONARY
360
B1D0
102
}
102
{ACAD_REACTORS
330
B162
102
}
330
B162
100
AcDbVisualStyle
  2
GouraudWithEdges
 70
     3
 71
     2
 72
     2
 73
     1
 90
        2
 40
-0.6
 41
30.0
 62
     5
 63
     7
 74
     1
 91
        0
 64
     7
 65
   257
 75
     1
175
     1
 42
1.0
 92
        0
 66
   257
 43
1.0
 76
     1
 77
     6
 78
     2
 67
     7
 79
     5
170
     0
171
     0
290
     0
174
     0
 93
       13
 44
0.0
173
     0
291
     1
 45
0.0
1001
ACAD
1000
AcDbSavedByObjectVersion
1070
     0
  0
VISUALSTYLE
  5
B16A
102
{ACAD_XDICTIONARY
360
B1D8
102
}
102
{ACAD_REACTORS
330
B162
102
}
330
B162
100
AcDbVisualStyle
  2
Hidden
 70
     6
 71
     1
 72
     2
 73
     2
 90
        0
 40
-0.6
 41
-30.0
 62
     5
 63
     7
 74
     2
 91
        2
 64
     7
 65
   257
 75
     2
175
     1
 42
40.0
 92
        0
 66
   257
 43
1.0
 76
     1
 77
     6
 78
     2
 67
     7
 79
     3
170
     0
171
     0
290
     0
174
     0
 93
        1
 44
0.0
173
     0
291
     0
 45
0.0
1001
ACAD
1000
AcDbSavedByObjectVersion
1070
     0
  0
VISUALSTYLE
  5
B178
102
{ACAD_XDICTIONARY
360
B1F4
102
}
102
{ACAD_REACTORS
330
B162
102
}
330
B162
100
AcDbVisualStyle
  2
JitterOff
 70
    20
 71
     2
 72
     2
 73
     0
 90
        0
 40
-0.6
 41
-30.0
 62
     5
 63
     7
 74
     1
 91
        4
 64
     7
 65
   257
 75
     1
175
     1
 42
1.0
 92
       10
 66
     7
 43
1.0
 76
     1
 77
     6
 78
     2
 67
     7
 79
     5
170
     0
171
     0
290
     0
174
     0
 93
        1
 44
0.0
173
     0
291
     1
 45
0.0
1001
ACAD
1000
AcDbSavedByObjectVersion
1070
     0
  0
VISUALSTYLE
  5
B170
102
{ACAD_XDICTIONARY
360
B1E4
102
}
102
{ACAD_REACTORS
330
B162
102
}
330
B162
100
AcDbVisualStyle
  2
Linepattern
 70
    14
 71
     2
 72
     2
 73
     0
 90
        0
 40
-0.6
 41
-30.0
 62
     5
 63
     7
 74
     1
 91
        4
 64
     7
 65
   257
 75
     7
175
     7
 42
1.0
 92
        8
 66
     7
 43
1.0
 76
     1
 77
     6
 78
     2
 67
     7
 79
     5
170
     0
171
     0
290
     0
174
     0
 93
        1
 44
0.0
173
     0
291
     1
 45
0.0
1001
ACAD
1000
AcDbSavedByObjectVersion
1070
     0
  0
VISUALSTYLE
  5
B179
102
{ACAD_XDICTIONARY
360
B1F6
102
}
102
{ACAD_REACTORS
330
B162
102
}
330
B162
100
AcDbVisualStyle
  2
OverhangOff
 70
    21
 71
     2
 72
     2
 73
     0
 90
        0
 40
-0.6
 41
-30.0
 62
     5
 63
     7
 74
     1
 91
        4
 64
     7
 65
   257
 75
     1
175
     1
 42
1.0
 92
        9
 66
     7
 43
1.0
 76
     1
 77
     6
 78
     2
 67
     7
 79
     5
170
     0
171
     0
290
     0
174
     0
 93
        1
 44
0.0
173
     0
291
     1
 45
0.0
1001
ACAD
1000
AcDbSavedByObjectVersion
1070
     0
  0
VISUALSTYLE
  5
B16C
102
{ACAD_XDICTIONARY
360
B1DC
102
}
102
{ACAD_REACTORS
330
B162
102
}
330
B162
100
AcDbVisualStyle
  2
Realistic
 70
     8
 71
     2
 72
     3
 73
     0
 90
        2
 40
-0.6
 41
30.0
 62
     5
 63
     7
 74
     0
 91
        0
 64
     7
 65
   257
 75
     1
175
     1
 42
1.0
 92
        8
 66
   257
 43
1.0
 76
     1
 77
     6
 78
     2
 67
     7
 79
     3
170
     0
171
     0
290
     0
174
     0
 93
       13
 44
0.0
173
     0
291
     0
 45
0.0
1001
ACAD
1000
AcDbSavedByObjectVersion
1070
     0
  0
VISUALSTYLE
  5
B177
102
{ACAD_XDICTIONARY
360
B1F2
102
}
102
{ACAD_REACTORS
330
B162
102
}
330
B162
100
AcDbVisualStyle
  2
Shaded
 70
    27
 71
     2
 72
     2
 73
     1
 90
        2
 40
-0.6
 41
30.0
 62
     5
 63
     7
 74
     0
 91
        4
 64
     7
 65
   257
 75
     1
175
     1
 42
1.0
 92
        8
 66
   257
 43
1.0
 76
     1
 77
     6
 78
     2
 67
     8
 79
     3
170
     0
171
     0
290
     0
174
     0
 93
        5
 44
0.0
173
     0
291
     0
 45
0.0
1001
ACAD
1000
AcDbSavedByObjectVersion
1070
     0
  0
VISUALSTYLE
  5
B176
102
{ACAD_XDICTIONARY
360
B1F0
102
}
102
{ACAD_REACTORS
330
B162
102
}
330
B162
100
AcDbVisualStyle
  2
Shaded with edges
 70
    26
 71
     2
 72
     2
 73
     1
 90
        2
 40
-0.6
 41
30.0
 62
     5
 63
     7
 74
     1
 91
       10
 64
     7
 65
   257
 75
     2
175
     1
 42
1.0
 92
        8
 66
   257
 43
1.0
 76
     1
 77
     6
 78
     2
 67
     7
 79
     3
170
     0
171
     0
290
     0
174
     0
 93
        5
 44
0.0
173
     0
291
     0
 45
0.0
1001
ACAD
1000
AcDbSavedByObjectVersion
1070
     0
  0
VISUALSTYLE
  5
B173
102
{ACAD_XDICTIONARY
360
B1EA
102
}
102
{ACAD_REACTORS
330
B162
102
}
330
B162
100
AcDbVisualStyle
  2
Shades of Gray
 70
    23
 71
     2
 72
     2
 73
     3
 90
        0
 40
-0.6
 41
-30.0
 62
     5
 63
     7
 74
     2
 91
        2
 64
     7
 65
     7
 75
     1
175
     1
 42
40.0
 92
        8
 66
     7
 43
1.0
 76
     1
 77
     6
 78
     2
 67
     7
 79
     3
170
     0
171
     0
290
     0
174
     0
 93
        1
 44
0.0
173
     0
291
     0
 45
0.0
1001
ACAD
1000
AcDbSavedByObjectVersion
1070
     0
  0
VISUALSTYLE
  5
B174
102
{ACAD_XDICTIONARY
360
B1EC
102
}
102
{ACAD_REACTORS
330
B162
102
}
330
B162
100
AcDbVisualStyle
  2
Sketchy
 70
    24
 71
     1
 72
     2
 73
     2
 90
        0
 40
-0.6
 41
-30.0
 62
     5
 63
     7
 74
     2
 91
        2
 64
     7
 65
     7
 75
     1
175
     1
 42
40.0
 92
       11
 66
     7
 43
1.0
 76
     1
 77
     6
 78
     2
 67
     7
 79
     6
170
     0
171
     0
290
     0
174
     0
 93
        1
 44
0.0
173
     0
291
     0
 45
0.0
1001
ACAD
1000
AcDbSavedByObjectVersion
1070
     0
  0
VISUALSTYLE
  5
B16F
102
{ACAD_XDICTIONARY
360
B1E2
102
}
102
{ACAD_REACTORS
330
B162
102
}
330
B162
100
AcDbVisualStyle
  2
Thicken
 70
    13
 71
     2
 72
     2
 73
     0
 90
        0
 40
-0.6
 41
-30.0
 62
     5
 63
     7
 74
     1
 91
        4
 64
     7
 65
   257
 75
     1
175
     1
 42
1.0
 92
       12
 66
     7
 43
1.0
 76
     1
 77
     6
 78
     2
 67
     7
 79
     5
170
     0
171
     0
290
     0
174
     0
 93
        1
 44
0.0
173
     0
291
     1
 45
0.0
1001
ACAD
1000
AcDbSavedByObjectVersion
1070
     0
  0
VISUALSTYLE
  5
B169
102
{ACAD_XDICTIONARY
360
B1D6
102
}
102
{ACAD_REACTORS
330
B162
102
}
330
B162
100
AcDbVisualStyle
  2
Wireframe
 70
     5
 71
     0
 72
     2
 73
     0
 90
        0
 40
-0.6
 41
-30.0
 62
     5
 63
     7
 74
     1
 91
        4
 64
     7
 65
   257
 75
     1
175
     1
 42
1.0
 92
        0
 66
   257
 43
1.0
 76
     1
 77
     6
 78
     2
 67
     7
 79
     3
170
     0
171
     0
290
     0
174
     0
 93
        1
 44
0.0
173
     0
291
     0
 45
0.0
1001
ACAD
1000
AcDbSavedByObjectVersion
1070
     0
  0
VISUALSTYLE
  5
B175
102
{ACAD_XDICTIONARY
360
B1EE
102
}
102
{ACAD_REACTORS
330
B162
102
}
330
B162
100
AcDbVisualStyle
  2
X-Ray
 70
    25
 71
     2
 72
     2
 73
     1
 90
        1
 40
0.5
 41
-30.0
 62
     5
 63
     7
 74
     1
 91
        0
 64
     7
 65
   257
 75
     1
175
     1
 42
1.0
 92
        8
 66
     7
 43
1.0
 76
     1
 77
     6
 78
     2
 67
     7
 79
     3
170
     0
171
     0
290
     0
174
     0
 93
       13
 44
0.0
173
     0
291
     0
 45
0.0
1001
ACAD
1000
AcDbSavedByObjectVersion
1070
     0
  0
DICTIONARYVAR
  5
B1B6
102
{ACAD_REACTORS
330
36
102
}
330
36
100
DictionaryVariables
280
     0
  1
1:1
  0
DICTIONARYVAR
  5
B1B3
102
{ACAD_REACTORS
330
36
102
}
330
36
100
DictionaryVariables
280
     0
  1
STANDARD
  0
DICTIONARYVAR
  5
B1B2
102
{ACAD_REACTORS
330
36
102
}
330
36
100
DictionaryVariables
280
     0
  1
STANDARD
  0
DICTIONARYVAR
  5
B1B4
102
{ACAD_REACTORS
330
36
102
}
330
36
100
DictionaryVariables
280
     0
  1
Metric50
  0
DICTIONARYVAR
  5
B1B5
102
{ACAD_REACTORS
330
36
102
}
330
36
100
DictionaryVariables
280
     0
  1
Metric50
  0
DICTIONARYVAR
  5
37
102
{ACAD_REACTORS
330
36
102
}
330
36
100
DictionaryVariables
280
     0
  1
0
  0
DICTIONARYVAR
  5
B1B8
102
{ACAD_REACTORS
330
36
102
}
330
36
100
DictionaryVariables
280
     0
  1
1
  0
DICTIONARYVAR
  5
B1B7
102
{ACAD_REACTORS
330
36
102
}
330
36
100
DictionaryVariables
280
     0
  1
0
  0
DICTIONARYVAR
  5
10E
102
{ACAD_REACTORS
330
36
102
}
330
36
100
DictionaryVariables
280
     0
  1
96
  0
DICTIONARYVAR
  5
B1B9
102
{ACAD_REACTORS
330
36
102
}
330
36
100
DictionaryVariables
280
     0
  1
2
  0
DICTIONARY
  5
B1C5
330
A2C7
100
AcDbDictionary
280
     1
281
     1
  3
ACAD_XREC_ROUNDTRIP
360
B1C6
  0
DICTIONARY
  5
B1C3
330
A2C6
100
AcDbDictionary
280
     1
281
     1
  3
ACAD_XREC_ROUNDTRIP
360
B1C4
  0
DICTIONARY
  5
B153
330
B152
100
AcDbDictionary
280
     1
281
     1
  3
ACAD_XREC_ROUNDTRIP
360
B1C8
  3
BUMPTILE
360
B155
  3
DIFFUSETILE
360
B154
  3
OPACITYTILE
360
B158
  3
REFLECTIONTILE
360
B157
  3
REFRACTIONTILE
360
B159
  3
SPECULARTILE
360
B156
  0
DICTIONARY
  5
B14B
330
B14A
100
AcDbDictionary
280
     1
281
     1
  3
ACAD_XREC_ROUNDTRIP
360
B1C7
  3
BUMPTILE
360
B14D
  3
DIFFUSETILE
360
B14C
  3
OPACITYTILE
360
B150
  3
REFLECTIONTILE
360
B14F
  3
REFRACTIONTILE
360
B151
  3
SPECULARTILE
360
B14E
  0
DICTIONARY
  5
B15B
330
B15A
100
AcDbDictionary
280
     1
281
     1
  3
ACAD_XREC_ROUNDTRIP
360
B1C9
  3
BUMPTILE
360
B15D
  3
DIFFUSETILE
360
B15C
  3
OPACITYTILE
360
B160
  3
REFLECTIONTILE
360
B15F
  3
REFRACTIONTILE
360
B161
  3
SPECULARTILE
360
B15E
  0
DICTIONARY
  5
B1FC
330
B191
100
AcDbDictionary
280
     1
281
     1
  3
ACAD_XREC_ROUNDTRIP
360
B1FD
  0
DICTIONARY
  5
B1BB
330
B17D
100
AcDbDictionary
280
     1
281
     1
  3
ACAD_ROUNDTRIP_2008_TABLESTYLE_CELLSTYLEMAP
360
B1BC
  3
ACAD_XREC_ROUNDTRIP
360
B1FA
  0
DICTIONARY
  5
B1D4
330
B168
100
AcDbDictionary
280
     1
281
     1
  3
ACAD_XREC_ROUNDTRIP
360
B1D5
  0
DICTIONARY
  5
B1D2
330
B167
100
AcDbDictionary
280
     1
281
     1
  3
ACAD_XREC_ROUNDTRIP
360
B1D3
  0
DICTIONARY
  5
B1E0
330
B16E
100
AcDbDictionary
280
     1
281
     1
  3
ACAD_XREC_ROUNDTRIP
360
B1E1
  0
DICTIONARY
  5
B1E8
330
B172
100
AcDbDictionary
280
     1
281
     1
  3
ACAD_XREC_ROUNDTRIP
360
B1E9
  0
DICTIONARY
  5
B1DA
330
B16B
100
AcDbDictionary
280
     1
281
     1
  3
ACAD_XREC_ROUNDTRIP
360
B1DB
  0
DICTIONARY
  5
B1DE
330
B16D
100
AcDbDictionary
280
     1
281
     1
  3
ACAD_XREC_ROUNDTRIP
360
B1DF
  0
DICTIONARY
  5
B1F8
330
B17A
100
AcDbDictionary
280
     1
281
     1
  3
ACAD_XREC_ROUNDTRIP
360
B1F9
  0
DICTIONARY
  5
B1E6
330
B171
100
AcDbDictionary
280
     1
281
     1
  3
ACAD_XREC_ROUNDTRIP
360
B1E7
  0
DICTIONARY
  5
B1CA
330
B163
100
AcDbDictionary
280
     1
281
     1
  3
ACAD_XREC_ROUNDTRIP
360
B1CB
  0
DICTIONARY
  5
B1CC
330
B164
100
AcDbDictionary
280
     1
281
     1
  3
ACAD_XREC_ROUNDTRIP
360
B1CD
  0
DICTIONARY
  5
B1CE
330
B165
100
AcDbDictionary
280
     1
281
     1
  3
ACAD_XREC_ROUNDTRIP
360
B1CF
  0
DICTIONARY
  5
B1D0
330
B166
100
AcDbDictionary
280
     1
281
     1
  3
ACAD_XREC_ROUNDTRIP
360
B1D1
  0
DICTIONARY
  5
B1D8
330
B16A
100
AcDbDictionary
280
     1
281
     1
  3
ACAD_XREC_ROUNDTRIP
360
B1D9
  0
DICTIONARY
  5
B1F4
330
B178
100
AcDbDictionary
280
     1
281
     1
  3
ACAD_XREC_ROUNDTRIP
360
B1F5
  0
DICTIONARY
  5
B1E4
330
B170
100
AcDbDictionary
280
     1
281
     1
  3
ACAD_XREC_ROUNDTRIP
360
B1E5
  0
DICTIONARY
  5
B1F6
330
B179
100
AcDbDictionary
280
     1
281
     1
  3
ACAD_XREC_ROUNDTRIP
360
B1F7
  0
DICTIONARY
  5
B1DC
330
B16C
100
AcDbDictionary
280
     1
281
     1
  3
ACAD_XREC_ROUNDTRIP
360
B1DD
  0
DICTIONARY
  5
B1F2
330
B177
100
AcDbDictionary
280
     1
281
     1
  3
ACAD_XREC_ROUNDTRIP
360
B1F3
  0
DICTIONARY
  5
B1F0
330
B176
100
AcDbDictionary
280
     1
281
     1
  3
ACAD_XREC_ROUNDTRIP
360
B1F1
  0
DICTIONARY
  5
B1EA
330
B173
100
AcDbDictionary
280
     1
281
     1
  3
ACAD_XREC_ROUNDTRIP
360
B1EB
  0
DICTIONARY
  5
B1EC
330
B174
100
AcDbDictionary
280
     1
281
     1
  3
ACAD_XREC_ROUNDTRIP
360
B1ED
  0
DICTIONARY
  5
B1E2
330
B16F
100
AcDbDictionary
280
     1
281
     1
  3
ACAD_XREC_ROUNDTRIP
360
B1E3
  0
DICTIONARY
  5
B1D6
330
B169
100
AcDbDictionary
280
     1
281
     1
  3
ACAD_XREC_ROUNDTRIP
360
B1D7
  0
DICTIONARY
  5
B1EE
330
B175
100
AcDbDictionary
280
     1
281
     1
  3
ACAD_XREC_ROUNDTRIP
360
B1EF
  0
XRECORD
  5
B1C6
102
{ACAD_REACTORS
330
B1C5
102
}
330
B1C5
100
AcDbXrecord
280
     1
102
SHADEPLOT
 70
     0
102
SHADEPLOTRESLEVEL
 70
     2
102
SHADEPLOTCUSTOMDPI
 70
   300
  0
XRECORD
  5
B1C4
102
{ACAD_REACTORS
330
B1C3
102
}
330
B1C3
100
AcDbXrecord
280
     1
102
SHADEPLOT
 70
     0
102
SHADEPLOTRESLEVEL
 70
     2
102
SHADEPLOTCUSTOMDPI
 70
   300
  0
XRECORD
  5
B1C8
102
{ACAD_REACTORS
330
B153
102
}
330
B153
100
AcDbXrecord
280
     1
102
MATERIAL
148
0.0
149
0.0
149
0.0
 93
        0
 94
      127
282
     0
 72
     0
 77
     0
171
     0
175
     0
179
     0
273
     0
  0
XRECORD
  5
B155
102
{ACAD_REACTORS
330
B153
102
}
330
B153
100
AcDbXrecord
280
     1
270
     1
271
     1
  0
XRECORD
  5
B154
102
{ACAD_REACTORS
330
B153
102
}
330
B153
100
AcDbXrecord
280
     1
270
     1
271
     1
  0
XRECORD
  5
B158
102
{ACAD_REACTORS
330
B153
102
}
330
B153
100
AcDbXrecord
280
     1
270
     1
271
     1
  0
XRECORD
  5
B157
102
{ACAD_REACTORS
330
B153
102
}
330
B153
100
AcDbXrecord
280
     1
270
     1
271
     1
  0
XRECORD
  5
B159
102
{ACAD_REACTORS
330
B153
102
}
330
B153
100
AcDbXrecord
280
     1
270
     1
271
     1
  0
XRECORD
  5
B156
102
{ACAD_REACTORS
330
B153
102
}
330
B153
100
AcDbXrecord
280
     1
270
     1
271
     1
  0
XRECORD
  5
B1C7
102
{ACAD_REACTORS
330
B14B
102
}
330
B14B
100
AcDbXrecord
280
     1
102
MATERIAL
148
0.0
149
0.0
149
0.0
 93
        0
 94
      127
282
     0
 72
     0
 77
     0
171
     0
175
     0
179
     0
273
     0
  0
XRECORD
  5
B14D
102
{ACAD_REACTORS
330
B14B
102
}
330
B14B
100
AcDbXrecord
280
     1
270
     1
271
     1
  0
XRECORD
  5
B14C
102
{ACAD_REACTORS
330
B14B
102
}
330
B14B
100
AcDbXrecord
280
     1
270
     1
271
     1
  0
XRECORD
  5
B150
102
{ACAD_REACTORS
330
B14B
102
}
330
B14B
100
AcDbXrecord
280
     1
270
     1
271
     1
  0
XRECORD
  5
B14F
102
{ACAD_REACTORS
330
B14B
102
}
330
B14B
100
AcDbXrecord
280
     1
270
     1
271
     1
  0
XRECORD
  5
B151
102
{ACAD_REACTORS
330
B14B
102
}
330
B14B
100
AcDbXrecord
280
     1
270
     1
271
     1
  0
XRECORD
  5
B14E
102
{ACAD_REACTORS
330
B14B
102
}
330
B14B
100
AcDbXrecord
280
     1
270
     1
271
     1
  0
XRECORD
  5
B1C9
102
{ACAD_REACTORS
330
B15B
102
}
330
B15B
100
AcDbXrecord
280
     1
102
MATERIAL
148
0.0
149
0.0
149
0.0
 93
        0
 94
      127
282
     0
 72
     0
 77
     0
171
     0
175
     0
179
     0
273
     0
  0
XRECORD
  5
B15D
102
{ACAD_REACTORS
330
B15B
102
}
330
B15B
100
AcDbXrecord
280
     1
270
     1
271
     1
  0
XRECORD
  5
B15C
102
{ACAD_REACTORS
330
B15B
102
}
330
B15B
100
AcDbXrecord
280
     1
270
     1
271
     1
  0
XRECORD
  5
B160
102
{ACAD_REACTORS
330
B15B
102
}
330
B15B
100
AcDbXrecord
280
     1
270
     1
271
     1
  0
XRECORD
  5
B15F
102
{ACAD_REACTORS
330
B15B
102
}
330
B15B
100
AcDbXrecord
280
     1
270
     1
271
     1
  0
XRECORD
  5
B161
102
{ACAD_REACTORS
330
B15B
102
}
330
B15B
100
AcDbXrecord
280
     1
270
     1
271
     1
  0
XRECORD
  5
B15E
102
{ACAD_REACTORS
330
B15B
102
}
330
B15B
100
AcDbXrecord
280
     1
270
     1
271
     1
  0
XRECORD
  5
B1FD
102
{ACAD_REACTORS
330
B1FC
102
}
330
B1FC
100
AcDbXrecord
280
     1
102
ACAD_ROUNDTRIP_2012_MLEADER_STYLE
298
     1
  0
CELLSTYLEMAP
  5
B1BC
102
{ACAD_REACTORS
330
B1BB
102
}
330
B1BB
100
AcDbCellStyleMap
 90
        3
300
CELLSTYLE
  1
TABLEFORMAT_BEGIN
 90
        5
170
     1
 91
        0
 92
    32768
 62
   257
 93
        1
300
CONTENTFORMAT
  1
CONTENTFORMAT_BEGIN
 90
        0
 91
        0
 92
      512
 93
        0
300

 40
0.0
140
1.0
 94
        5
 62
     0
340
F
144
6.0
309
CONTENTFORMAT_END
171
     1
301
MARGIN
  1
CELLMARGIN_BEGIN
 40
1.5
 40
1.5
 40
1.5
 40
1.5
 40
4.5
 40
4.5
309
CELLMARGIN_END
 94
        6
 95
        1
302
GRIDFORMAT
  1
GRIDFORMAT_BEGIN
 90
        0
 91
        1
 62
     0
 92
       -2
340
0
 93
        0
 40
1.125
309
GRIDFORMAT_END
 95
        2
302
GRIDFORMAT
  1
GRIDFORMAT_BEGIN
 90
        0
 91
        1
 62
     0
 92
       -2
340
0
 93
        0
 40
1.125
309
GRIDFORMAT_END
 95
        4
302
GRIDFORMAT
  1
GRIDFORMAT_BEGIN
 90
        0
 91
        1
 62
     0
 92
       -2
340
0
 93
        0
 40
1.125
309
GRIDFORMAT_END
 95
        8
302
GRIDFORMAT
  1
GRIDFORMAT_BEGIN
 90
        0
 91
        1
 62
     0
 92
       -2
340
0
 93
        0
 40
1.125
309
GRIDFORMAT_END
 95
       16
302
GRIDFORMAT
  1
GRIDFORMAT_BEGIN
 90
        0
 91
        1
 62
     0
 92
       -2
340
0
 93
        0
 40
1.125
309
GRIDFORMAT_END
 95
       32
302
GRIDFORMAT
  1
GRIDFORMAT_BEGIN
 90
        0
 91
        1
 62
     0
 92
       -2
340
0
 93
        0
 40
1.125
309
GRIDFORMAT_END
309
TABLEFORMAT_END
  1
CELLSTYLE_BEGIN
 90
        1
 91
        1
300
_TITLE
309
CELLSTYLE_END
300
CELLSTYLE
  1
TABLEFORMAT_BEGIN
 90
        5
170
     1
 91
        0
 92
        0
 62
   257
 93
        1
300
CONTENTFORMAT
  1
CONTENTFORMAT_BEGIN
 90
        0
 91
        0
 92
      512
 93
        0
300

 40
0.0
140
1.0
 94
        5
 62
     0
340
F
144
4.5
309
CONTENTFORMAT_END
171
     1
301
MARGIN
  1
CELLMARGIN_BEGIN
 40
1.5
 40
1.5
 40
1.5
 40
1.5
 40
4.5
 40
4.5
309
CELLMARGIN_END
 94
        6
 95
        1
302
GRIDFORMAT
  1
GRIDFORMAT_BEGIN
 90
        0
 91
        1
 62
     0
 92
       -2
340
0
 93
        0
 40
1.125
309
GRIDFORMAT_END
 95
        2
302
GRIDFORMAT
  1
GRIDFORMAT_BEGIN
 90
        0
 91
        1
 62
     0
 92
       -2
340
0
 93
        0
 40
1.125
309
GRIDFORMAT_END
 95
        4
302
GRIDFORMAT
  1
GRIDFORMAT_BEGIN
 90
        0
 91
        1
 62
     0
 92
       -2
340
0
 93
        0
 40
1.125
309
GRIDFORMAT_END
 95
        8
302
GRIDFORMAT
  1
GRIDFORMAT_BEGIN
 90
        0
 91
        1
 62
     0
 92
       -2
340
0
 93
        0
 40
1.125
309
GRIDFORMAT_END
 95
       16
302
GRIDFORMAT
  1
GRIDFORMAT_BEGIN
 90
        0
 91
        1
 62
     0
 92
       -2
340
0
 93
        0
 40
1.125
309
GRIDFORMAT_END
 95
       32
302
GRIDFORMAT
  1
GRIDFORMAT_BEGIN
 90
        0
 91
        1
 62
     0
 92
       -2
340
0
 93
        0
 40
1.125
309
GRIDFORMAT_END
309
TABLEFORMAT_END
  1
CELLSTYLE_BEGIN
 90
        2
 91
        1
300
_HEADER
309
CELLSTYLE_END
300
CELLSTYLE
  1
TABLEFORMAT_BEGIN
 90
        5
170
     1
 91
        0
 92
        0
 62
   257
 93
        1
300
CONTENTFORMAT
  1
CONTENTFORMAT_BEGIN
 90
        0
 91
        0
 92
      512
 93
        0
300

 40
0.0
140
1.0
 94
        2
 62
     0
340
F
144
4.5
309
CONTENTFORMAT_END
171
     1
301
MARGIN
  1
CELLMARGIN_BEGIN
 40
1.5
 40
1.5
 40
1.5
 40
1.5
 40
4.5
 40
4.5
309
CELLMARGIN_END
 94
        6
 95
        1
302
GRIDFORMAT
  1
GRIDFORMAT_BEGIN
 90
        0
 91
        1
 62
     0
 92
       -2
340
0
 93
        0
 40
1.125
309
GRIDFORMAT_END
 95
        2
302
GRIDFORMAT
  1
GRIDFORMAT_BEGIN
 90
        0
 91
        1
 62
     0
 92
       -2
340
0
 93
        0
 40
1.125
309
GRIDFORMAT_END
 95
        4
302
GRIDFORMAT
  1
GRIDFORMAT_BEGIN
 90
        0
 91
        1
 62
     0
 92
       -2
340
0
 93
        0
 40
1.125
309
GRIDFORMAT_END
 95
        8
302
GRIDFORMAT
  1
GRIDFORMAT_BEGIN
 90
        0
 91
        1
 62
     0
 92
       -2
340
0
 93
        0
 40
1.125
309
GRIDFORMAT_END
 95
       16
302
GRIDFORMAT
  1
GRIDFORMAT_BEGIN
 90
        0
 91
        1
 62
     0
 92
       -2
340
0
 93
        0
 40
1.125
309
GRIDFORMAT_END
 95
       32
302
GRIDFORMAT
  1
GRIDFORMAT_BEGIN
 90
        0
 91
        1
 62
     0
 92
       -2
340
0
 93
        0
 40
1.125
309
GRIDFORMAT_END
309
TABLEFORMAT_END
  1
CELLSTYLE_BEGIN
 90
        3
 91
        2
300
_DATA
309
CELLSTYLE_END
  0
XRECORD
  5
B1FA
102
{ACAD_REACTORS
330
B1BB
102
}
330
B1BB
100
AcDbXrecord
280
     1
102
ACAD_ROUNDTRIP_PRE2007_TABLESTYLE
 90
      512
 91
        0
  1

 92
      512
 93
        0
  2

 94
      512
 95
        0
  3

  0
XRECORD
  5
B1D5
102
{ACAD_REACTORS
330
B1D4
102
}
330
B1D4
100
AcDbXrecord
280
     1
102
RTVSPost2010Prop28
280
     1
102
RTVSPost2010PropOp28
 70
     1
102
RTVSPost2010Prop29
280
     1
102
RTVSPost2010PropOp29
 70
     1
102
RTVSPost2010Prop30
280
     0
102
RTVSPost2010PropOp30
 70
     1
102
RTVSPost2010Prop31
280
     0
102
RTVSPost2010PropOp31
 70
     1
102
RTVSPost2010Prop32
280
     0
102
RTVSPost2010PropOp32
 70
     1
102
RTVSPost2010Prop33
280
     0
102
RTVSPost2010PropOp33
 70
     1
102
RTVSPost2010Prop34
280
     0
102
RTVSPost2010PropOp34
 70
     1
102
RTVSPost2010Prop35
280
     0
102
RTVSPost2010PropOp35
 70
     1
102
RTVSPost2010Prop36
280
     0
102
RTVSPost2010PropOp36
 70
     1
102
RTVSPost2010Prop37
 90
       50
102
RTVSPost2010PropOp37
 70
     1
102
RTVSPost2010Prop38
140
0.0
102
RTVSPost2010PropOp38
 70
     1
102
RTVSPost2010Prop39
140
1.0
102
RTVSPost2010PropOp39
 70
     1
102
RTVSPost2010Prop40
 90
        0
102
RTVSPost2010PropOp40
 70
     1
102
RTVSPost2010Prop41ColorIndex
 90
       18
102
RTVSPost2010Prop41ColorRGB
 90
        0
102
RTVSPost2010PropOp41
 70
     1
102
RTVSPost2010Prop42
 90
       50
102
RTVSPost2010PropOp42
 70
     1
102
RTVSPost2010Prop43
 90
        3
102
RTVSPost2010PropOp43
 70
     1
102
RTVSPost2010Prop44ColorIndex
 90
        5
102
RTVSPost2010Prop44ColorRGB
 90
      255
102
RTVSPost2010PropOp44
 70
     1
102
RTVSPost2010Prop45
280
     0
102
RTVSPost2010PropOp45
 70
     1
102
RTVSPost2010Prop46
 90
       50
102
RTVSPost2010PropOp46
 70
     1
102
RTVSPost2010Prop47
 90
       50
102
RTVSPost2010PropOp47
 70
     1
102
RTVSPost2010Prop48
 90
       50
102
RTVSPost2010PropOp48
 70
     1
102
RTVSPost2010Prop49
280
     0
102
RTVSPost2010PropOp49
 70
     1
102
RTVSPost2010Prop50
 90
       50
102
RTVSPost2010PropOp50
 70
     1
102
RTVSPost2010Prop51ColorIndex
 90
      256
102
RTVSPost2010Prop51ColorRGB
 90
-16777216
102
RTVSPost2010PropOp51
 70
     0
102
RTVSPost2010Prop52
140
1.0
102
RTVSPost2010PropOp52
 70
     0
102
RTVSPost2010Prop53
 90
        2
102
RTVSPost2010PropOp53
 70
     1
102
RTVSPost2010Prop54
  1
strokes_ogs.tif
102
RTVSPost2010PropOp54
 70
     1
102
RTVSPost2010Prop55
280
     0
102
RTVSPost2010PropOp55
 70
     1
102
RTVSPost2010Prop56
140
1.0
102
RTVSPost2010PropOp56
 70
     1
102
RTVSPost2010Prop57
140
1.0
102
RTVSPost2010PropOp57
 70
     1
102
RTVSPropertyOp0
 70
     1
102
RTVSPropertyOp1
 70
     1
102
RTVSPropertyOp2
 70
     1
102
RTVSPropertyOp3
 70
     1
102
RTVSPropertyOp4
 70
     1
102
RTVSPropertyOp5
 70
     1
102
RTVSPropertyOp6
 70
     1
102
RTVSPropertyOp7
 70
     1
102
RTVSPropertyOp8
 70
     1
102
RTVSPropertyOp9
 70
     1
102
RTVSPropertyOp10
 70
     1
102
RTVSPropertyOp11
 70
     1
102
RTVSPropertyOp12
 70
     1
102
RTVSPropertyOp13
 70
     1
102
RTVSPropertyOp14
 70
     1
102
RTVSPropertyOp15
 70
     1
102
RTVSPropertyOp16
 70
     1
102
RTVSPropertyOp17
 70
     1
102
RTVSPropertyOp18
 70
     1
102
RTVSPropertyOp19
 70
     1
102
RTVSPropertyOp20
 70
     1
102
RTVSPropertyOp21
 70
     1
102
RTVSPropertyOp22
 70
     1
102
RTVSPropertyOp23
 70
     1
102
RTVSPropertyOp24
 70
     1
102
RTVSPropertyOp25
 70
     1
102
RTVSPropertyOp26
 70
     1
102
RTVSPropertyOp27
 70
     1
102
RTVSPropertyOp28
 70
     1
102
RTVSPropertyOp29
 70
     1
102
RTVSPropertyOp30
 70
     1
102
RTVSPropertyOp31
 70
     1
102
RTVSPropertyOp32
 70
     1
102
RTVSPropertyOp33
 70
     1
102
RTVSPropertyOp34
 70
     1
102
RTVSPropertyOp35
 70
     1
102
RTVSPropertyOp36
 70
     1
102
RTVSPropertyOp37
 70
     1
102
RTVSPropertyOp38
 70
     1
102
RTVSPropertyOp39
 70
     1
102
RTVSPropertyOp40
 70
     1
102
RTVSPropertyOp41
 70
     1
102
RTVSPropertyOp42
 70
     1
102
RTVSPropertyOp43
 70
     1
102
RTVSPropertyOp44
 70
     1
102
RTVSPropertyOp45
 70
     1
102
RTVSPropertyOp46
 70
     1
102
RTVSPropertyOp47
 70
     1
102
RTVSPropertyOp48
 70
     1
102
RTVSPropertyOp49
 70
     1
102
RTVSPropertyOp50
 70
     1
102
RTVSPropertyOp51
 70
     0
102
RTVSPropertyOp52
 70
     0
102
RTVSPropertyOp53
 70
     1
102
RTVSPropertyOp54
 70
     1
102
RTVSPropertyOp55
 70
     1
102
RTVSPropertyOp56
 70
     1
102
RTVSPropertyOp57
 70
     1
102
RTVSPropertyOp58
 70
     1
102
RTVSPropertyOp59
 70
     1
102
RTVSPropertyOp60
 70
     1
102
RTVSPropertyOp61
 70
     1
102
RTVSPropertyOp62
 70
     1
  0
XRECORD
  5
B1D3
102
{ACAD_REACTORS
330
B1D2
102
}
330
B1D2
100
AcDbXrecord
280
     1
102
RTVSPost2010Prop28
280
     0
102
RTVSPost2010PropOp28
 70
     1
102
RTVSPost2010Prop29
280
     1
102
RTVSPost2010PropOp29
 70
     1
102
RTVSPost2010Prop30
280
     1
102
RTVSPost2010PropOp30
 70
     1
102
RTVSPost2010Prop31
280
     0
102
RTVSPost2010PropOp31
 70
     1
102
RTVSPost2010Prop32
280
     0
102
RTVSPost2010PropOp32
 70
     1
102
RTVSPost2010Prop33
280
     0
102
RTVSPost2010PropOp33
 70
     1
102
RTVSPost2010Prop34
280
     0
102
RTVSPost2010PropOp34
 70
     1
102
RTVSPost2010Prop35
280
     0
102
RTVSPost2010PropOp35
 70
     1
102
RTVSPost2010Prop36
280
     0
102
RTVSPost2010PropOp36
 70
     1
102
RTVSPost2010Prop37
 90
       50
102
RTVSPost2010PropOp37
 70
     1
102
RTVSPost2010Prop38
140
0.0
102
RTVSPost2010PropOp38
 70
     1
102
RTVSPost2010Prop39
140
1.0
102
RTVSPost2010PropOp39
 70
     1
102
RTVSPost2010Prop40
 90
        0
102
RTVSPost2010PropOp40
 70
     1
102
RTVSPost2010Prop41ColorIndex
 90
       18
102
RTVSPost2010Prop41ColorRGB
 90
        0
102
RTVSPost2010PropOp41
 70
     1
102
RTVSPost2010Prop42
 90
       50
102
RTVSPost2010PropOp42
 70
     1
102
RTVSPost2010Prop43
 90
        3
102
RTVSPost2010PropOp43
 70
     1
102
RTVSPost2010Prop44ColorIndex
 90
        5
102
RTVSPost2010Prop44ColorRGB
 90
      255
102
RTVSPost2010PropOp44
 70
     1
102
RTVSPost2010Prop45
280
     0
102
RTVSPost2010PropOp45
 70
     1
102
RTVSPost2010Prop46
 90
       50
102
RTVSPost2010PropOp46
 70
     1
102
RTVSPost2010Prop47
 90
       50
102
RTVSPost2010PropOp47
 70
     1
102
RTVSPost2010Prop48
 90
       50
102
RTVSPost2010PropOp48
 70
     1
102
RTVSPost2010Prop49
280
     0
102
RTVSPost2010PropOp49
 70
     1
102
RTVSPost2010Prop50
 90
       50
102
RTVSPost2010PropOp50
 70
     1
102
RTVSPost2010Prop51ColorIndex
 90
      256
102
RTVSPost2010Prop51ColorRGB
 90
-16777216
102
RTVSPost2010PropOp51
 70
     0
102
RTVSPost2010Prop52
140
1.0
102
RTVSPost2010PropOp52
 70
     0
102
RTVSPost2010Prop53
 90
        2
102
RTVSPost2010PropOp53
 70
     1
102
RTVSPost2010Prop54
  1
strokes_ogs.tif
102
RTVSPost2010PropOp54
 70
     1
102
RTVSPost2010Prop55
280
     0
102
RTVSPost2010PropOp55
 70
     1
102
RTVSPost2010Prop56
140
1.0
102
RTVSPost2010PropOp56
 70
     1
102
RTVSPost2010Prop57
140
1.0
102
RTVSPost2010PropOp57
 70
     1
102
RTVSPropertyOp0
 70
     1
102
RTVSPropertyOp1
 70
     1
102
RTVSPropertyOp2
 70
     1
102
RTVSPropertyOp3
 70
     1
102
RTVSPropertyOp4
 70
     1
102
RTVSPropertyOp5
 70
     1
102
RTVSPropertyOp6
 70
     1
102
RTVSPropertyOp7
 70
     1
102
RTVSPropertyOp8
 70
     1
102
RTVSPropertyOp9
 70
     1
102
RTVSPropertyOp10
 70
     1
102
RTVSPropertyOp11
 70
     1
102
RTVSPropertyOp12
 70
     1
102
RTVSPropertyOp13
 70
     1
102
RTVSPropertyOp14
 70
     1
102
RTVSPropertyOp15
 70
     1
102
RTVSPropertyOp16
 70
     1
102
RTVSPropertyOp17
 70
     1
102
RTVSPropertyOp18
 70
     1
102
RTVSPropertyOp19
 70
     1
102
RTVSPropertyOp20
 70
     1
102
RTVSPropertyOp21
 70
     1
102
RTVSPropertyOp22
 70
     1
102
RTVSPropertyOp23
 70
     1
102
RTVSPropertyOp24
 70
     1
102
RTVSPropertyOp25
 70
     1
102
RTVSPropertyOp26
 70
     1
102
RTVSPropertyOp27
 70
     1
102
RTVSPropertyOp28
 70
     1
102
RTVSPropertyOp29
 70
     1
102
RTVSPropertyOp30
 70
     1
102
RTVSPropertyOp31
 70
     1
102
RTVSPropertyOp32
 70
     1
102
RTVSPropertyOp33
 70
     1
102
RTVSPropertyOp34
 70
     1
102
RTVSPropertyOp35
 70
     1
102
RTVSPropertyOp36
 70
     1
102
RTVSPropertyOp37
 70
     1
102
RTVSPropertyOp38
 70
     1
102
RTVSPropertyOp39
 70
     1
102
RTVSPropertyOp40
 70
     1
102
RTVSPropertyOp41
 70
     1
102
RTVSPropertyOp42
 70
     1
102
RTVSPropertyOp43
 70
     1
102
RTVSPropertyOp44
 70
     1
102
RTVSPropertyOp45
 70
     1
102
RTVSPropertyOp46
 70
     1
102
RTVSPropertyOp47
 70
     1
102
RTVSPropertyOp48
 70
     1
102
RTVSPropertyOp49
 70
     1
102
RTVSPropertyOp50
 70
     1
102
RTVSPropertyOp51
 70
     0
102
RTVSPropertyOp52
 70
     0
102
RTVSPropertyOp53
 70
     1
102
RTVSPropertyOp54
 70
     1
102
RTVSPropertyOp55
 70
     1
102
RTVSPropertyOp56
 70
     1
102
RTVSPropertyOp57
 70
     1
102
RTVSPropertyOp58
 70
     1
102
RTVSPropertyOp59
 70
     1
102
RTVSPropertyOp60
 70
     1
102
RTVSPropertyOp61
 70
     1
102
RTVSPropertyOp62
 70
     1
  0
XRECORD
  5
B1E1
102
{ACAD_REACTORS
330
B1E0
102
}
330
B1E0
100
AcDbXrecord
280
     1
102
RTVSPost2010Prop28
280
     0
102
RTVSPost2010PropOp28
 70
     1
102
RTVSPost2010Prop29
280
     1
102
RTVSPost2010PropOp29
 70
     1
102
RTVSPost2010Prop30
280
     1
102
RTVSPost2010PropOp30
 70
     1
102
RTVSPost2010Prop31
280
     0
102
RTVSPost2010PropOp31
 70
     1
102
RTVSPost2010Prop32
280
     0
102
RTVSPost2010PropOp32
 70
     1
102
RTVSPost2010Prop33
280
     0
102
RTVSPost2010PropOp33
 70
     1
102
RTVSPost2010Prop34
280
     0
102
RTVSPost2010PropOp34
 70
     1
102
RTVSPost2010Prop35
280
     0
102
RTVSPost2010PropOp35
 70
     1
102
RTVSPost2010Prop36
280
     0
102
RTVSPost2010PropOp36
 70
     1
102
RTVSPost2010Prop37
 90
       50
102
RTVSPost2010PropOp37
 70
     1
102
RTVSPost2010Prop38
140
0.0
102
RTVSPost2010PropOp38
 70
     1
102
RTVSPost2010Prop39
140
1.0
102
RTVSPost2010PropOp39
 70
     1
102
RTVSPost2010Prop40
 90
        0
102
RTVSPost2010PropOp40
 70
     1
102
RTVSPost2010Prop41ColorIndex
 90
       18
102
RTVSPost2010Prop41ColorRGB
 90
        0
102
RTVSPost2010PropOp41
 70
     1
102
RTVSPost2010Prop42
 90
       50
102
RTVSPost2010PropOp42
 70
     1
102
RTVSPost2010Prop43
 90
        3
102
RTVSPost2010PropOp43
 70
     1
102
RTVSPost2010Prop44ColorIndex
 90
        5
102
RTVSPost2010Prop44ColorRGB
 90
      255
102
RTVSPost2010PropOp44
 70
     1
102
RTVSPost2010Prop45
280
     0
102
RTVSPost2010PropOp45
 70
     1
102
RTVSPost2010Prop46
 90
       50
102
RTVSPost2010PropOp46
 70
     1
102
RTVSPost2010Prop47
 90
       50
102
RTVSPost2010PropOp47
 70
     1
102
RTVSPost2010Prop48
 90
       50
102
RTVSPost2010PropOp48
 70
     1
102
RTVSPost2010Prop49
280
     0
102
RTVSPost2010PropOp49
 70
     1
102
RTVSPost2010Prop50
 90
       50
102
RTVSPost2010PropOp50
 70
     1
102
RTVSPost2010Prop51ColorIndex
 90
      256
102
RTVSPost2010Prop51ColorRGB
 90
-16777216
102
RTVSPost2010PropOp51
 70
     0
102
RTVSPost2010Prop52
140
1.0
102
RTVSPost2010PropOp52
 70
     0
102
RTVSPost2010Prop53
 90
        2
102
RTVSPost2010PropOp53
 70
     1
102
RTVSPost2010Prop54
  1
strokes_ogs.tif
102
RTVSPost2010PropOp54
 70
     1
102
RTVSPost2010Prop55
280
     0
102
RTVSPost2010PropOp55
 70
     1
102
RTVSPost2010Prop56
140
1.0
102
RTVSPost2010PropOp56
 70
     1
102
RTVSPost2010Prop57
140
1.0
102
RTVSPost2010PropOp57
 70
     1
102
RTVSPropertyOp0
 70
     1
102
RTVSPropertyOp1
 70
     1
102
RTVSPropertyOp2
 70
     1
102
RTVSPropertyOp3
 70
     1
102
RTVSPropertyOp4
 70
     1
102
RTVSPropertyOp5
 70
     1
102
RTVSPropertyOp6
 70
     1
102
RTVSPropertyOp7
 70
     1
102
RTVSPropertyOp8
 70
     1
102
RTVSPropertyOp9
 70
     1
102
RTVSPropertyOp10
 70
     1
102
RTVSPropertyOp11
 70
     1
102
RTVSPropertyOp12
 70
     1
102
RTVSPropertyOp13
 70
     1
102
RTVSPropertyOp14
 70
     1
102
RTVSPropertyOp15
 70
     1
102
RTVSPropertyOp16
 70
     1
102
RTVSPropertyOp17
 70
     1
102
RTVSPropertyOp18
 70
     1
102
RTVSPropertyOp19
 70
     1
102
RTVSPropertyOp20
 70
     1
102
RTVSPropertyOp21
 70
     1
102
RTVSPropertyOp22
 70
     1
102
RTVSPropertyOp23
 70
     1
102
RTVSPropertyOp24
 70
     1
102
RTVSPropertyOp25
 70
     1
102
RTVSPropertyOp26
 70
     1
102
RTVSPropertyOp27
 70
     1
102
RTVSPropertyOp28
 70
     1
102
RTVSPropertyOp29
 70
     1
102
RTVSPropertyOp30
 70
     1
102
RTVSPropertyOp31
 70
     1
102
RTVSPropertyOp32
 70
     1
102
RTVSPropertyOp33
 70
     1
102
RTVSPropertyOp34
 70
     1
102
RTVSPropertyOp35
 70
     1
102
RTVSPropertyOp36
 70
     1
102
RTVSPropertyOp37
 70
     1
102
RTVSPropertyOp38
 70
     1
102
RTVSPropertyOp39
 70
     1
102
RTVSPropertyOp40
 70
     1
102
RTVSPropertyOp41
 70
     1
102
RTVSPropertyOp42
 70
     1
102
RTVSPropertyOp43
 70
     1
102
RTVSPropertyOp44
 70
     1
102
RTVSPropertyOp45
 70
     1
102
RTVSPropertyOp46
 70
     1
102
RTVSPropertyOp47
 70
     1
102
RTVSPropertyOp48
 70
     1
102
RTVSPropertyOp49
 70
     1
102
RTVSPropertyOp50
 70
     1
102
RTVSPropertyOp51
 70
     0
102
RTVSPropertyOp52
 70
     0
102
RTVSPropertyOp53
 70
     1
102
RTVSPropertyOp54
 70
     1
102
RTVSPropertyOp55
 70
     1
102
RTVSPropertyOp56
 70
     1
102
RTVSPropertyOp57
 70
     1
102
RTVSPropertyOp58
 70
     1
102
RTVSPropertyOp59
 70
     1
102
RTVSPropertyOp60
 70
     1
102
RTVSPropertyOp61
 70
     1
102
RTVSPropertyOp62
 70
     1
  0
XRECORD
  5
B1E9
102
{ACAD_REACTORS
330
B1E8
102
}
330
B1E8
100
AcDbXrecord
280
     1
102
RTVSPost2010Prop28
280
     0
102
RTVSPost2010PropOp28
 70
     1
102
RTVSPost2010Prop29
280
     1
102
RTVSPost2010PropOp29
 70
     1
102
RTVSPost2010Prop30
280
     1
102
RTVSPost2010PropOp30
 70
     1
102
RTVSPost2010Prop31
280
     0
102
RTVSPost2010PropOp31
 70
     1
102
RTVSPost2010Prop32
280
     0
102
RTVSPost2010PropOp32
 70
     1
102
RTVSPost2010Prop33
280
     0
102
RTVSPost2010PropOp33
 70
     1
102
RTVSPost2010Prop34
280
     0
102
RTVSPost2010PropOp34
 70
     1
102
RTVSPost2010Prop35
280
     0
102
RTVSPost2010PropOp35
 70
     1
102
RTVSPost2010Prop36
280
     0
102
RTVSPost2010PropOp36
 70
     1
102
RTVSPost2010Prop37
 90
       50
102
RTVSPost2010PropOp37
 70
     1
102
RTVSPost2010Prop38
140
0.0
102
RTVSPost2010PropOp38
 70
     1
102
RTVSPost2010Prop39
140
1.0
102
RTVSPost2010PropOp39
 70
     1
102
RTVSPost2010Prop40
 90
        0
102
RTVSPost2010PropOp40
 70
     1
102
RTVSPost2010Prop41ColorIndex
 90
       18
102
RTVSPost2010Prop41ColorRGB
 90
        0
102
RTVSPost2010PropOp41
 70
     1
102
RTVSPost2010Prop42
 90
       50
102
RTVSPost2010PropOp42
 70
     1
102
RTVSPost2010Prop43
 90
        3
102
RTVSPost2010PropOp43
 70
     1
102
RTVSPost2010Prop44ColorIndex
 90
        5
102
RTVSPost2010Prop44ColorRGB
 90
      255
102
RTVSPost2010PropOp44
 70
     1
102
RTVSPost2010Prop45
280
     0
102
RTVSPost2010PropOp45
 70
     1
102
RTVSPost2010Prop46
 90
       50
102
RTVSPost2010PropOp46
 70
     1
102
RTVSPost2010Prop47
 90
       50
102
RTVSPost2010PropOp47
 70
     1
102
RTVSPost2010Prop48
 90
       50
102
RTVSPost2010PropOp48
 70
     1
102
RTVSPost2010Prop49
280
     0
102
RTVSPost2010PropOp49
 70
     1
102
RTVSPost2010Prop50
 90
       50
102
RTVSPost2010PropOp50
 70
     1
102
RTVSPost2010Prop51ColorIndex
 90
      256
102
RTVSPost2010Prop51ColorRGB
 90
-16777216
102
RTVSPost2010PropOp51
 70
     0
102
RTVSPost2010Prop52
140
1.0
102
RTVSPost2010PropOp52
 70
     0
102
RTVSPost2010Prop53
 90
        2
102
RTVSPost2010PropOp53
 70
     1
102
RTVSPost2010Prop54
  1
strokes_ogs.tif
102
RTVSPost2010PropOp54
 70
     1
102
RTVSPost2010Prop55
280
     0
102
RTVSPost2010PropOp55
 70
     1
102
RTVSPost2010Prop56
140
1.0
102
RTVSPost2010PropOp56
 70
     1
102
RTVSPost2010Prop57
140
1.0
102
RTVSPost2010PropOp57
 70
     1
102
RTVSPropertyOp0
 70
     1
102
RTVSPropertyOp1
 70
     1
102
RTVSPropertyOp2
 70
     1
102
RTVSPropertyOp3
 70
     1
102
RTVSPropertyOp4
 70
     1
102
RTVSPropertyOp5
 70
     1
102
RTVSPropertyOp6
 70
     1
102
RTVSPropertyOp7
 70
     1
102
RTVSPropertyOp8
 70
     1
102
RTVSPropertyOp9
 70
     1
102
RTVSPropertyOp10
 70
     1
102
RTVSPropertyOp11
 70
     1
102
RTVSPropertyOp12
 70
     1
102
RTVSPropertyOp13
 70
     1
102
RTVSPropertyOp14
 70
     1
102
RTVSPropertyOp15
 70
     1
102
RTVSPropertyOp16
 70
     1
102
RTVSPropertyOp17
 70
     1
102
RTVSPropertyOp18
 70
     1
102
RTVSPropertyOp19
 70
     1
102
RTVSPropertyOp20
 70
     1
102
RTVSPropertyOp21
 70
     1
102
RTVSPropertyOp22
 70
     1
102
RTVSPropertyOp23
 70
     1
102
RTVSPropertyOp24
 70
     1
102
RTVSPropertyOp25
 70
     1
102
RTVSPropertyOp26
 70
     1
102
RTVSPropertyOp27
 70
     1
102
RTVSPropertyOp28
 70
     1
102
RTVSPropertyOp29
 70
     1
102
RTVSPropertyOp30
 70
     1
102
RTVSPropertyOp31
 70
     1
102
RTVSPropertyOp32
 70
     1
102
RTVSPropertyOp33
 70
     1
102
RTVSPropertyOp34
 70
     1
102
RTVSPropertyOp35
 70
     1
102
RTVSPropertyOp36
 70
     1
102
RTVSPropertyOp37
 70
     1
102
RTVSPropertyOp38
 70
     1
102
RTVSPropertyOp39
 70
     1
102
RTVSPropertyOp40
 70
     1
102
RTVSPropertyOp41
 70
     1
102
RTVSPropertyOp42
 70
     1
102
RTVSPropertyOp43
 70
     1
102
RTVSPropertyOp44
 70
     1
102
RTVSPropertyOp45
 70
     1
102
RTVSPropertyOp46
 70
     1
102
RTVSPropertyOp47
 70
     1
102
RTVSPropertyOp48
 70
     1
102
RTVSPropertyOp49
 70
     1
102
RTVSPropertyOp50
 70
     1
102
RTVSPropertyOp51
 70
     0
102
RTVSPropertyOp52
 70
     0
102
RTVSPropertyOp53
 70
     1
102
RTVSPropertyOp54
 70
     1
102
RTVSPropertyOp55
 70
     1
102
RTVSPropertyOp56
 70
     1
102
RTVSPropertyOp57
 70
     1
102
RTVSPropertyOp58
 70
     1
102
RTVSPropertyOp59
 70
     1
102
RTVSPropertyOp60
 70
     1
102
RTVSPropertyOp61
 70
     1
102
RTVSPropertyOp62
 70
     1
  0
XRECORD
  5
B1DB
102
{ACAD_REACTORS
330
B1DA
102
}
330
B1DA
100
AcDbXrecord
280
     1
102
RTVSPost2010Prop28
280
     0
102
RTVSPost2010PropOp28
 70
     1
102
RTVSPost2010Prop29
280
     1
102
RTVSPost2010PropOp29
 70
     1
102
RTVSPost2010Prop30
280
     1
102
RTVSPost2010PropOp30
 70
     1
102
RTVSPost2010Prop31
280
     0
102
RTVSPost2010PropOp31
 70
     1
102
RTVSPost2010Prop32
280
     0
102
RTVSPost2010PropOp32
 70
     1
102
RTVSPost2010Prop33
280
     0
102
RTVSPost2010PropOp33
 70
     1
102
RTVSPost2010Prop34
280
     0
102
RTVSPost2010PropOp34
 70
     1
102
RTVSPost2010Prop35
280
     0
102
RTVSPost2010PropOp35
 70
     1
102
RTVSPost2010Prop36
280
     0
102
RTVSPost2010PropOp36
 70
     1
102
RTVSPost2010Prop37
 90
       50
102
RTVSPost2010PropOp37
 70
     1
102
RTVSPost2010Prop38
140
0.0
102
RTVSPost2010PropOp38
 70
     1
102
RTVSPost2010Prop39
140
1.0
102
RTVSPost2010PropOp39
 70
     1
102
RTVSPost2010Prop40
 90
        0
102
RTVSPost2010PropOp40
 70
     1
102
RTVSPost2010Prop41ColorIndex
 90
       18
102
RTVSPost2010Prop41ColorRGB
 90
        0
102
RTVSPost2010PropOp41
 70
     1
102
RTVSPost2010Prop42
 90
       50
102
RTVSPost2010PropOp42
 70
     1
102
RTVSPost2010Prop43
 90
        3
102
RTVSPost2010PropOp43
 70
     1
102
RTVSPost2010Prop44ColorIndex
 90
        5
102
RTVSPost2010Prop44ColorRGB
 90
      255
102
RTVSPost2010PropOp44
 70
     1
102
RTVSPost2010Prop45
280
     0
102
RTVSPost2010PropOp45
 70
     1
102
RTVSPost2010Prop46
 90
       50
102
RTVSPost2010PropOp46
 70
     1
102
RTVSPost2010Prop47
 90
       50
102
RTVSPost2010PropOp47
 70
     1
102
RTVSPost2010Prop48
 90
       50
102
RTVSPost2010PropOp48
 70
     1
102
RTVSPost2010Prop49
280
     0
102
RTVSPost2010PropOp49
 70
     1
102
RTVSPost2010Prop50
 90
       50
102
RTVSPost2010PropOp50
 70
     1
102
RTVSPost2010Prop51ColorIndex
 90
      256
102
RTVSPost2010Prop51ColorRGB
 90
-16777216
102
RTVSPost2010PropOp51
 70
     0
102
RTVSPost2010Prop52
140
1.0
102
RTVSPost2010PropOp52
 70
     0
102
RTVSPost2010Prop53
 90
        2
102
RTVSPost2010PropOp53
 70
     1
102
RTVSPost2010Prop54
  1
strokes_ogs.tif
102
RTVSPost2010PropOp54
 70
     1
102
RTVSPost2010Prop55
280
     0
102
RTVSPost2010PropOp55
 70
     1
102
RTVSPost2010Prop56
140
1.0
102
RTVSPost2010PropOp56
 70
     1
102
RTVSPost2010Prop57
140
1.0
102
RTVSPost2010PropOp57
 70
     1
102
RTVSPropertyOp0
 70
     1
102
RTVSPropertyOp1
 70
     1
102
RTVSPropertyOp2
 70
     1
102
RTVSPropertyOp3
 70
     1
102
RTVSPropertyOp4
 70
     1
102
RTVSPropertyOp5
 70
     1
102
RTVSPropertyOp6
 70
     1
102
RTVSPropertyOp7
 70
     1
102
RTVSPropertyOp8
 70
     1
102
RTVSPropertyOp9
 70
     1
102
RTVSPropertyOp10
 70
     1
102
RTVSPropertyOp11
 70
     1
102
RTVSPropertyOp12
 70
     1
102
RTVSPropertyOp13
 70
     1
102
RTVSPropertyOp14
 70
     1
102
RTVSPropertyOp15
 70
     1
102
RTVSPropertyOp16
 70
     1
102
RTVSPropertyOp17
 70
     1
102
RTVSPropertyOp18
 70
     1
102
RTVSPropertyOp19
 70
     1
102
RTVSPropertyOp20
 70
     1
102
RTVSPropertyOp21
 70
     1
102
RTVSPropertyOp22
 70
     1
102
RTVSPropertyOp23
 70
     1
102
RTVSPropertyOp24
 70
     1
102
RTVSPropertyOp25
 70
     1
102
RTVSPropertyOp26
 70
     1
102
RTVSPropertyOp27
 70
     1
102
RTVSPropertyOp28
 70
     1
102
RTVSPropertyOp29
 70
     1
102
RTVSPropertyOp30
 70
     1
102
RTVSPropertyOp31
 70
     1
102
RTVSPropertyOp32
 70
     1
102
RTVSPropertyOp33
 70
     1
102
RTVSPropertyOp34
 70
     1
102
RTVSPropertyOp35
 70
     1
102
RTVSPropertyOp36
 70
     1
102
RTVSPropertyOp37
 70
     1
102
RTVSPropertyOp38
 70
     1
102
RTVSPropertyOp39
 70
     1
102
RTVSPropertyOp40
 70
     1
102
RTVSPropertyOp41
 70
     1
102
RTVSPropertyOp42
 70
     1
102
RTVSPropertyOp43
 70
     1
102
RTVSPropertyOp44
 70
     1
102
RTVSPropertyOp45
 70
     1
102
RTVSPropertyOp46
 70
     1
102
RTVSPropertyOp47
 70
     1
102
RTVSPropertyOp48
 70
     1
102
RTVSPropertyOp49
 70
     1
102
RTVSPropertyOp50
 70
     1
102
RTVSPropertyOp51
 70
     0
102
RTVSPropertyOp52
 70
     0
102
RTVSPropertyOp53
 70
     1
102
RTVSPropertyOp54
 70
     1
102
RTVSPropertyOp55
 70
     1
102
RTVSPropertyOp56
 70
     1
102
RTVSPropertyOp57
 70
     1
102
RTVSPropertyOp58
 70
     1
102
RTVSPropertyOp59
 70
     1
102
RTVSPropertyOp60
 70
     1
102
RTVSPropertyOp61
 70
     1
102
RTVSPropertyOp62
 70
     1
  0
XRECORD
  5
B1DF
102
{ACAD_REACTORS
330
B1DE
102
}
330
B1DE
100
AcDbXrecord
280
     1
102
RTVSPost2010Prop28
280
     0
102
RTVSPost2010PropOp28
 70
     1
102
RTVSPost2010Prop29
280
     1
102
RTVSPost2010PropOp29
 70
     1
102
RTVSPost2010Prop30
280
     1
102
RTVSPost2010PropOp30
 70
     1
102
RTVSPost2010Prop31
280
     0
102
RTVSPost2010PropOp31
 70
     1
102
RTVSPost2010Prop32
280
     0
102
RTVSPost2010PropOp32
 70
     1
102
RTVSPost2010Prop33
280
     0
102
RTVSPost2010PropOp33
 70
     1
102
RTVSPost2010Prop34
280
     0
102
RTVSPost2010PropOp34
 70
     1
102
RTVSPost2010Prop35
280
     0
102
RTVSPost2010PropOp35
 70
     1
102
RTVSPost2010Prop36
280
     0
102
RTVSPost2010PropOp36
 70
     1
102
RTVSPost2010Prop37
 90
       50
102
RTVSPost2010PropOp37
 70
     1
102
RTVSPost2010Prop38
140
0.0
102
RTVSPost2010PropOp38
 70
     1
102
RTVSPost2010Prop39
140
1.0
102
RTVSPost2010PropOp39
 70
     1
102
RTVSPost2010Prop40
 90
        0
102
RTVSPost2010PropOp40
 70
     1
102
RTVSPost2010Prop41ColorIndex
 90
       18
102
RTVSPost2010Prop41ColorRGB
 90
        0
102
RTVSPost2010PropOp41
 70
     1
102
RTVSPost2010Prop42
 90
       50
102
RTVSPost2010PropOp42
 70
     1
102
RTVSPost2010Prop43
 90
        3
102
RTVSPost2010PropOp43
 70
     1
102
RTVSPost2010Prop44ColorIndex
 90
        5
102
RTVSPost2010Prop44ColorRGB
 90
      255
102
RTVSPost2010PropOp44
 70
     1
102
RTVSPost2010Prop45
280
     0
102
RTVSPost2010PropOp45
 70
     1
102
RTVSPost2010Prop46
 90
       50
102
RTVSPost2010PropOp46
 70
     1
102
RTVSPost2010Prop47
 90
       50
102
RTVSPost2010PropOp47
 70
     1
102
RTVSPost2010Prop48
 90
       50
102
RTVSPost2010PropOp48
 70
     1
102
RTVSPost2010Prop49
280
     0
102
RTVSPost2010PropOp49
 70
     1
102
RTVSPost2010Prop50
 90
       50
102
RTVSPost2010PropOp50
 70
     1
102
RTVSPost2010Prop51ColorIndex
 90
      256
102
RTVSPost2010Prop51ColorRGB
 90
-16777216
102
RTVSPost2010PropOp51
 70
     0
102
RTVSPost2010Prop52
140
1.0
102
RTVSPost2010PropOp52
 70
     0
102
RTVSPost2010Prop53
 90
        2
102
RTVSPost2010PropOp53
 70
     1
102
RTVSPost2010Prop54
  1
strokes_ogs.tif
102
RTVSPost2010PropOp54
 70
     1
102
RTVSPost2010Prop55
280
     0
102
RTVSPost2010PropOp55
 70
     1
102
RTVSPost2010Prop56
140
1.0
102
RTVSPost2010PropOp56
 70
     1
102
RTVSPost2010Prop57
140
1.0
102
RTVSPost2010PropOp57
 70
     1
102
RTVSPropertyOp0
 70
     1
102
RTVSPropertyOp1
 70
     1
102
RTVSPropertyOp2
 70
     1
102
RTVSPropertyOp3
 70
     1
102
RTVSPropertyOp4
 70
     1
102
RTVSPropertyOp5
 70
     1
102
RTVSPropertyOp6
 70
     1
102
RTVSPropertyOp7
 70
     1
102
RTVSPropertyOp8
 70
     1
102
RTVSPropertyOp9
 70
     1
102
RTVSPropertyOp10
 70
     1
102
RTVSPropertyOp11
 70
     1
102
RTVSPropertyOp12
 70
     1
102
RTVSPropertyOp13
 70
     1
102
RTVSPropertyOp14
 70
     1
102
RTVSPropertyOp15
 70
     1
102
RTVSPropertyOp16
 70
     1
102
RTVSPropertyOp17
 70
     1
102
RTVSPropertyOp18
 70
     1
102
RTVSPropertyOp19
 70
     1
102
RTVSPropertyOp20
 70
     1
102
RTVSPropertyOp21
 70
     1
102
RTVSPropertyOp22
 70
     1
102
RTVSPropertyOp23
 70
     1
102
RTVSPropertyOp24
 70
     1
102
RTVSPropertyOp25
 70
     1
102
RTVSPropertyOp26
 70
     1
102
RTVSPropertyOp27
 70
     1
102
RTVSPropertyOp28
 70
     1
102
RTVSPropertyOp29
 70
     1
102
RTVSPropertyOp30
 70
     1
102
RTVSPropertyOp31
 70
     1
102
RTVSPropertyOp32
 70
     1
102
RTVSPropertyOp33
 70
     1
102
RTVSPropertyOp34
 70
     1
102
RTVSPropertyOp35
 70
     1
102
RTVSPropertyOp36
 70
     1
102
RTVSPropertyOp37
 70
     1
102
RTVSPropertyOp38
 70
     1
102
RTVSPropertyOp39
 70
     1
102
RTVSPropertyOp40
 70
     1
102
RTVSPropertyOp41
 70
     1
102
RTVSPropertyOp42
 70
     1
102
RTVSPropertyOp43
 70
     1
102
RTVSPropertyOp44
 70
     1
102
RTVSPropertyOp45
 70
     1
102
RTVSPropertyOp46
 70
     1
102
RTVSPropertyOp47
 70
     1
102
RTVSPropertyOp48
 70
     1
102
RTVSPropertyOp49
 70
     1
102
RTVSPropertyOp50
 70
     1
102
RTVSPropertyOp51
 70
     0
102
RTVSPropertyOp52
 70
     0
102
RTVSPropertyOp53
 70
     1
102
RTVSPropertyOp54
 70
     1
102
RTVSPropertyOp55
 70
     1
102
RTVSPropertyOp56
 70
     1
102
RTVSPropertyOp57
 70
     1
102
RTVSPropertyOp58
 70
     1
102
RTVSPropertyOp59
 70
     1
102
RTVSPropertyOp60
 70
     1
102
RTVSPropertyOp61
 70
     1
102
RTVSPropertyOp62
 70
     1
  0
XRECORD
  5
B1F9
102
{ACAD_REACTORS
330
B1F8
102
}
330
B1F8
100
AcDbXrecord
280
     1
102
RTVSPost2010Prop28
280
     0
102
RTVSPost2010PropOp28
 70
     0
102
RTVSPost2010Prop29
280
     1
102
RTVSPost2010PropOp29
 70
     0
102
RTVSPost2010Prop30
280
     1
102
RTVSPost2010PropOp30
 70
     0
102
RTVSPost2010Prop31
280
     0
102
RTVSPost2010PropOp31
 70
     0
102
RTVSPost2010Prop32
280
     0
102
RTVSPost2010PropOp32
 70
     0
102
RTVSPost2010Prop33
280
     0
102
RTVSPost2010PropOp33
 70
     0
102
RTVSPost2010Prop34
280
     0
102
RTVSPost2010PropOp34
 70
     0
102
RTVSPost2010Prop35
280
     0
102
RTVSPost2010PropOp35
 70
     0
102
RTVSPost2010Prop36
280
     0
102
RTVSPost2010PropOp36
 70
     0
102
RTVSPost2010Prop37
 90
       50
102
RTVSPost2010PropOp37
 70
     0
102
RTVSPost2010Prop38
140
0.0
102
RTVSPost2010PropOp38
 70
     0
102
RTVSPost2010Prop39
140
1.0
102
RTVSPost2010PropOp39
 70
     0
102
RTVSPost2010Prop40
 90
        0
102
RTVSPost2010PropOp40
 70
     0
102
RTVSPost2010Prop41ColorIndex
 90
       18
102
RTVSPost2010Prop41ColorRGB
 90
        0
102
RTVSPost2010PropOp41
 70
     0
102
RTVSPost2010Prop42
 90
       50
102
RTVSPost2010PropOp42
 70
     0
102
RTVSPost2010Prop43
 90
        3
102
RTVSPost2010PropOp43
 70
     0
102
RTVSPost2010Prop44ColorIndex
 90
        5
102
RTVSPost2010Prop44ColorRGB
 90
      255
102
RTVSPost2010PropOp44
 70
     0
102
RTVSPost2010Prop45
280
     0
102
RTVSPost2010PropOp45
 70
     0
102
RTVSPost2010Prop46
 90
       50
102
RTVSPost2010PropOp46
 70
     0
102
RTVSPost2010Prop47
 90
       50
102
RTVSPost2010PropOp47
 70
     0
102
RTVSPost2010Prop48
 90
       50
102
RTVSPost2010PropOp48
 70
     0
102
RTVSPost2010Prop49
280
     0
102
RTVSPost2010PropOp49
 70
     0
102
RTVSPost2010Prop50
 90
       50
102
RTVSPost2010PropOp50
 70
     0
102
RTVSPost2010Prop51ColorIndex
 90
      256
102
RTVSPost2010Prop51ColorRGB
 90
-16777216
102
RTVSPost2010PropOp51
 70
     0
102
RTVSPost2010Prop52
140
1.0
102
RTVSPost2010PropOp52
 70
     0
102
RTVSPost2010Prop53
 90
        2
102
RTVSPost2010PropOp53
 70
     0
102
RTVSPost2010Prop54
  1
strokes_ogs.tif
102
RTVSPost2010PropOp54
 70
     0
102
RTVSPost2010Prop55
280
     0
102
RTVSPost2010PropOp55
 70
     0
102
RTVSPost2010Prop56
140
1.0
102
RTVSPost2010PropOp56
 70
     0
102
RTVSPost2010Prop57
140
1.0
102
RTVSPost2010PropOp57
 70
     0
102
RTVSPropertyOp0
 70
     0
102
RTVSPropertyOp1
 70
     0
102
RTVSPropertyOp2
 70
     0
102
RTVSPropertyOp3
 70
     0
102
RTVSPropertyOp4
 70
     0
102
RTVSPropertyOp5
 70
     0
102
RTVSPropertyOp6
 70
     0
102
RTVSPropertyOp7
 70
     0
102
RTVSPropertyOp8
 70
     0
102
RTVSPropertyOp9
 70
     0
102
RTVSPropertyOp10
 70
     0
102
RTVSPropertyOp11
 70
     0
102
RTVSPropertyOp12
 70
     0
102
RTVSPropertyOp13
 70
     0
102
RTVSPropertyOp14
 70
     2
102
RTVSPropertyOp15
 70
     0
102
RTVSPropertyOp16
 70
     0
102
RTVSPropertyOp17
 70
     0
102
RTVSPropertyOp18
 70
     0
102
RTVSPropertyOp19
 70
     0
102
RTVSPropertyOp20
 70
     0
102
RTVSPropertyOp21
 70
     0
102
RTVSPropertyOp22
 70
     0
102
RTVSPropertyOp23
 70
     0
102
RTVSPropertyOp24
 70
     0
102
RTVSPropertyOp25
 70
     0
102
RTVSPropertyOp26
 70
     0
102
RTVSPropertyOp27
 70
     0
102
RTVSPropertyOp28
 70
     0
102
RTVSPropertyOp29
 70
     0
102
RTVSPropertyOp30
 70
     0
102
RTVSPropertyOp31
 70
     0
102
RTVSPropertyOp32
 70
     0
102
RTVSPropertyOp33
 70
     0
102
RTVSPropertyOp34
 70
     0
102
RTVSPropertyOp35
 70
     0
102
RTVSPropertyOp36
 70
     0
102
RTVSPropertyOp37
 70
     0
102
RTVSPropertyOp38
 70
     0
102
RTVSPropertyOp39
 70
     0
102
RTVSPropertyOp40
 70
     0
102
RTVSPropertyOp41
 70
     0
102
RTVSPropertyOp42
 70
     0
102
RTVSPropertyOp43
 70
     0
102
RTVSPropertyOp44
 70
     0
102
RTVSPropertyOp45
 70
     0
102
RTVSPropertyOp46
 70
     0
102
RTVSPropertyOp47
 70
     0
102
RTVSPropertyOp48
 70
     0
102
RTVSPropertyOp49
 70
     0
102
RTVSPropertyOp50
 70
     0
102
RTVSPropertyOp51
 70
     0
102
RTVSPropertyOp52
 70
     0
102
RTVSPropertyOp53
 70
     0
102
RTVSPropertyOp54
 70
     0
102
RTVSPropertyOp55
 70
     0
102
RTVSPropertyOp56
 70
     0
102
RTVSPropertyOp57
 70
     0
102
RTVSPropertyOp58
 70
     0
102
RTVSPropertyOp59
 70
     0
102
RTVSPropertyOp60
 70
     0
102
RTVSPropertyOp61
 70
     0
102
RTVSPropertyOp62
 70
     0
  0
XRECORD
  5
B1E7
102
{ACAD_REACTORS
330
B1E6
102
}
330
B1E6
100
AcDbXrecord
280
     1
102
RTVSPost2010Prop28
280
     0
102
RTVSPost2010PropOp28
 70
     1
102
RTVSPost2010Prop29
280
     1
102
RTVSPost2010PropOp29
 70
     1
102
RTVSPost2010Prop30
280
     1
102
RTVSPost2010PropOp30
 70
     1
102
RTVSPost2010Prop31
280
     0
102
RTVSPost2010PropOp31
 70
     1
102
RTVSPost2010Prop32
280
     0
102
RTVSPost2010PropOp32
 70
     1
102
RTVSPost2010Prop33
280
     0
102
RTVSPost2010PropOp33
 70
     1
102
RTVSPost2010Prop34
280
     0
102
RTVSPost2010PropOp34
 70
     1
102
RTVSPost2010Prop35
280
     0
102
RTVSPost2010PropOp35
 70
     1
102
RTVSPost2010Prop36
280
     0
102
RTVSPost2010PropOp36
 70
     1
102
RTVSPost2010Prop37
 90
       50
102
RTVSPost2010PropOp37
 70
     1
102
RTVSPost2010Prop38
140
0.0
102
RTVSPost2010PropOp38
 70
     1
102
RTVSPost2010Prop39
140
1.0
102
RTVSPost2010PropOp39
 70
     1
102
RTVSPost2010Prop40
 90
        0
102
RTVSPost2010PropOp40
 70
     1
102
RTVSPost2010Prop41ColorIndex
 90
       18
102
RTVSPost2010Prop41ColorRGB
 90
        0
102
RTVSPost2010PropOp41
 70
     1
102
RTVSPost2010Prop42
 90
       50
102
RTVSPost2010PropOp42
 70
     1
102
RTVSPost2010Prop43
 90
        3
102
RTVSPost2010PropOp43
 70
     1
102
RTVSPost2010Prop44ColorIndex
 90
        5
102
RTVSPost2010Prop44ColorRGB
 90
      255
102
RTVSPost2010PropOp44
 70
     1
102
RTVSPost2010Prop45
280
     0
102
RTVSPost2010PropOp45
 70
     1
102
RTVSPost2010Prop46
 90
       50
102
RTVSPost2010PropOp46
 70
     1
102
RTVSPost2010Prop47
 90
       50
102
RTVSPost2010PropOp47
 70
     1
102
RTVSPost2010Prop48
 90
       50
102
RTVSPost2010PropOp48
 70
     1
102
RTVSPost2010Prop49
280
     0
102
RTVSPost2010PropOp49
 70
     1
102
RTVSPost2010Prop50
 90
       50
102
RTVSPost2010PropOp50
 70
     1
102
RTVSPost2010Prop51ColorIndex
 90
      256
102
RTVSPost2010Prop51ColorRGB
 90
-16777216
102
RTVSPost2010PropOp51
 70
     0
102
RTVSPost2010Prop52
140
1.0
102
RTVSPost2010PropOp52
 70
     0
102
RTVSPost2010Prop53
 90
        2
102
RTVSPost2010PropOp53
 70
     1
102
RTVSPost2010Prop54
  1
strokes_ogs.tif
102
RTVSPost2010PropOp54
 70
     1
102
RTVSPost2010Prop55
280
     0
102
RTVSPost2010PropOp55
 70
     1
102
RTVSPost2010Prop56
140
1.0
102
RTVSPost2010PropOp56
 70
     1
102
RTVSPost2010Prop57
140
1.0
102
RTVSPost2010PropOp57
 70
     1
102
RTVSPropertyOp0
 70
     1
102
RTVSPropertyOp1
 70
     1
102
RTVSPropertyOp2
 70
     1
102
RTVSPropertyOp3
 70
     1
102
RTVSPropertyOp4
 70
     1
102
RTVSPropertyOp5
 70
     1
102
RTVSPropertyOp6
 70
     1
102
RTVSPropertyOp7
 70
     1
102
RTVSPropertyOp8
 70
     1
102
RTVSPropertyOp9
 70
     1
102
RTVSPropertyOp10
 70
     1
102
RTVSPropertyOp11
 70
     1
102
RTVSPropertyOp12
 70
     1
102
RTVSPropertyOp13
 70
     1
102
RTVSPropertyOp14
 70
     1
102
RTVSPropertyOp15
 70
     1
102
RTVSPropertyOp16
 70
     1
102
RTVSPropertyOp17
 70
     1
102
RTVSPropertyOp18
 70
     1
102
RTVSPropertyOp19
 70
     1
102
RTVSPropertyOp20
 70
     1
102
RTVSPropertyOp21
 70
     1
102
RTVSPropertyOp22
 70
     1
102
RTVSPropertyOp23
 70
     1
102
RTVSPropertyOp24
 70
     1
102
RTVSPropertyOp25
 70
     1
102
RTVSPropertyOp26
 70
     1
102
RTVSPropertyOp27
 70
     1
102
RTVSPropertyOp28
 70
     1
102
RTVSPropertyOp29
 70
     1
102
RTVSPropertyOp30
 70
     1
102
RTVSPropertyOp31
 70
     1
102
RTVSPropertyOp32
 70
     1
102
RTVSPropertyOp33
 70
     1
102
RTVSPropertyOp34
 70
     1
102
RTVSPropertyOp35
 70
     1
102
RTVSPropertyOp36
 70
     1
102
RTVSPropertyOp37
 70
     1
102
RTVSPropertyOp38
 70
     1
102
RTVSPropertyOp39
 70
     1
102
RTVSPropertyOp40
 70
     1
102
RTVSPropertyOp41
 70
     1
102
RTVSPropertyOp42
 70
     1
102
RTVSPropertyOp43
 70
     1
102
RTVSPropertyOp44
 70
     1
102
RTVSPropertyOp45
 70
     1
102
RTVSPropertyOp46
 70
     1
102
RTVSPropertyOp47
 70
     1
102
RTVSPropertyOp48
 70
     1
102
RTVSPropertyOp49
 70
     1
102
RTVSPropertyOp50
 70
     1
102
RTVSPropertyOp51
 70
     0
102
RTVSPropertyOp52
 70
     0
102
RTVSPropertyOp53
 70
     1
102
RTVSPropertyOp54
 70
     1
102
RTVSPropertyOp55
 70
     1
102
RTVSPropertyOp56
 70
     1
102
RTVSPropertyOp57
 70
     1
102
RTVSPropertyOp58
 70
     1
102
RTVSPropertyOp59
 70
     1
102
RTVSPropertyOp60
 70
     1
102
RTVSPropertyOp61
 70
     1
102
RTVSPropertyOp62
 70
     1
  0
XRECORD
  5
B1CB
102
{ACAD_REACTORS
330
B1CA
102
}
330
B1CA
100
AcDbXrecord
280
     1
102
RTVSPost2010Prop28
280
     0
102
RTVSPost2010PropOp28
 70
     1
102
RTVSPost2010Prop29
280
     1
102
RTVSPost2010PropOp29
 70
     1
102
RTVSPost2010Prop30
280
     1
102
RTVSPost2010PropOp30
 70
     1
102
RTVSPost2010Prop31
280
     0
102
RTVSPost2010PropOp31
 70
     1
102
RTVSPost2010Prop32
280
     0
102
RTVSPost2010PropOp32
 70
     1
102
RTVSPost2010Prop33
280
     0
102
RTVSPost2010PropOp33
 70
     1
102
RTVSPost2010Prop34
280
     0
102
RTVSPost2010PropOp34
 70
     1
102
RTVSPost2010Prop35
280
     0
102
RTVSPost2010PropOp35
 70
     1
102
RTVSPost2010Prop36
280
     0
102
RTVSPost2010PropOp36
 70
     1
102
RTVSPost2010Prop37
 90
       50
102
RTVSPost2010PropOp37
 70
     1
102
RTVSPost2010Prop38
140
0.0
102
RTVSPost2010PropOp38
 70
     1
102
RTVSPost2010Prop39
140
1.0
102
RTVSPost2010PropOp39
 70
     1
102
RTVSPost2010Prop40
 90
        0
102
RTVSPost2010PropOp40
 70
     1
102
RTVSPost2010Prop41ColorIndex
 90
       18
102
RTVSPost2010Prop41ColorRGB
 90
        0
102
RTVSPost2010PropOp41
 70
     1
102
RTVSPost2010Prop42
 90
       50
102
RTVSPost2010PropOp42
 70
     1
102
RTVSPost2010Prop43
 90
        3
102
RTVSPost2010PropOp43
 70
     1
102
RTVSPost2010Prop44ColorIndex
 90
        5
102
RTVSPost2010Prop44ColorRGB
 90
      255
102
RTVSPost2010PropOp44
 70
     1
102
RTVSPost2010Prop45
280
     0
102
RTVSPost2010PropOp45
 70
     1
102
RTVSPost2010Prop46
 90
       50
102
RTVSPost2010PropOp46
 70
     1
102
RTVSPost2010Prop47
 90
       50
102
RTVSPost2010PropOp47
 70
     1
102
RTVSPost2010Prop48
 90
       50
102
RTVSPost2010PropOp48
 70
     1
102
RTVSPost2010Prop49
280
     0
102
RTVSPost2010PropOp49
 70
     1
102
RTVSPost2010Prop50
 90
       50
102
RTVSPost2010PropOp50
 70
     1
102
RTVSPost2010Prop51ColorIndex
 90
      256
102
RTVSPost2010Prop51ColorRGB
 90
-16777216
102
RTVSPost2010PropOp51
 70
     0
102
RTVSPost2010Prop52
140
1.0
102
RTVSPost2010PropOp52
 70
     0
102
RTVSPost2010Prop53
 90
        2
102
RTVSPost2010PropOp53
 70
     1
102
RTVSPost2010Prop54
  1
strokes_ogs.tif
102
RTVSPost2010PropOp54
 70
     1
102
RTVSPost2010Prop55
280
     0
102
RTVSPost2010PropOp55
 70
     1
102
RTVSPost2010Prop56
140
1.0
102
RTVSPost2010PropOp56
 70
     1
102
RTVSPost2010Prop57
140
1.0
102
RTVSPost2010PropOp57
 70
     1
102
RTVSPropertyOp0
 70
     1
102
RTVSPropertyOp1
 70
     1
102
RTVSPropertyOp2
 70
     1
102
RTVSPropertyOp3
 70
     1
102
RTVSPropertyOp4
 70
     1
102
RTVSPropertyOp5
 70
     1
102
RTVSPropertyOp6
 70
     1
102
RTVSPropertyOp7
 70
     1
102
RTVSPropertyOp8
 70
     1
102
RTVSPropertyOp9
 70
     1
102
RTVSPropertyOp10
 70
     1
102
RTVSPropertyOp11
 70
     1
102
RTVSPropertyOp12
 70
     1
102
RTVSPropertyOp13
 70
     1
102
RTVSPropertyOp14
 70
     1
102
RTVSPropertyOp15
 70
     1
102
RTVSPropertyOp16
 70
     1
102
RTVSPropertyOp17
 70
     1
102
RTVSPropertyOp18
 70
     1
102
RTVSPropertyOp19
 70
     1
102
RTVSPropertyOp20
 70
     1
102
RTVSPropertyOp21
 70
     1
102
RTVSPropertyOp22
 70
     1
102
RTVSPropertyOp23
 70
     1
102
RTVSPropertyOp24
 70
     1
102
RTVSPropertyOp25
 70
     1
102
RTVSPropertyOp26
 70
     1
102
RTVSPropertyOp27
 70
     1
102
RTVSPropertyOp28
 70
     1
102
RTVSPropertyOp29
 70
     1
102
RTVSPropertyOp30
 70
     1
102
RTVSPropertyOp31
 70
     1
102
RTVSPropertyOp32
 70
     1
102
RTVSPropertyOp33
 70
     1
102
RTVSPropertyOp34
 70
     1
102
RTVSPropertyOp35
 70
     1
102
RTVSPropertyOp36
 70
     1
102
RTVSPropertyOp37
 70
     1
102
RTVSPropertyOp38
 70
     1
102
RTVSPropertyOp39
 70
     1
102
RTVSPropertyOp40
 70
     1
102
RTVSPropertyOp41
 70
     1
102
RTVSPropertyOp42
 70
     1
102
RTVSPropertyOp43
 70
     1
102
RTVSPropertyOp44
 70
     1
102
RTVSPropertyOp45
 70
     1
102
RTVSPropertyOp46
 70
     1
102
RTVSPropertyOp47
 70
     1
102
RTVSPropertyOp48
 70
     1
102
RTVSPropertyOp49
 70
     1
102
RTVSPropertyOp50
 70
     1
102
RTVSPropertyOp51
 70
     0
102
RTVSPropertyOp52
 70
     0
102
RTVSPropertyOp53
 70
     1
102
RTVSPropertyOp54
 70
     1
102
RTVSPropertyOp55
 70
     1
102
RTVSPropertyOp56
 70
     1
102
RTVSPropertyOp57
 70
     1
102
RTVSPropertyOp58
 70
     1
102
RTVSPropertyOp59
 70
     1
102
RTVSPropertyOp60
 70
     1
102
RTVSPropertyOp61
 70
     1
102
RTVSPropertyOp62
 70
     1
  0
XRECORD
  5
B1CD
102
{ACAD_REACTORS
330
B1CC
102
}
330
B1CC
100
AcDbXrecord
280
     1
102
RTVSPost2010Prop28
280
     0
102
RTVSPost2010PropOp28
 70
     1
102
RTVSPost2010Prop29
280
     1
102
RTVSPost2010PropOp29
 70
     1
102
RTVSPost2010Prop30
280
     1
102
RTVSPost2010PropOp30
 70
     1
102
RTVSPost2010Prop31
280
     0
102
RTVSPost2010PropOp31
 70
     1
102
RTVSPost2010Prop32
280
     0
102
RTVSPost2010PropOp32
 70
     1
102
RTVSPost2010Prop33
280
     0
102
RTVSPost2010PropOp33
 70
     1
102
RTVSPost2010Prop34
280
     0
102
RTVSPost2010PropOp34
 70
     1
102
RTVSPost2010Prop35
280
     0
102
RTVSPost2010PropOp35
 70
     1
102
RTVSPost2010Prop36
280
     0
102
RTVSPost2010PropOp36
 70
     1
102
RTVSPost2010Prop37
 90
       50
102
RTVSPost2010PropOp37
 70
     1
102
RTVSPost2010Prop38
140
0.0
102
RTVSPost2010PropOp38
 70
     1
102
RTVSPost2010Prop39
140
1.0
102
RTVSPost2010PropOp39
 70
     1
102
RTVSPost2010Prop40
 90
        0
102
RTVSPost2010PropOp40
 70
     1
102
RTVSPost2010Prop41ColorIndex
 90
       18
102
RTVSPost2010Prop41ColorRGB
 90
        0
102
RTVSPost2010PropOp41
 70
     1
102
RTVSPost2010Prop42
 90
       50
102
RTVSPost2010PropOp42
 70
     1
102
RTVSPost2010Prop43
 90
        3
102
RTVSPost2010PropOp43
 70
     1
102
RTVSPost2010Prop44ColorIndex
 90
        5
102
RTVSPost2010Prop44ColorRGB
 90
      255
102
RTVSPost2010PropOp44
 70
     1
102
RTVSPost2010Prop45
280
     0
102
RTVSPost2010PropOp45
 70
     1
102
RTVSPost2010Prop46
 90
       50
102
RTVSPost2010PropOp46
 70
     1
102
RTVSPost2010Prop47
 90
       50
102
RTVSPost2010PropOp47
 70
     1
102
RTVSPost2010Prop48
 90
       50
102
RTVSPost2010PropOp48
 70
     1
102
RTVSPost2010Prop49
280
     0
102
RTVSPost2010PropOp49
 70
     1
102
RTVSPost2010Prop50
 90
       50
102
RTVSPost2010PropOp50
 70
     1
102
RTVSPost2010Prop51ColorIndex
 90
      256
102
RTVSPost2010Prop51ColorRGB
 90
-16777216
102
RTVSPost2010PropOp51
 70
     0
102
RTVSPost2010Prop52
140
1.0
102
RTVSPost2010PropOp52
 70
     0
102
RTVSPost2010Prop53
 90
        2
102
RTVSPost2010PropOp53
 70
     1
102
RTVSPost2010Prop54
  1
strokes_ogs.tif
102
RTVSPost2010PropOp54
 70
     1
102
RTVSPost2010Prop55
280
     0
102
RTVSPost2010PropOp55
 70
     1
102
RTVSPost2010Prop56
140
1.0
102
RTVSPost2010PropOp56
 70
     1
102
RTVSPost2010Prop57
140
1.0
102
RTVSPost2010PropOp57
 70
     1
102
RTVSPropertyOp0
 70
     1
102
RTVSPropertyOp1
 70
     1
102
RTVSPropertyOp2
 70
     1
102
RTVSPropertyOp3
 70
     1
102
RTVSPropertyOp4
 70
     1
102
RTVSPropertyOp5
 70
     1
102
RTVSPropertyOp6
 70
     1
102
RTVSPropertyOp7
 70
     1
102
RTVSPropertyOp8
 70
     1
102
RTVSPropertyOp9
 70
     1
102
RTVSPropertyOp10
 70
     1
102
RTVSPropertyOp11
 70
     1
102
RTVSPropertyOp12
 70
     1
102
RTVSPropertyOp13
 70
     1
102
RTVSPropertyOp14
 70
     1
102
RTVSPropertyOp15
 70
     1
102
RTVSPropertyOp16
 70
     1
102
RTVSPropertyOp17
 70
     1
102
RTVSPropertyOp18
 70
     1
102
RTVSPropertyOp19
 70
     1
102
RTVSPropertyOp20
 70
     1
102
RTVSPropertyOp21
 70
     1
102
RTVSPropertyOp22
 70
     1
102
RTVSPropertyOp23
 70
     1
102
RTVSPropertyOp24
 70
     1
102
RTVSPropertyOp25
 70
     1
102
RTVSPropertyOp26
 70
     1
102
RTVSPropertyOp27
 70
     1
102
RTVSPropertyOp28
 70
     1
102
RTVSPropertyOp29
 70
     1
102
RTVSPropertyOp30
 70
     1
102
RTVSPropertyOp31
 70
     1
102
RTVSPropertyOp32
 70
     1
102
RTVSPropertyOp33
 70
     1
102
RTVSPropertyOp34
 70
     1
102
RTVSPropertyOp35
 70
     1
102
RTVSPropertyOp36
 70
     1
102
RTVSPropertyOp37
 70
     1
102
RTVSPropertyOp38
 70
     1
102
RTVSPropertyOp39
 70
     1
102
RTVSPropertyOp40
 70
     1
102
RTVSPropertyOp41
 70
     1
102
RTVSPropertyOp42
 70
     1
102
RTVSPropertyOp43
 70
     1
102
RTVSPropertyOp44
 70
     1
102
RTVSPropertyOp45
 70
     1
102
RTVSPropertyOp46
 70
     1
102
RTVSPropertyOp47
 70
     1
102
RTVSPropertyOp48
 70
     1
102
RTVSPropertyOp49
 70
     1
102
RTVSPropertyOp50
 70
     1
102
RTVSPropertyOp51
 70
     0
102
RTVSPropertyOp52
 70
     0
102
RTVSPropertyOp53
 70
     1
102
RTVSPropertyOp54
 70
     1
102
RTVSPropertyOp55
 70
     1
102
RTVSPropertyOp56
 70
     1
102
RTVSPropertyOp57
 70
     1
102
RTVSPropertyOp58
 70
     1
102
RTVSPropertyOp59
 70
     1
102
RTVSPropertyOp60
 70
     1
102
RTVSPropertyOp61
 70
     1
102
RTVSPropertyOp62
 70
     1
  0
XRECORD
  5
B1CF
102
{ACAD_REACTORS
330
B1CE
102
}
330
B1CE
100
AcDbXrecord
280
     1
102
RTVSPost2010Prop28
280
     0
102
RTVSPost2010PropOp28
 70
     1
102
RTVSPost2010Prop29
280
     1
102
RTVSPost2010PropOp29
 70
     1
102
RTVSPost2010Prop30
280
     1
102
RTVSPost2010PropOp30
 70
     1
102
RTVSPost2010Prop31
280
     0
102
RTVSPost2010PropOp31
 70
     1
102
RTVSPost2010Prop32
280
     0
102
RTVSPost2010PropOp32
 70
     1
102
RTVSPost2010Prop33
280
     0
102
RTVSPost2010PropOp33
 70
     1
102
RTVSPost2010Prop34
280
     0
102
RTVSPost2010PropOp34
 70
     1
102
RTVSPost2010Prop35
280
     0
102
RTVSPost2010PropOp35
 70
     1
102
RTVSPost2010Prop36
280
     0
102
RTVSPost2010PropOp36
 70
     1
102
RTVSPost2010Prop37
 90
       50
102
RTVSPost2010PropOp37
 70
     1
102
RTVSPost2010Prop38
140
0.0
102
RTVSPost2010PropOp38
 70
     1
102
RTVSPost2010Prop39
140
1.0
102
RTVSPost2010PropOp39
 70
     1
102
RTVSPost2010Prop40
 90
        0
102
RTVSPost2010PropOp40
 70
     1
102
RTVSPost2010Prop41ColorIndex
 90
       18
102
RTVSPost2010Prop41ColorRGB
 90
        0
102
RTVSPost2010PropOp41
 70
     1
102
RTVSPost2010Prop42
 90
       50
102
RTVSPost2010PropOp42
 70
     1
102
RTVSPost2010Prop43
 90
        3
102
RTVSPost2010PropOp43
 70
     1
102
RTVSPost2010Prop44ColorIndex
 90
        5
102
RTVSPost2010Prop44ColorRGB
 90
      255
102
RTVSPost2010PropOp44
 70
     1
102
RTVSPost2010Prop45
280
     0
102
RTVSPost2010PropOp45
 70
     1
102
RTVSPost2010Prop46
 90
       50
102
RTVSPost2010PropOp46
 70
     1
102
RTVSPost2010Prop47
 90
       50
102
RTVSPost2010PropOp47
 70
     1
102
RTVSPost2010Prop48
 90
       50
102
RTVSPost2010PropOp48
 70
     1
102
RTVSPost2010Prop49
280
     0
102
RTVSPost2010PropOp49
 70
     1
102
RTVSPost2010Prop50
 90
       50
102
RTVSPost2010PropOp50
 70
     1
102
RTVSPost2010Prop51ColorIndex
 90
      256
102
RTVSPost2010Prop51ColorRGB
 90
-16777216
102
RTVSPost2010PropOp51
 70
     0
102
RTVSPost2010Prop52
140
1.0
102
RTVSPost2010PropOp52
 70
     0
102
RTVSPost2010Prop53
 90
        2
102
RTVSPost2010PropOp53
 70
     1
102
RTVSPost2010Prop54
  1
strokes_ogs.tif
102
RTVSPost2010PropOp54
 70
     1
102
RTVSPost2010Prop55
280
     0
102
RTVSPost2010PropOp55
 70
     1
102
RTVSPost2010Prop56
140
1.0
102
RTVSPost2010PropOp56
 70
     1
102
RTVSPost2010Prop57
140
1.0
102
RTVSPost2010PropOp57
 70
     1
102
RTVSPropertyOp0
 70
     1
102
RTVSPropertyOp1
 70
     1
102
RTVSPropertyOp2
 70
     1
102
RTVSPropertyOp3
 70
     1
102
RTVSPropertyOp4
 70
     1
102
RTVSPropertyOp5
 70
     1
102
RTVSPropertyOp6
 70
     1
102
RTVSPropertyOp7
 70
     1
102
RTVSPropertyOp8
 70
     1
102
RTVSPropertyOp9
 70
     1
102
RTVSPropertyOp10
 70
     1
102
RTVSPropertyOp11
 70
     1
102
RTVSPropertyOp12
 70
     1
102
RTVSPropertyOp13
 70
     1
102
RTVSPropertyOp14
 70
     1
102
RTVSPropertyOp15
 70
     1
102
RTVSPropertyOp16
 70
     1
102
RTVSPropertyOp17
 70
     1
102
RTVSPropertyOp18
 70
     1
102
RTVSPropertyOp19
 70
     1
102
RTVSPropertyOp20
 70
     1
102
RTVSPropertyOp21
 70
     1
102
RTVSPropertyOp22
 70
     1
102
RTVSPropertyOp23
 70
     1
102
RTVSPropertyOp24
 70
     1
102
RTVSPropertyOp25
 70
     1
102
RTVSPropertyOp26
 70
     1
102
RTVSPropertyOp27
 70
     1
102
RTVSPropertyOp28
 70
     1
102
RTVSPropertyOp29
 70
     1
102
RTVSPropertyOp30
 70
     1
102
RTVSPropertyOp31
 70
     1
102
RTVSPropertyOp32
 70
     1
102
RTVSPropertyOp33
 70
     1
102
RTVSPropertyOp34
 70
     1
102
RTVSPropertyOp35
 70
     1
102
RTVSPropertyOp36
 70
     1
102
RTVSPropertyOp37
 70
     1
102
RTVSPropertyOp38
 70
     1
102
RTVSPropertyOp39
 70
     1
102
RTVSPropertyOp40
 70
     1
102
RTVSPropertyOp41
 70
     1
102
RTVSPropertyOp42
 70
     1
102
RTVSPropertyOp43
 70
     1
102
RTVSPropertyOp44
 70
     1
102
RTVSPropertyOp45
 70
     1
102
RTVSPropertyOp46
 70
     1
102
RTVSPropertyOp47
 70
     1
102
RTVSPropertyOp48
 70
     1
102
RTVSPropertyOp49
 70
     1
102
RTVSPropertyOp50
 70
     1
102
RTVSPropertyOp51
 70
     0
102
RTVSPropertyOp52
 70
     0
102
RTVSPropertyOp53
 70
     1
102
RTVSPropertyOp54
 70
     1
102
RTVSPropertyOp55
 70
     1
102
RTVSPropertyOp56
 70
     1
102
RTVSPropertyOp57
 70
     1
102
RTVSPropertyOp58
 70
     1
102
RTVSPropertyOp59
 70
     1
102
RTVSPropertyOp60
 70
     1
102
RTVSPropertyOp61
 70
     1
102
RTVSPropertyOp62
 70
     1
  0
XRECORD
  5
B1D1
102
{ACAD_REACTORS
330
B1D0
102
}
330
B1D0
100
AcDbXrecord
280
     1
102
RTVSPost2010Prop28
280
     0
102
RTVSPost2010PropOp28
 70
     1
102
RTVSPost2010Prop29
280
     1
102
RTVSPost2010PropOp29
 70
     1
102
RTVSPost2010Prop30
280
     1
102
RTVSPost2010PropOp30
 70
     1
102
RTVSPost2010Prop31
280
     0
102
RTVSPost2010PropOp31
 70
     1
102
RTVSPost2010Prop32
280
     0
102
RTVSPost2010PropOp32
 70
     1
102
RTVSPost2010Prop33
280
     0
102
RTVSPost2010PropOp33
 70
     1
102
RTVSPost2010Prop34
280
     0
102
RTVSPost2010PropOp34
 70
     1
102
RTVSPost2010Prop35
280
     0
102
RTVSPost2010PropOp35
 70
     1
102
RTVSPost2010Prop36
280
     0
102
RTVSPost2010PropOp36
 70
     1
102
RTVSPost2010Prop37
 90
       50
102
RTVSPost2010PropOp37
 70
     1
102
RTVSPost2010Prop38
140
0.0
102
RTVSPost2010PropOp38
 70
     1
102
RTVSPost2010Prop39
140
1.0
102
RTVSPost2010PropOp39
 70
     1
102
RTVSPost2010Prop40
 90
        0
102
RTVSPost2010PropOp40
 70
     1
102
RTVSPost2010Prop41ColorIndex
 90
       18
102
RTVSPost2010Prop41ColorRGB
 90
        0
102
RTVSPost2010PropOp41
 70
     1
102
RTVSPost2010Prop42
 90
       50
102
RTVSPost2010PropOp42
 70
     1
102
RTVSPost2010Prop43
 90
        3
102
RTVSPost2010PropOp43
 70
     1
102
RTVSPost2010Prop44ColorIndex
 90
        5
102
RTVSPost2010Prop44ColorRGB
 90
      255
102
RTVSPost2010PropOp44
 70
     1
102
RTVSPost2010Prop45
280
     0
102
RTVSPost2010PropOp45
 70
     1
102
RTVSPost2010Prop46
 90
       50
102
RTVSPost2010PropOp46
 70
     1
102
RTVSPost2010Prop47
 90
       50
102
RTVSPost2010PropOp47
 70
     1
102
RTVSPost2010Prop48
 90
       50
102
RTVSPost2010PropOp48
 70
     1
102
RTVSPost2010Prop49
280
     0
102
RTVSPost2010PropOp49
 70
     1
102
RTVSPost2010Prop50
 90
       50
102
RTVSPost2010PropOp50
 70
     1
102
RTVSPost2010Prop51ColorIndex
 90
      256
102
RTVSPost2010Prop51ColorRGB
 90
-16777216
102
RTVSPost2010PropOp51
 70
     0
102
RTVSPost2010Prop52
140
1.0
102
RTVSPost2010PropOp52
 70
     0
102
RTVSPost2010Prop53
 90
        2
102
RTVSPost2010PropOp53
 70
     1
102
RTVSPost2010Prop54
  1
strokes_ogs.tif
102
RTVSPost2010PropOp54
 70
     1
102
RTVSPost2010Prop55
280
     0
102
RTVSPost2010PropOp55
 70
     1
102
RTVSPost2010Prop56
140
1.0
102
RTVSPost2010PropOp56
 70
     1
102
RTVSPost2010Prop57
140
1.0
102
RTVSPost2010PropOp57
 70
     1
102
RTVSPropertyOp0
 70
     1
102
RTVSPropertyOp1
 70
     1
102
RTVSPropertyOp2
 70
     1
102
RTVSPropertyOp3
 70
     1
102
RTVSPropertyOp4
 70
     1
102
RTVSPropertyOp5
 70
     1
102
RTVSPropertyOp6
 70
     1
102
RTVSPropertyOp7
 70
     1
102
RTVSPropertyOp8
 70
     1
102
RTVSPropertyOp9
 70
     1
102
RTVSPropertyOp10
 70
     1
102
RTVSPropertyOp11
 70
     1
102
RTVSPropertyOp12
 70
     1
102
RTVSPropertyOp13
 70
     1
102
RTVSPropertyOp14
 70
     1
102
RTVSPropertyOp15
 70
     1
102
RTVSPropertyOp16
 70
     1
102
RTVSPropertyOp17
 70
     1
102
RTVSPropertyOp18
 70
     1
102
RTVSPropertyOp19
 70
     1
102
RTVSPropertyOp20
 70
     1
102
RTVSPropertyOp21
 70
     1
102
RTVSPropertyOp22
 70
     1
102
RTVSPropertyOp23
 70
     1
102
RTVSPropertyOp24
 70
     1
102
RTVSPropertyOp25
 70
     1
102
RTVSPropertyOp26
 70
     1
102
RTVSPropertyOp27
 70
     1
102
RTVSPropertyOp28
 70
     1
102
RTVSPropertyOp29
 70
     1
102
RTVSPropertyOp30
 70
     1
102
RTVSPropertyOp31
 70
     1
102
RTVSPropertyOp32
 70
     1
102
RTVSPropertyOp33
 70
     1
102
RTVSPropertyOp34
 70
     1
102
RTVSPropertyOp35
 70
     1
102
RTVSPropertyOp36
 70
     1
102
RTVSPropertyOp37
 70
     1
102
RTVSPropertyOp38
 70
     1
102
RTVSPropertyOp39
 70
     1
102
RTVSPropertyOp40
 70
     1
102
RTVSPropertyOp41
 70
     1
102
RTVSPropertyOp42
 70
     1
102
RTVSPropertyOp43
 70
     1
102
RTVSPropertyOp44
 70
     1
102
RTVSPropertyOp45
 70
     1
102
RTVSPropertyOp46
 70
     1
102
RTVSPropertyOp47
 70
     1
102
RTVSPropertyOp48
 70
     1
102
RTVSPropertyOp49
 70
     1
102
RTVSPropertyOp50
 70
     1
102
RTVSPropertyOp51
 70
     0
102
RTVSPropertyOp52
 70
     0
102
RTVSPropertyOp53
 70
     1
102
RTVSPropertyOp54
 70
     1
102
RTVSPropertyOp55
 70
     1
102
RTVSPropertyOp56
 70
     1
102
RTVSPropertyOp57
 70
     1
102
RTVSPropertyOp58
 70
     1
102
RTVSPropertyOp59
 70
     1
102
RTVSPropertyOp60
 70
     1
102
RTVSPropertyOp61
 70
     1
102
RTVSPropertyOp62
 70
     1
  0
XRECORD
  5
B1D9
102
{ACAD_REACTORS
330
B1D8
102
}
330
B1D8
100
AcDbXrecord
280
     1
102
RTVSPost2010Prop28
280
     0
102
RTVSPost2010PropOp28
 70
     1
102
RTVSPost2010Prop29
280
     1
102
RTVSPost2010PropOp29
 70
     1
102
RTVSPost2010Prop30
280
     1
102
RTVSPost2010PropOp30
 70
     1
102
RTVSPost2010Prop31
280
     0
102
RTVSPost2010PropOp31
 70
     1
102
RTVSPost2010Prop32
280
     0
102
RTVSPost2010PropOp32
 70
     1
102
RTVSPost2010Prop33
280
     0
102
RTVSPost2010PropOp33
 70
     1
102
RTVSPost2010Prop34
280
     0
102
RTVSPost2010PropOp34
 70
     1
102
RTVSPost2010Prop35
280
     0
102
RTVSPost2010PropOp35
 70
     1
102
RTVSPost2010Prop36
280
     0
102
RTVSPost2010PropOp36
 70
     1
102
RTVSPost2010Prop37
 90
       50
102
RTVSPost2010PropOp37
 70
     1
102
RTVSPost2010Prop38
140
0.0
102
RTVSPost2010PropOp38
 70
     1
102
RTVSPost2010Prop39
140
1.0
102
RTVSPost2010PropOp39
 70
     1
102
RTVSPost2010Prop40
 90
        0
102
RTVSPost2010PropOp40
 70
     1
102
RTVSPost2010Prop41ColorIndex
 90
       18
102
RTVSPost2010Prop41ColorRGB
 90
        0
102
RTVSPost2010PropOp41
 70
     1
102
RTVSPost2010Prop42
 90
       50
102
RTVSPost2010PropOp42
 70
     1
102
RTVSPost2010Prop43
 90
        3
102
RTVSPost2010PropOp43
 70
     1
102
RTVSPost2010Prop44ColorIndex
 90
        5
102
RTVSPost2010Prop44ColorRGB
 90
      255
102
RTVSPost2010PropOp44
 70
     1
102
RTVSPost2010Prop45
280
     0
102
RTVSPost2010PropOp45
 70
     1
102
RTVSPost2010Prop46
 90
       50
102
RTVSPost2010PropOp46
 70
     1
102
RTVSPost2010Prop47
 90
       50
102
RTVSPost2010PropOp47
 70
     1
102
RTVSPost2010Prop48
 90
       50
102
RTVSPost2010PropOp48
 70
     1
102
RTVSPost2010Prop49
280
     0
102
RTVSPost2010PropOp49
 70
     1
102
RTVSPost2010Prop50
 90
       50
102
RTVSPost2010PropOp50
 70
     1
102
RTVSPost2010Prop51ColorIndex
 90
      256
102
RTVSPost2010Prop51ColorRGB
 90
-16777216
102
RTVSPost2010PropOp51
 70
     0
102
RTVSPost2010Prop52
140
1.0
102
RTVSPost2010PropOp52
 70
     0
102
RTVSPost2010Prop53
 90
        2
102
RTVSPost2010PropOp53
 70
     1
102
RTVSPost2010Prop54
  1
strokes_ogs.tif
102
RTVSPost2010PropOp54
 70
     1
102
RTVSPost2010Prop55
280
     0
102
RTVSPost2010PropOp55
 70
     1
102
RTVSPost2010Prop56
140
1.0
102
RTVSPost2010PropOp56
 70
     1
102
RTVSPost2010Prop57
140
1.0
102
RTVSPost2010PropOp57
 70
     1
102
RTVSPropertyOp0
 70
     1
102
RTVSPropertyOp1
 70
     1
102
RTVSPropertyOp2
 70
     1
102
RTVSPropertyOp3
 70
     1
102
RTVSPropertyOp4
 70
     1
102
RTVSPropertyOp5
 70
     1
102
RTVSPropertyOp6
 70
     1
102
RTVSPropertyOp7
 70
     1
102
RTVSPropertyOp8
 70
     1
102
RTVSPropertyOp9
 70
     1
102
RTVSPropertyOp10
 70
     1
102
RTVSPropertyOp11
 70
     1
102
RTVSPropertyOp12
 70
     1
102
RTVSPropertyOp13
 70
     1
102
RTVSPropertyOp14
 70
     1
102
RTVSPropertyOp15
 70
     1
102
RTVSPropertyOp16
 70
     1
102
RTVSPropertyOp17
 70
     1
102
RTVSPropertyOp18
 70
     1
102
RTVSPropertyOp19
 70
     1
102
RTVSPropertyOp20
 70
     1
102
RTVSPropertyOp21
 70
     1
102
RTVSPropertyOp22
 70
     1
102
RTVSPropertyOp23
 70
     1
102
RTVSPropertyOp24
 70
     1
102
RTVSPropertyOp25
 70
     1
102
RTVSPropertyOp26
 70
     1
102
RTVSPropertyOp27
 70
     1
102
RTVSPropertyOp28
 70
     1
102
RTVSPropertyOp29
 70
     1
102
RTVSPropertyOp30
 70
     1
102
RTVSPropertyOp31
 70
     1
102
RTVSPropertyOp32
 70
     1
102
RTVSPropertyOp33
 70
     1
102
RTVSPropertyOp34
 70
     1
102
RTVSPropertyOp35
 70
     1
102
RTVSPropertyOp36
 70
     1
102
RTVSPropertyOp37
 70
     1
102
RTVSPropertyOp38
 70
     1
102
RTVSPropertyOp39
 70
     1
102
RTVSPropertyOp40
 70
     1
102
RTVSPropertyOp41
 70
     1
102
RTVSPropertyOp42
 70
     1
102
RTVSPropertyOp43
 70
     1
102
RTVSPropertyOp44
 70
     1
102
RTVSPropertyOp45
 70
     1
102
RTVSPropertyOp46
 70
     1
102
RTVSPropertyOp47
 70
     1
102
RTVSPropertyOp48
 70
     1
102
RTVSPropertyOp49
 70
     1
102
RTVSPropertyOp50
 70
     1
102
RTVSPropertyOp51
 70
     0
102
RTVSPropertyOp52
 70
     0
102
RTVSPropertyOp53
 70
     1
102
RTVSPropertyOp54
 70
     1
102
RTVSPropertyOp55
 70
     1
102
RTVSPropertyOp56
 70
     1
102
RTVSPropertyOp57
 70
     1
102
RTVSPropertyOp58
 70
     1
102
RTVSPropertyOp59
 70
     1
102
RTVSPropertyOp60
 70
     1
102
RTVSPropertyOp61
 70
     1
102
RTVSPropertyOp62
 70
     1
  0
XRECORD
  5
B1F5
102
{ACAD_REACTORS
330
B1F4
102
}
330
B1F4
100
AcDbXrecord
280
     1
102
RTVSPost2010Prop28
280
     0
102
RTVSPost2010PropOp28
 70
     0
102
RTVSPost2010Prop29
280
     1
102
RTVSPost2010PropOp29
 70
     0
102
RTVSPost2010Prop30
280
     1
102
RTVSPost2010PropOp30
 70
     0
102
RTVSPost2010Prop31
280
     0
102
RTVSPost2010PropOp31
 70
     0
102
RTVSPost2010Prop32
280
     0
102
RTVSPost2010PropOp32
 70
     0
102
RTVSPost2010Prop33
280
     0
102
RTVSPost2010PropOp33
 70
     0
102
RTVSPost2010Prop34
280
     0
102
RTVSPost2010PropOp34
 70
     0
102
RTVSPost2010Prop35
280
     0
102
RTVSPost2010PropOp35
 70
     0
102
RTVSPost2010Prop36
280
     0
102
RTVSPost2010PropOp36
 70
     0
102
RTVSPost2010Prop37
 90
       50
102
RTVSPost2010PropOp37
 70
     0
102
RTVSPost2010Prop38
140
0.0
102
RTVSPost2010PropOp38
 70
     0
102
RTVSPost2010Prop39
140
1.0
102
RTVSPost2010PropOp39
 70
     0
102
RTVSPost2010Prop40
 90
        0
102
RTVSPost2010PropOp40
 70
     0
102
RTVSPost2010Prop41ColorIndex
 90
       18
102
RTVSPost2010Prop41ColorRGB
 90
        0
102
RTVSPost2010PropOp41
 70
     0
102
RTVSPost2010Prop42
 90
       50
102
RTVSPost2010PropOp42
 70
     0
102
RTVSPost2010Prop43
 90
        3
102
RTVSPost2010PropOp43
 70
     0
102
RTVSPost2010Prop44ColorIndex
 90
        5
102
RTVSPost2010Prop44ColorRGB
 90
      255
102
RTVSPost2010PropOp44
 70
     0
102
RTVSPost2010Prop45
280
     0
102
RTVSPost2010PropOp45
 70
     0
102
RTVSPost2010Prop46
 90
       50
102
RTVSPost2010PropOp46
 70
     0
102
RTVSPost2010Prop47
 90
       50
102
RTVSPost2010PropOp47
 70
     0
102
RTVSPost2010Prop48
 90
       50
102
RTVSPost2010PropOp48
 70
     0
102
RTVSPost2010Prop49
280
     0
102
RTVSPost2010PropOp49
 70
     0
102
RTVSPost2010Prop50
 90
       50
102
RTVSPost2010PropOp50
 70
     0
102
RTVSPost2010Prop51ColorIndex
 90
      256
102
RTVSPost2010Prop51ColorRGB
 90
-16777216
102
RTVSPost2010PropOp51
 70
     0
102
RTVSPost2010Prop52
140
1.0
102
RTVSPost2010PropOp52
 70
     0
102
RTVSPost2010Prop53
 90
        2
102
RTVSPost2010PropOp53
 70
     0
102
RTVSPost2010Prop54
  1
strokes_ogs.tif
102
RTVSPost2010PropOp54
 70
     0
102
RTVSPost2010Prop55
280
     0
102
RTVSPost2010PropOp55
 70
     0
102
RTVSPost2010Prop56
140
1.0
102
RTVSPost2010PropOp56
 70
     0
102
RTVSPost2010Prop57
140
1.0
102
RTVSPost2010PropOp57
 70
     0
102
RTVSPropertyOp0
 70
     0
102
RTVSPropertyOp1
 70
     0
102
RTVSPropertyOp2
 70
     0
102
RTVSPropertyOp3
 70
     0
102
RTVSPropertyOp4
 70
     0
102
RTVSPropertyOp5
 70
     0
102
RTVSPropertyOp6
 70
     0
102
RTVSPropertyOp7
 70
     0
102
RTVSPropertyOp8
 70
     0
102
RTVSPropertyOp9
 70
     0
102
RTVSPropertyOp10
 70
     0
102
RTVSPropertyOp11
 70
     0
102
RTVSPropertyOp12
 70
     0
102
RTVSPropertyOp13
 70
     0
102
RTVSPropertyOp14
 70
     2
102
RTVSPropertyOp15
 70
     0
102
RTVSPropertyOp16
 70
     0
102
RTVSPropertyOp17
 70
     0
102
RTVSPropertyOp18
 70
     0
102
RTVSPropertyOp19
 70
     0
102
RTVSPropertyOp20
 70
     0
102
RTVSPropertyOp21
 70
     0
102
RTVSPropertyOp22
 70
     0
102
RTVSPropertyOp23
 70
     0
102
RTVSPropertyOp24
 70
     0
102
RTVSPropertyOp25
 70
     0
102
RTVSPropertyOp26
 70
     0
102
RTVSPropertyOp27
 70
     0
102
RTVSPropertyOp28
 70
     0
102
RTVSPropertyOp29
 70
     0
102
RTVSPropertyOp30
 70
     0
102
RTVSPropertyOp31
 70
     0
102
RTVSPropertyOp32
 70
     0
102
RTVSPropertyOp33
 70
     0
102
RTVSPropertyOp34
 70
     0
102
RTVSPropertyOp35
 70
     0
102
RTVSPropertyOp36
 70
     0
102
RTVSPropertyOp37
 70
     0
102
RTVSPropertyOp38
 70
     0
102
RTVSPropertyOp39
 70
     0
102
RTVSPropertyOp40
 70
     0
102
RTVSPropertyOp41
 70
     0
102
RTVSPropertyOp42
 70
     0
102
RTVSPropertyOp43
 70
     0
102
RTVSPropertyOp44
 70
     0
102
RTVSPropertyOp45
 70
     0
102
RTVSPropertyOp46
 70
     0
102
RTVSPropertyOp47
 70
     0
102
RTVSPropertyOp48
 70
     0
102
RTVSPropertyOp49
 70
     0
102
RTVSPropertyOp50
 70
     0
102
RTVSPropertyOp51
 70
     0
102
RTVSPropertyOp52
 70
     0
102
RTVSPropertyOp53
 70
     0
102
RTVSPropertyOp54
 70
     0
102
RTVSPropertyOp55
 70
     0
102
RTVSPropertyOp56
 70
     0
102
RTVSPropertyOp57
 70
     0
102
RTVSPropertyOp58
 70
     0
102
RTVSPropertyOp59
 70
     0
102
RTVSPropertyOp60
 70
     0
102
RTVSPropertyOp61
 70
     0
102
RTVSPropertyOp62
 70
     0
  0
XRECORD
  5
B1E5
102
{ACAD_REACTORS
330
B1E4
102
}
330
B1E4
100
AcDbXrecord
280
     1
102
RTVSPost2010Prop28
280
     0
102
RTVSPost2010PropOp28
 70
     1
102
RTVSPost2010Prop29
280
     1
102
RTVSPost2010PropOp29
 70
     1
102
RTVSPost2010Prop30
280
     1
102
RTVSPost2010PropOp30
 70
     1
102
RTVSPost2010Prop31
280
     0
102
RTVSPost2010PropOp31
 70
     1
102
RTVSPost2010Prop32
280
     0
102
RTVSPost2010PropOp32
 70
     1
102
RTVSPost2010Prop33
280
     0
102
RTVSPost2010PropOp33
 70
     1
102
RTVSPost2010Prop34
280
     0
102
RTVSPost2010PropOp34
 70
     1
102
RTVSPost2010Prop35
280
     0
102
RTVSPost2010PropOp35
 70
     1
102
RTVSPost2010Prop36
280
     0
102
RTVSPost2010PropOp36
 70
     1
102
RTVSPost2010Prop37
 90
       50
102
RTVSPost2010PropOp37
 70
     1
102
RTVSPost2010Prop38
140
0.0
102
RTVSPost2010PropOp38
 70
     1
102
RTVSPost2010Prop39
140
1.0
102
RTVSPost2010PropOp39
 70
     1
102
RTVSPost2010Prop40
 90
        0
102
RTVSPost2010PropOp40
 70
     1
102
RTVSPost2010Prop41ColorIndex
 90
       18
102
RTVSPost2010Prop41ColorRGB
 90
        0
102
RTVSPost2010PropOp41
 70
     1
102
RTVSPost2010Prop42
 90
       50
102
RTVSPost2010PropOp42
 70
     1
102
RTVSPost2010Prop43
 90
        3
102
RTVSPost2010PropOp43
 70
     1
102
RTVSPost2010Prop44ColorIndex
 90
        5
102
RTVSPost2010Prop44ColorRGB
 90
      255
102
RTVSPost2010PropOp44
 70
     1
102
RTVSPost2010Prop45
280
     0
102
RTVSPost2010PropOp45
 70
     1
102
RTVSPost2010Prop46
 90
       50
102
RTVSPost2010PropOp46
 70
     1
102
RTVSPost2010Prop47
 90
       50
102
RTVSPost2010PropOp47
 70
     1
102
RTVSPost2010Prop48
 90
       50
102
RTVSPost2010PropOp48
 70
     1
102
RTVSPost2010Prop49
280
     0
102
RTVSPost2010PropOp49
 70
     1
102
RTVSPost2010Prop50
 90
       50
102
RTVSPost2010PropOp50
 70
     1
102
RTVSPost2010Prop51ColorIndex
 90
      256
102
RTVSPost2010Prop51ColorRGB
 90
-16777216
102
RTVSPost2010PropOp51
 70
     0
102
RTVSPost2010Prop52
140
1.0
102
RTVSPost2010PropOp52
 70
     0
102
RTVSPost2010Prop53
 90
        2
102
RTVSPost2010PropOp53
 70
     1
102
RTVSPost2010Prop54
  1
strokes_ogs.tif
102
RTVSPost2010PropOp54
 70
     1
102
RTVSPost2010Prop55
280
     0
102
RTVSPost2010PropOp55
 70
     1
102
RTVSPost2010Prop56
140
1.0
102
RTVSPost2010PropOp56
 70
     1
102
RTVSPost2010Prop57
140
1.0
102
RTVSPost2010PropOp57
 70
     1
102
RTVSPropertyOp0
 70
     1
102
RTVSPropertyOp1
 70
     1
102
RTVSPropertyOp2
 70
     1
102
RTVSPropertyOp3
 70
     1
102
RTVSPropertyOp4
 70
     1
102
RTVSPropertyOp5
 70
     1
102
RTVSPropertyOp6
 70
     1
102
RTVSPropertyOp7
 70
     1
102
RTVSPropertyOp8
 70
     1
102
RTVSPropertyOp9
 70
     1
102
RTVSPropertyOp10
 70
     1
102
RTVSPropertyOp11
 70
     1
102
RTVSPropertyOp12
 70
     1
102
RTVSPropertyOp13
 70
     1
102
RTVSPropertyOp14
 70
     1
102
RTVSPropertyOp15
 70
     1
102
RTVSPropertyOp16
 70
     1
102
RTVSPropertyOp17
 70
     1
102
RTVSPropertyOp18
 70
     1
102
RTVSPropertyOp19
 70
     1
102
RTVSPropertyOp20
 70
     1
102
RTVSPropertyOp21
 70
     1
102
RTVSPropertyOp22
 70
     1
102
RTVSPropertyOp23
 70
     1
102
RTVSPropertyOp24
 70
     1
102
RTVSPropertyOp25
 70
     1
102
RTVSPropertyOp26
 70
     1
102
RTVSPropertyOp27
 70
     1
102
RTVSPropertyOp28
 70
     1
102
RTVSPropertyOp29
 70
     1
102
RTVSPropertyOp30
 70
     1
102
RTVSPropertyOp31
 70
     1
102
RTVSPropertyOp32
 70
     1
102
RTVSPropertyOp33
 70
     1
102
RTVSPropertyOp34
 70
     1
102
RTVSPropertyOp35
 70
     1
102
RTVSPropertyOp36
 70
     1
102
RTVSPropertyOp37
 70
     1
102
RTVSPropertyOp38
 70
     1
102
RTVSPropertyOp39
 70
     1
102
RTVSPropertyOp40
 70
     1
102
RTVSPropertyOp41
 70
     1
102
RTVSPropertyOp42
 70
     1
102
RTVSPropertyOp43
 70
     1
102
RTVSPropertyOp44
 70
     1
102
RTVSPropertyOp45
 70
     1
102
RTVSPropertyOp46
 70
     1
102
RTVSPropertyOp47
 70
     1
102
RTVSPropertyOp48
 70
     1
102
RTVSPropertyOp49
 70
     1
102
RTVSPropertyOp50
 70
     1
102
RTVSPropertyOp51
 70
     0
102
RTVSPropertyOp52
 70
     0
102
RTVSPropertyOp53
 70
     1
102
RTVSPropertyOp54
 70
     1
102
RTVSPropertyOp55
 70
     1
102
RTVSPropertyOp56
 70
     1
102
RTVSPropertyOp57
 70
     1
102
RTVSPropertyOp58
 70
     1
102
RTVSPropertyOp59
 70
     1
102
RTVSPropertyOp60
 70
     1
102
RTVSPropertyOp61
 70
     1
102
RTVSPropertyOp62
 70
     1
  0
XRECORD
  5
B1F7
102
{ACAD_REACTORS
330
B1F6
102
}
330
B1F6
100
AcDbXrecord
280
     1
102
RTVSPost2010Prop28
280
     0
102
RTVSPost2010PropOp28
 70
     0
102
RTVSPost2010Prop29
280
     1
102
RTVSPost2010PropOp29
 70
     0
102
RTVSPost2010Prop30
280
     1
102
RTVSPost2010PropOp30
 70
     0
102
RTVSPost2010Prop31
280
     0
102
RTVSPost2010PropOp31
 70
     0
102
RTVSPost2010Prop32
280
     0
102
RTVSPost2010PropOp32
 70
     0
102
RTVSPost2010Prop33
280
     0
102
RTVSPost2010PropOp33
 70
     0
102
RTVSPost2010Prop34
280
     0
102
RTVSPost2010PropOp34
 70
     0
102
RTVSPost2010Prop35
280
     0
102
RTVSPost2010PropOp35
 70
     0
102
RTVSPost2010Prop36
280
     0
102
RTVSPost2010PropOp36
 70
     0
102
RTVSPost2010Prop37
 90
       50
102
RTVSPost2010PropOp37
 70
     0
102
RTVSPost2010Prop38
140
0.0
102
RTVSPost2010PropOp38
 70
     0
102
RTVSPost2010Prop39
140
1.0
102
RTVSPost2010PropOp39
 70
     0
102
RTVSPost2010Prop40
 90
        0
102
RTVSPost2010PropOp40
 70
     0
102
RTVSPost2010Prop41ColorIndex
 90
       18
102
RTVSPost2010Prop41ColorRGB
 90
        0
102
RTVSPost2010PropOp41
 70
     0
102
RTVSPost2010Prop42
 90
       50
102
RTVSPost2010PropOp42
 70
     0
102
RTVSPost2010Prop43
 90
        3
102
RTVSPost2010PropOp43
 70
     0
102
RTVSPost2010Prop44ColorIndex
 90
        5
102
RTVSPost2010Prop44ColorRGB
 90
      255
102
RTVSPost2010PropOp44
 70
     0
102
RTVSPost2010Prop45
280
     0
102
RTVSPost2010PropOp45
 70
     0
102
RTVSPost2010Prop46
 90
       50
102
RTVSPost2010PropOp46
 70
     0
102
RTVSPost2010Prop47
 90
       50
102
RTVSPost2010PropOp47
 70
     0
102
RTVSPost2010Prop48
 90
       50
102
RTVSPost2010PropOp48
 70
     0
102
RTVSPost2010Prop49
280
     0
102
RTVSPost2010PropOp49
 70
     0
102
RTVSPost2010Prop50
 90
       50
102
RTVSPost2010PropOp50
 70
     0
102
RTVSPost2010Prop51ColorIndex
 90
      256
102
RTVSPost2010Prop51ColorRGB
 90
-16777216
102
RTVSPost2010PropOp51
 70
     0
102
RTVSPost2010Prop52
140
1.0
102
RTVSPost2010PropOp52
 70
     0
102
RTVSPost2010Prop53
 90
        2
102
RTVSPost2010PropOp53
 70
     0
102
RTVSPost2010Prop54
  1
strokes_ogs.tif
102
RTVSPost2010PropOp54
 70
     0
102
RTVSPost2010Prop55
280
     0
102
RTVSPost2010PropOp55
 70
     0
102
RTVSPost2010Prop56
140
1.0
102
RTVSPost2010PropOp56
 70
     0
102
RTVSPost2010Prop57
140
1.0
102
RTVSPost2010PropOp57
 70
     0
102
RTVSPropertyOp0
 70
     0
102
RTVSPropertyOp1
 70
     0
102
RTVSPropertyOp2
 70
     0
102
RTVSPropertyOp3
 70
     0
102
RTVSPropertyOp4
 70
     0
102
RTVSPropertyOp5
 70
     0
102
RTVSPropertyOp6
 70
     0
102
RTVSPropertyOp7
 70
     0
102
RTVSPropertyOp8
 70
     0
102
RTVSPropertyOp9
 70
     0
102
RTVSPropertyOp10
 70
     0
102
RTVSPropertyOp11
 70
     0
102
RTVSPropertyOp12
 70
     0
102
RTVSPropertyOp13
 70
     0
102
RTVSPropertyOp14
 70
     2
102
RTVSPropertyOp15
 70
     0
102
RTVSPropertyOp16
 70
     0
102
RTVSPropertyOp17
 70
     0
102
RTVSPropertyOp18
 70
     0
102
RTVSPropertyOp19
 70
     0
102
RTVSPropertyOp20
 70
     0
102
RTVSPropertyOp21
 70
     0
102
RTVSPropertyOp22
 70
     0
102
RTVSPropertyOp23
 70
     0
102
RTVSPropertyOp24
 70
     0
102
RTVSPropertyOp25
 70
     0
102
RTVSPropertyOp26
 70
     0
102
RTVSPropertyOp27
 70
     0
102
RTVSPropertyOp28
 70
     0
102
RTVSPropertyOp29
 70
     0
102
RTVSPropertyOp30
 70
     0
102
RTVSPropertyOp31
 70
     0
102
RTVSPropertyOp32
 70
     0
102
RTVSPropertyOp33
 70
     0
102
RTVSPropertyOp34
 70
     0
102
RTVSPropertyOp35
 70
     0
102
RTVSPropertyOp36
 70
     0
102
RTVSPropertyOp37
 70
     0
102
RTVSPropertyOp38
 70
     0
102
RTVSPropertyOp39
 70
     0
102
RTVSPropertyOp40
 70
     0
102
RTVSPropertyOp41
 70
     0
102
RTVSPropertyOp42
 70
     0
102
RTVSPropertyOp43
 70
     0
102
RTVSPropertyOp44
 70
     0
102
RTVSPropertyOp45
 70
     0
102
RTVSPropertyOp46
 70
     0
102
RTVSPropertyOp47
 70
     0
102
RTVSPropertyOp48
 70
     0
102
RTVSPropertyOp49
 70
     0
102
RTVSPropertyOp50
 70
     0
102
RTVSPropertyOp51
 70
     0
102
RTVSPropertyOp52
 70
     0
102
RTVSPropertyOp53
 70
     0
102
RTVSPropertyOp54
 70
     0
102
RTVSPropertyOp55
 70
     0
102
RTVSPropertyOp56
 70
     0
102
RTVSPropertyOp57
 70
     0
102
RTVSPropertyOp58
 70
     0
102
RTVSPropertyOp59
 70
     0
102
RTVSPropertyOp60
 70
     0
102
RTVSPropertyOp61
 70
     0
102
RTVSPropertyOp62
 70
     0
  0
XRECORD
  5
B1DD
102
{ACAD_REACTORS
330
B1DC
102
}
330
B1DC
100
AcDbXrecord
280
     1
102
RTVSPost2010Prop28
280
     0
102
RTVSPost2010PropOp28
 70
     1
102
RTVSPost2010Prop29
280
     1
102
RTVSPost2010PropOp29
 70
     1
102
RTVSPost2010Prop30
280
     1
102
RTVSPost2010PropOp30
 70
     1
102
RTVSPost2010Prop31
280
     0
102
RTVSPost2010PropOp31
 70
     1
102
RTVSPost2010Prop32
280
     0
102
RTVSPost2010PropOp32
 70
     1
102
RTVSPost2010Prop33
280
     0
102
RTVSPost2010PropOp33
 70
     1
102
RTVSPost2010Prop34
280
     0
102
RTVSPost2010PropOp34
 70
     1
102
RTVSPost2010Prop35
280
     0
102
RTVSPost2010PropOp35
 70
     1
102
RTVSPost2010Prop36
280
     0
102
RTVSPost2010PropOp36
 70
     1
102
RTVSPost2010Prop37
 90
       50
102
RTVSPost2010PropOp37
 70
     1
102
RTVSPost2010Prop38
140
0.0
102
RTVSPost2010PropOp38
 70
     1
102
RTVSPost2010Prop39
140
1.0
102
RTVSPost2010PropOp39
 70
     1
102
RTVSPost2010Prop40
 90
        0
102
RTVSPost2010PropOp40
 70
     1
102
RTVSPost2010Prop41ColorIndex
 90
       18
102
RTVSPost2010Prop41ColorRGB
 90
        0
102
RTVSPost2010PropOp41
 70
     1
102
RTVSPost2010Prop42
 90
       50
102
RTVSPost2010PropOp42
 70
     1
102
RTVSPost2010Prop43
 90
        3
102
RTVSPost2010PropOp43
 70
     1
102
RTVSPost2010Prop44ColorIndex
 90
        5
102
RTVSPost2010Prop44ColorRGB
 90
      255
102
RTVSPost2010PropOp44
 70
     1
102
RTVSPost2010Prop45
280
     0
102
RTVSPost2010PropOp45
 70
     1
102
RTVSPost2010Prop46
 90
       50
102
RTVSPost2010PropOp46
 70
     1
102
RTVSPost2010Prop47
 90
       50
102
RTVSPost2010PropOp47
 70
     1
102
RTVSPost2010Prop48
 90
       50
102
RTVSPost2010PropOp48
 70
     1
102
RTVSPost2010Prop49
280
     0
102
RTVSPost2010PropOp49
 70
     1
102
RTVSPost2010Prop50
 90
       50
102
RTVSPost2010PropOp50
 70
     1
102
RTVSPost2010Prop51ColorIndex
 90
      256
102
RTVSPost2010Prop51ColorRGB
 90
-16777216
102
RTVSPost2010PropOp51
 70
     0
102
RTVSPost2010Prop52
140
1.0
102
RTVSPost2010PropOp52
 70
     0
102
RTVSPost2010Prop53
 90
        2
102
RTVSPost2010PropOp53
 70
     1
102
RTVSPost2010Prop54
  1
strokes_ogs.tif
102
RTVSPost2010PropOp54
 70
     1
102
RTVSPost2010Prop55
280
     0
102
RTVSPost2010PropOp55
 70
     1
102
RTVSPost2010Prop56
140
1.0
102
RTVSPost2010PropOp56
 70
     1
102
RTVSPost2010Prop57
140
1.0
102
RTVSPost2010PropOp57
 70
     1
102
RTVSPropertyOp0
 70
     1
102
RTVSPropertyOp1
 70
     1
102
RTVSPropertyOp2
 70
     1
102
RTVSPropertyOp3
 70
     1
102
RTVSPropertyOp4
 70
     1
102
RTVSPropertyOp5
 70
     1
102
RTVSPropertyOp6
 70
     1
102
RTVSPropertyOp7
 70
     1
102
RTVSPropertyOp8
 70
     1
102
RTVSPropertyOp9
 70
     1
102
RTVSPropertyOp10
 70
     1
102
RTVSPropertyOp11
 70
     1
102
RTVSPropertyOp12
 70
     1
102
RTVSPropertyOp13
 70
     1
102
RTVSPropertyOp14
 70
     1
102
RTVSPropertyOp15
 70
     1
102
RTVSPropertyOp16
 70
     1
102
RTVSPropertyOp17
 70
     1
102
RTVSPropertyOp18
 70
     1
102
RTVSPropertyOp19
 70
     1
102
RTVSPropertyOp20
 70
     1
102
RTVSPropertyOp21
 70
     1
102
RTVSPropertyOp22
 70
     1
102
RTVSPropertyOp23
 70
     1
102
RTVSPropertyOp24
 70
     1
102
RTVSPropertyOp25
 70
     1
102
RTVSPropertyOp26
 70
     1
102
RTVSPropertyOp27
 70
     1
102
RTVSPropertyOp28
 70
     1
102
RTVSPropertyOp29
 70
     1
102
RTVSPropertyOp30
 70
     1
102
RTVSPropertyOp31
 70
     1
102
RTVSPropertyOp32
 70
     1
102
RTVSPropertyOp33
 70
     1
102
RTVSPropertyOp34
 70
     1
102
RTVSPropertyOp35
 70
     1
102
RTVSPropertyOp36
 70
     1
102
RTVSPropertyOp37
 70
     1
102
RTVSPropertyOp38
 70
     1
102
RTVSPropertyOp39
 70
     1
102
RTVSPropertyOp40
 70
     1
102
RTVSPropertyOp41
 70
     1
102
RTVSPropertyOp42
 70
     1
102
RTVSPropertyOp43
 70
     1
102
RTVSPropertyOp44
 70
     1
102
RTVSPropertyOp45
 70
     1
102
RTVSPropertyOp46
 70
     1
102
RTVSPropertyOp47
 70
     1
102
RTVSPropertyOp48
 70
     1
102
RTVSPropertyOp49
 70
     1
102
RTVSPropertyOp50
 70
     1
102
RTVSPropertyOp51
 70
     0
102
RTVSPropertyOp52
 70
     0
102
RTVSPropertyOp53
 70
     1
102
RTVSPropertyOp54
 70
     1
102
RTVSPropertyOp55
 70
     1
102
RTVSPropertyOp56
 70
     1
102
RTVSPropertyOp57
 70
     1
102
RTVSPropertyOp58
 70
     1
102
RTVSPropertyOp59
 70
     1
102
RTVSPropertyOp60
 70
     1
102
RTVSPropertyOp61
 70
     1
102
RTVSPropertyOp62
 70
     1
  0
XRECORD
  5
B1F3
102
{ACAD_REACTORS
330
B1F2
102
}
330
B1F2
100
AcDbXrecord
280
     1
102
RTVSPost2010Prop28
280
     0
102
RTVSPost2010PropOp28
 70
     1
102
RTVSPost2010Prop29
280
     1
102
RTVSPost2010PropOp29
 70
     1
102
RTVSPost2010Prop30
280
     1
102
RTVSPost2010PropOp30
 70
     1
102
RTVSPost2010Prop31
280
     0
102
RTVSPost2010PropOp31
 70
     1
102
RTVSPost2010Prop32
280
     0
102
RTVSPost2010PropOp32
 70
     1
102
RTVSPost2010Prop33
280
     0
102
RTVSPost2010PropOp33
 70
     1
102
RTVSPost2010Prop34
280
     0
102
RTVSPost2010PropOp34
 70
     1
102
RTVSPost2010Prop35
280
     0
102
RTVSPost2010PropOp35
 70
     1
102
RTVSPost2010Prop36
280
     0
102
RTVSPost2010PropOp36
 70
     1
102
RTVSPost2010Prop37
 90
       50
102
RTVSPost2010PropOp37
 70
     1
102
RTVSPost2010Prop38
140
0.0
102
RTVSPost2010PropOp38
 70
     1
102
RTVSPost2010Prop39
140
1.0
102
RTVSPost2010PropOp39
 70
     1
102
RTVSPost2010Prop40
 90
        0
102
RTVSPost2010PropOp40
 70
     1
102
RTVSPost2010Prop41ColorIndex
 90
       18
102
RTVSPost2010Prop41ColorRGB
 90
        0
102
RTVSPost2010PropOp41
 70
     1
102
RTVSPost2010Prop42
 90
       50
102
RTVSPost2010PropOp42
 70
     1
102
RTVSPost2010Prop43
 90
        3
102
RTVSPost2010PropOp43
 70
     1
102
RTVSPost2010Prop44ColorIndex
 90
        5
102
RTVSPost2010Prop44ColorRGB
 90
      255
102
RTVSPost2010PropOp44
 70
     1
102
RTVSPost2010Prop45
280
     0
102
RTVSPost2010PropOp45
 70
     1
102
RTVSPost2010Prop46
 90
       50
102
RTVSPost2010PropOp46
 70
     1
102
RTVSPost2010Prop47
 90
       50
102
RTVSPost2010PropOp47
 70
     1
102
RTVSPost2010Prop48
 90
       50
102
RTVSPost2010PropOp48
 70
     1
102
RTVSPost2010Prop49
280
     0
102
RTVSPost2010PropOp49
 70
     1
102
RTVSPost2010Prop50
 90
       50
102
RTVSPost2010PropOp50
 70
     1
102
RTVSPost2010Prop51ColorIndex
 90
      256
102
RTVSPost2010Prop51ColorRGB
 90
-16777216
102
RTVSPost2010PropOp51
 70
     0
102
RTVSPost2010Prop52
140
1.0
102
RTVSPost2010PropOp52
 70
     0
102
RTVSPost2010Prop53
 90
        2
102
RTVSPost2010PropOp53
 70
     1
102
RTVSPost2010Prop54
  1
strokes_ogs.tif
102
RTVSPost2010PropOp54
 70
     1
102
RTVSPost2010Prop55
280
     0
102
RTVSPost2010PropOp55
 70
     1
102
RTVSPost2010Prop56
140
1.0
102
RTVSPost2010PropOp56
 70
     1
102
RTVSPost2010Prop57
140
1.0
102
RTVSPost2010PropOp57
 70
     1
102
RTVSPropertyOp0
 70
     1
102
RTVSPropertyOp1
 70
     1
102
RTVSPropertyOp2
 70
     1
102
RTVSPropertyOp3
 70
     1
102
RTVSPropertyOp4
 70
     1
102
RTVSPropertyOp5
 70
     1
102
RTVSPropertyOp6
 70
     1
102
RTVSPropertyOp7
 70
     1
102
RTVSPropertyOp8
 70
     1
102
RTVSPropertyOp9
 70
     1
102
RTVSPropertyOp10
 70
     1
102
RTVSPropertyOp11
 70
     1
102
RTVSPropertyOp12
 70
     1
102
RTVSPropertyOp13
 70
     1
102
RTVSPropertyOp14
 70
     1
102
RTVSPropertyOp15
 70
     1
102
RTVSPropertyOp16
 70
     1
102
RTVSPropertyOp17
 70
     1
102
RTVSPropertyOp18
 70
     1
102
RTVSPropertyOp19
 70
     1
102
RTVSPropertyOp20
 70
     1
102
RTVSPropertyOp21
 70
     1
102
RTVSPropertyOp22
 70
     1
102
RTVSPropertyOp23
 70
     1
102
RTVSPropertyOp24
 70
     1
102
RTVSPropertyOp25
 70
     1
102
RTVSPropertyOp26
 70
     1
102
RTVSPropertyOp27
 70
     1
102
RTVSPropertyOp28
 70
     1
102
RTVSPropertyOp29
 70
     1
102
RTVSPropertyOp30
 70
     1
102
RTVSPropertyOp31
 70
     1
102
RTVSPropertyOp32
 70
     1
102
RTVSPropertyOp33
 70
     1
102
RTVSPropertyOp34
 70
     1
102
RTVSPropertyOp35
 70
     1
102
RTVSPropertyOp36
 70
     1
102
RTVSPropertyOp37
 70
     1
102
RTVSPropertyOp38
 70
     1
102
RTVSPropertyOp39
 70
     1
102
RTVSPropertyOp40
 70
     1
102
RTVSPropertyOp41
 70
     1
102
RTVSPropertyOp42
 70
     1
102
RTVSPropertyOp43
 70
     1
102
RTVSPropertyOp44
 70
     1
102
RTVSPropertyOp45
 70
     1
102
RTVSPropertyOp46
 70
     1
102
RTVSPropertyOp47
 70
     1
102
RTVSPropertyOp48
 70
     1
102
RTVSPropertyOp49
 70
     1
102
RTVSPropertyOp50
 70
     1
102
RTVSPropertyOp51
 70
     0
102
RTVSPropertyOp52
 70
     0
102
RTVSPropertyOp53
 70
     1
102
RTVSPropertyOp54
 70
     1
102
RTVSPropertyOp55
 70
     1
102
RTVSPropertyOp56
 70
     1
102
RTVSPropertyOp57
 70
     1
102
RTVSPropertyOp58
 70
     1
102
RTVSPropertyOp59
 70
     1
102
RTVSPropertyOp60
 70
     1
102
RTVSPropertyOp61
 70
     1
102
RTVSPropertyOp62
 70
     1
  0
XRECORD
  5
B1F1
102
{ACAD_REACTORS
330
B1F0
102
}
330
B1F0
100
AcDbXrecord
280
     1
102
RTVSPost2010Prop28
280
     0
102
RTVSPost2010PropOp28
 70
     1
102
RTVSPost2010Prop29
280
     1
102
RTVSPost2010PropOp29
 70
     1
102
RTVSPost2010Prop30
280
     1
102
RTVSPost2010PropOp30
 70
     1
102
RTVSPost2010Prop31
280
     0
102
RTVSPost2010PropOp31
 70
     1
102
RTVSPost2010Prop32
280
     0
102
RTVSPost2010PropOp32
 70
     1
102
RTVSPost2010Prop33
280
     0
102
RTVSPost2010PropOp33
 70
     1
102
RTVSPost2010Prop34
280
     0
102
RTVSPost2010PropOp34
 70
     1
102
RTVSPost2010Prop35
280
     0
102
RTVSPost2010PropOp35
 70
     1
102
RTVSPost2010Prop36
280
     0
102
RTVSPost2010PropOp36
 70
     1
102
RTVSPost2010Prop37
 90
       50
102
RTVSPost2010PropOp37
 70
     1
102
RTVSPost2010Prop38
140
0.0
102
RTVSPost2010PropOp38
 70
     1
102
RTVSPost2010Prop39
140
1.0
102
RTVSPost2010PropOp39
 70
     1
102
RTVSPost2010Prop40
 90
        0
102
RTVSPost2010PropOp40
 70
     1
102
RTVSPost2010Prop41ColorIndex
 90
       18
102
RTVSPost2010Prop41ColorRGB
 90
        0
102
RTVSPost2010PropOp41
 70
     1
102
RTVSPost2010Prop42
 90
       50
102
RTVSPost2010PropOp42
 70
     1
102
RTVSPost2010Prop43
 90
        3
102
RTVSPost2010PropOp43
 70
     1
102
RTVSPost2010Prop44ColorIndex
 90
        5
102
RTVSPost2010Prop44ColorRGB
 90
      255
102
RTVSPost2010PropOp44
 70
     1
102
RTVSPost2010Prop45
280
     0
102
RTVSPost2010PropOp45
 70
     1
102
RTVSPost2010Prop46
 90
       50
102
RTVSPost2010PropOp46
 70
     1
102
RTVSPost2010Prop47
 90
       50
102
RTVSPost2010PropOp47
 70
     1
102
RTVSPost2010Prop48
 90
       50
102
RTVSPost2010PropOp48
 70
     1
102
RTVSPost2010Prop49
280
     0
102
RTVSPost2010PropOp49
 70
     1
102
RTVSPost2010Prop50
 90
       50
102
RTVSPost2010PropOp50
 70
     1
102
RTVSPost2010Prop51ColorIndex
 90
      256
102
RTVSPost2010Prop51ColorRGB
 90
-16777216
102
RTVSPost2010PropOp51
 70
     0
102
RTVSPost2010Prop52
140
1.0
102
RTVSPost2010PropOp52
 70
     0
102
RTVSPost2010Prop53
 90
        2
102
RTVSPost2010PropOp53
 70
     1
102
RTVSPost2010Prop54
  1
strokes_ogs.tif
102
RTVSPost2010PropOp54
 70
     1
102
RTVSPost2010Prop55
280
     0
102
RTVSPost2010PropOp55
 70
     1
102
RTVSPost2010Prop56
140
1.0
102
RTVSPost2010PropOp56
 70
     1
102
RTVSPost2010Prop57
140
1.0
102
RTVSPost2010PropOp57
 70
     1
102
RTVSPropertyOp0
 70
     1
102
RTVSPropertyOp1
 70
     1
102
RTVSPropertyOp2
 70
     1
102
RTVSPropertyOp3
 70
     1
102
RTVSPropertyOp4
 70
     1
102
RTVSPropertyOp5
 70
     1
102
RTVSPropertyOp6
 70
     1
102
RTVSPropertyOp7
 70
     1
102
RTVSPropertyOp8
 70
     1
102
RTVSPropertyOp9
 70
     1
102
RTVSPropertyOp10
 70
     1
102
RTVSPropertyOp11
 70
     1
102
RTVSPropertyOp12
 70
     1
102
RTVSPropertyOp13
 70
     1
102
RTVSPropertyOp14
 70
     1
102
RTVSPropertyOp15
 70
     1
102
RTVSPropertyOp16
 70
     1
102
RTVSPropertyOp17
 70
     1
102
RTVSPropertyOp18
 70
     1
102
RTVSPropertyOp19
 70
     1
102
RTVSPropertyOp20
 70
     1
102
RTVSPropertyOp21
 70
     1
102
RTVSPropertyOp22
 70
     1
102
RTVSPropertyOp23
 70
     1
102
RTVSPropertyOp24
 70
     1
102
RTVSPropertyOp25
 70
     1
102
RTVSPropertyOp26
 70
     1
102
RTVSPropertyOp27
 70
     1
102
RTVSPropertyOp28
 70
     1
102
RTVSPropertyOp29
 70
     1
102
RTVSPropertyOp30
 70
     1
102
RTVSPropertyOp31
 70
     1
102
RTVSPropertyOp32
 70
     1
102
RTVSPropertyOp33
 70
     1
102
RTVSPropertyOp34
 70
     1
102
RTVSPropertyOp35
 70
     1
102
RTVSPropertyOp36
 70
     1
102
RTVSPropertyOp37
 70
     1
102
RTVSPropertyOp38
 70
     1
102
RTVSPropertyOp39
 70
     1
102
RTVSPropertyOp40
 70
     1
102
RTVSPropertyOp41
 70
     1
102
RTVSPropertyOp42
 70
     1
102
RTVSPropertyOp43
 70
     1
102
RTVSPropertyOp44
 70
     1
102
RTVSPropertyOp45
 70
     1
102
RTVSPropertyOp46
 70
     1
102
RTVSPropertyOp47
 70
     1
102
RTVSPropertyOp48
 70
     1
102
RTVSPropertyOp49
 70
     1
102
RTVSPropertyOp50
 70
     1
102
RTVSPropertyOp51
 70
     0
102
RTVSPropertyOp52
 70
     0
102
RTVSPropertyOp53
 70
     1
102
RTVSPropertyOp54
 70
     1
102
RTVSPropertyOp55
 70
     1
102
RTVSPropertyOp56
 70
     1
102
RTVSPropertyOp57
 70
     1
102
RTVSPropertyOp58
 70
     1
102
RTVSPropertyOp59
 70
     1
102
RTVSPropertyOp60
 70
     1
102
RTVSPropertyOp61
 70
     1
102
RTVSPropertyOp62
 70
     1
  0
XRECORD
  5
B1EB
102
{ACAD_REACTORS
330
B1EA
102
}
330
B1EA
100
AcDbXrecord
280
     1
102
RTVSPost2010Prop28
280
     0
102
RTVSPost2010PropOp28
 70
     1
102
RTVSPost2010Prop29
280
     1
102
RTVSPost2010PropOp29
 70
     1
102
RTVSPost2010Prop30
280
     1
102
RTVSPost2010PropOp30
 70
     1
102
RTVSPost2010Prop31
280
     0
102
RTVSPost2010PropOp31
 70
     1
102
RTVSPost2010Prop32
280
     0
102
RTVSPost2010PropOp32
 70
     1
102
RTVSPost2010Prop33
280
     0
102
RTVSPost2010PropOp33
 70
     1
102
RTVSPost2010Prop34
280
     0
102
RTVSPost2010PropOp34
 70
     1
102
RTVSPost2010Prop35
280
     0
102
RTVSPost2010PropOp35
 70
     1
102
RTVSPost2010Prop36
280
     0
102
RTVSPost2010PropOp36
 70
     1
102
RTVSPost2010Prop37
 90
       50
102
RTVSPost2010PropOp37
 70
     1
102
RTVSPost2010Prop38
140
0.0
102
RTVSPost2010PropOp38
 70
     1
102
RTVSPost2010Prop39
140
1.0
102
RTVSPost2010PropOp39
 70
     1
102
RTVSPost2010Prop40
 90
        0
102
RTVSPost2010PropOp40
 70
     1
102
RTVSPost2010Prop41ColorIndex
 90
       18
102
RTVSPost2010Prop41ColorRGB
 90
        0
102
RTVSPost2010PropOp41
 70
     1
102
RTVSPost2010Prop42
 90
       50
102
RTVSPost2010PropOp42
 70
     1
102
RTVSPost2010Prop43
 90
        3
102
RTVSPost2010PropOp43
 70
     1
102
RTVSPost2010Prop44ColorIndex
 90
        5
102
RTVSPost2010Prop44ColorRGB
 90
      255
102
RTVSPost2010PropOp44
 70
     1
102
RTVSPost2010Prop45
280
     0
102
RTVSPost2010PropOp45
 70
     1
102
RTVSPost2010Prop46
 90
       50
102
RTVSPost2010PropOp46
 70
     1
102
RTVSPost2010Prop47
 90
       50
102
RTVSPost2010PropOp47
 70
     1
102
RTVSPost2010Prop48
 90
       50
102
RTVSPost2010PropOp48
 70
     1
102
RTVSPost2010Prop49
280
     0
102
RTVSPost2010PropOp49
 70
     1
102
RTVSPost2010Prop50
 90
       50
102
RTVSPost2010PropOp50
 70
     1
102
RTVSPost2010Prop51ColorIndex
 90
      256
102
RTVSPost2010Prop51ColorRGB
 90
-16777216
102
RTVSPost2010PropOp51
 70
     0
102
RTVSPost2010Prop52
140
1.0
102
RTVSPost2010PropOp52
 70
     0
102
RTVSPost2010Prop53
 90
        2
102
RTVSPost2010PropOp53
 70
     1
102
RTVSPost2010Prop54
  1
strokes_ogs.tif
102
RTVSPost2010PropOp54
 70
     1
102
RTVSPost2010Prop55
280
     0
102
RTVSPost2010PropOp55
 70
     1
102
RTVSPost2010Prop56
140
1.0
102
RTVSPost2010PropOp56
 70
     1
102
RTVSPost2010Prop57
140
1.0
102
RTVSPost2010PropOp57
 70
     1
102
RTVSPropertyOp0
 70
     1
102
RTVSPropertyOp1
 70
     1
102
RTVSPropertyOp2
 70
     1
102
RTVSPropertyOp3
 70
     1
102
RTVSPropertyOp4
 70
     1
102
RTVSPropertyOp5
 70
     1
102
RTVSPropertyOp6
 70
     1
102
RTVSPropertyOp7
 70
     1
102
RTVSPropertyOp8
 70
     1
102
RTVSPropertyOp9
 70
     1
102
RTVSPropertyOp10
 70
     1
102
RTVSPropertyOp11
 70
     1
102
RTVSPropertyOp12
 70
     1
102
RTVSPropertyOp13
 70
     1
102
RTVSPropertyOp14
 70
     1
102
RTVSPropertyOp15
 70
     1
102
RTVSPropertyOp16
 70
     1
102
RTVSPropertyOp17
 70
     1
102
RTVSPropertyOp18
 70
     1
102
RTVSPropertyOp19
 70
     1
102
RTVSPropertyOp20
 70
     1
102
RTVSPropertyOp21
 70
     1
102
RTVSPropertyOp22
 70
     1
102
RTVSPropertyOp23
 70
     1
102
RTVSPropertyOp24
 70
     1
102
RTVSPropertyOp25
 70
     1
102
RTVSPropertyOp26
 70
     1
102
RTVSPropertyOp27
 70
     1
102
RTVSPropertyOp28
 70
     1
102
RTVSPropertyOp29
 70
     1
102
RTVSPropertyOp30
 70
     1
102
RTVSPropertyOp31
 70
     1
102
RTVSPropertyOp32
 70
     1
102
RTVSPropertyOp33
 70
     1
102
RTVSPropertyOp34
 70
     1
102
RTVSPropertyOp35
 70
     1
102
RTVSPropertyOp36
 70
     1
102
RTVSPropertyOp37
 70
     1
102
RTVSPropertyOp38
 70
     1
102
RTVSPropertyOp39
 70
     1
102
RTVSPropertyOp40
 70
     1
102
RTVSPropertyOp41
 70
     1
102
RTVSPropertyOp42
 70
     1
102
RTVSPropertyOp43
 70
     1
102
RTVSPropertyOp44
 70
     1
102
RTVSPropertyOp45
 70
     1
102
RTVSPropertyOp46
 70
     1
102
RTVSPropertyOp47
 70
     1
102
RTVSPropertyOp48
 70
     1
102
RTVSPropertyOp49
 70
     1
102
RTVSPropertyOp50
 70
     1
102
RTVSPropertyOp51
 70
     0
102
RTVSPropertyOp52
 70
     0
102
RTVSPropertyOp53
 70
     1
102
RTVSPropertyOp54
 70
     1
102
RTVSPropertyOp55
 70
     1
102
RTVSPropertyOp56
 70
     1
102
RTVSPropertyOp57
 70
     1
102
RTVSPropertyOp58
 70
     1
102
RTVSPropertyOp59
 70
     1
102
RTVSPropertyOp60
 70
     1
102
RTVSPropertyOp61
 70
     1
102
RTVSPropertyOp62
 70
     1
  0
XRECORD
  5
B1ED
102
{ACAD_REACTORS
330
B1EC
102
}
330
B1EC
100
AcDbXrecord
280
     1
102
RTVSPost2010Prop28
280
     0
102
RTVSPost2010PropOp28
 70
     1
102
RTVSPost2010Prop29
280
     1
102
RTVSPost2010PropOp29
 70
     1
102
RTVSPost2010Prop30
280
     1
102
RTVSPost2010PropOp30
 70
     1
102
RTVSPost2010Prop31
280
     0
102
RTVSPost2010PropOp31
 70
     1
102
RTVSPost2010Prop32
280
     0
102
RTVSPost2010PropOp32
 70
     1
102
RTVSPost2010Prop33
280
     0
102
RTVSPost2010PropOp33
 70
     1
102
RTVSPost2010Prop34
280
     0
102
RTVSPost2010PropOp34
 70
     1
102
RTVSPost2010Prop35
280
     0
102
RTVSPost2010PropOp35
 70
     1
102
RTVSPost2010Prop36
280
     0
102
RTVSPost2010PropOp36
 70
     1
102
RTVSPost2010Prop37
 90
       50
102
RTVSPost2010PropOp37
 70
     1
102
RTVSPost2010Prop38
140
0.0
102
RTVSPost2010PropOp38
 70
     1
102
RTVSPost2010Prop39
140
1.0
102
RTVSPost2010PropOp39
 70
     1
102
RTVSPost2010Prop40
 90
        0
102
RTVSPost2010PropOp40
 70
     1
102
RTVSPost2010Prop41ColorIndex
 90
       18
102
RTVSPost2010Prop41ColorRGB
 90
        0
102
RTVSPost2010PropOp41
 70
     1
102
RTVSPost2010Prop42
 90
       50
102
RTVSPost2010PropOp42
 70
     1
102
RTVSPost2010Prop43
 90
        3
102
RTVSPost2010PropOp43
 70
     1
102
RTVSPost2010Prop44ColorIndex
 90
        5
102
RTVSPost2010Prop44ColorRGB
 90
      255
102
RTVSPost2010PropOp44
 70
     1
102
RTVSPost2010Prop45
280
     0
102
RTVSPost2010PropOp45
 70
     1
102
RTVSPost2010Prop46
 90
       50
102
RTVSPost2010PropOp46
 70
     1
102
RTVSPost2010Prop47
 90
       50
102
RTVSPost2010PropOp47
 70
     1
102
RTVSPost2010Prop48
 90
       50
102
RTVSPost2010PropOp48
 70
     1
102
RTVSPost2010Prop49
280
     0
102
RTVSPost2010PropOp49
 70
     1
102
RTVSPost2010Prop50
 90
       50
102
RTVSPost2010PropOp50
 70
     1
102
RTVSPost2010Prop51ColorIndex
 90
      256
102
RTVSPost2010Prop51ColorRGB
 90
-16777216
102
RTVSPost2010PropOp51
 70
     0
102
RTVSPost2010Prop52
140
1.0
102
RTVSPost2010PropOp52
 70
     0
102
RTVSPost2010Prop53
 90
        2
102
RTVSPost2010PropOp53
 70
     1
102
RTVSPost2010Prop54
  1
strokes_ogs.tif
102
RTVSPost2010PropOp54
 70
     1
102
RTVSPost2010Prop55
280
     0
102
RTVSPost2010PropOp55
 70
     1
102
RTVSPost2010Prop56
140
1.0
102
RTVSPost2010PropOp56
 70
     1
102
RTVSPost2010Prop57
140
1.0
102
RTVSPost2010PropOp57
 70
     1
102
RTVSPropertyOp0
 70
     1
102
RTVSPropertyOp1
 70
     1
102
RTVSPropertyOp2
 70
     1
102
RTVSPropertyOp3
 70
     1
102
RTVSPropertyOp4
 70
     1
102
RTVSPropertyOp5
 70
     1
102
RTVSPropertyOp6
 70
     1
102
RTVSPropertyOp7
 70
     1
102
RTVSPropertyOp8
 70
     1
102
RTVSPropertyOp9
 70
     1
102
RTVSPropertyOp10
 70
     1
102
RTVSPropertyOp11
 70
     1
102
RTVSPropertyOp12
 70
     1
102
RTVSPropertyOp13
 70
     1
102
RTVSPropertyOp14
 70
     1
102
RTVSPropertyOp15
 70
     1
102
RTVSPropertyOp16
 70
     1
102
RTVSPropertyOp17
 70
     1
102
RTVSPropertyOp18
 70
     1
102
RTVSPropertyOp19
 70
     1
102
RTVSPropertyOp20
 70
     1
102
RTVSPropertyOp21
 70
     1
102
RTVSPropertyOp22
 70
     1
102
RTVSPropertyOp23
 70
     1
102
RTVSPropertyOp24
 70
     1
102
RTVSPropertyOp25
 70
     1
102
RTVSPropertyOp26
 70
     1
102
RTVSPropertyOp27
 70
     1
102
RTVSPropertyOp28
 70
     1
102
RTVSPropertyOp29
 70
     1
102
RTVSPropertyOp30
 70
     1
102
RTVSPropertyOp31
 70
     1
102
RTVSPropertyOp32
 70
     1
102
RTVSPropertyOp33
 70
     1
102
RTVSPropertyOp34
 70
     1
102
RTVSPropertyOp35
 70
     1
102
RTVSPropertyOp36
 70
     1
102
RTVSPropertyOp37
 70
     1
102
RTVSPropertyOp38
 70
     1
102
RTVSPropertyOp39
 70
     1
102
RTVSPropertyOp40
 70
     1
102
RTVSPropertyOp41
 70
     1
102
RTVSPropertyOp42
 70
     1
102
RTVSPropertyOp43
 70
     1
102
RTVSPropertyOp44
 70
     1
102
RTVSPropertyOp45
 70
     1
102
RTVSPropertyOp46
 70
     1
102
RTVSPropertyOp47
 70
     1
102
RTVSPropertyOp48
 70
     1
102
RTVSPropertyOp49
 70
     1
102
RTVSPropertyOp50
 70
     1
102
RTVSPropertyOp51
 70
     0
102
RTVSPropertyOp52
 70
     0
102
RTVSPropertyOp53
 70
     1
102
RTVSPropertyOp54
 70
     1
102
RTVSPropertyOp55
 70
     1
102
RTVSPropertyOp56
 70
     1
102
RTVSPropertyOp57
 70
     1
102
RTVSPropertyOp58
 70
     1
102
RTVSPropertyOp59
 70
     1
102
RTVSPropertyOp60
 70
     1
102
RTVSPropertyOp61
 70
     1
102
RTVSPropertyOp62
 70
     1
  0
XRECORD
  5
B1E3
102
{ACAD_REACTORS
330
B1E2
102
}
330
B1E2
100
AcDbXrecord
280
     1
102
RTVSPost2010Prop28
280
     0
102
RTVSPost2010PropOp28
 70
     1
102
RTVSPost2010Prop29
280
     1
102
RTVSPost2010PropOp29
 70
     1
102
RTVSPost2010Prop30
280
     1
102
RTVSPost2010PropOp30
 70
     1
102
RTVSPost2010Prop31
280
     0
102
RTVSPost2010PropOp31
 70
     1
102
RTVSPost2010Prop32
280
     0
102
RTVSPost2010PropOp32
 70
     1
102
RTVSPost2010Prop33
280
     0
102
RTVSPost2010PropOp33
 70
     1
102
RTVSPost2010Prop34
280
     0
102
RTVSPost2010PropOp34
 70
     1
102
RTVSPost2010Prop35
280
     0
102
RTVSPost2010PropOp35
 70
     1
102
RTVSPost2010Prop36
280
     0
102
RTVSPost2010PropOp36
 70
     1
102
RTVSPost2010Prop37
 90
       50
102
RTVSPost2010PropOp37
 70
     1
102
RTVSPost2010Prop38
140
0.0
102
RTVSPost2010PropOp38
 70
     1
102
RTVSPost2010Prop39
140
1.0
102
RTVSPost2010PropOp39
 70
     1
102
RTVSPost2010Prop40
 90
        0
102
RTVSPost2010PropOp40
 70
     1
102
RTVSPost2010Prop41ColorIndex
 90
       18
102
RTVSPost2010Prop41ColorRGB
 90
        0
102
RTVSPost2010PropOp41
 70
     1
102
RTVSPost2010Prop42
 90
       50
102
RTVSPost2010PropOp42
 70
     1
102
RTVSPost2010Prop43
 90
        3
102
RTVSPost2010PropOp43
 70
     1
102
RTVSPost2010Prop44ColorIndex
 90
        5
102
RTVSPost2010Prop44ColorRGB
 90
      255
102
RTVSPost2010PropOp44
 70
     1
102
RTVSPost2010Prop45
280
     0
102
RTVSPost2010PropOp45
 70
     1
102
RTVSPost2010Prop46
 90
       50
102
RTVSPost2010PropOp46
 70
     1
102
RTVSPost2010Prop47
 90
       50
102
RTVSPost2010PropOp47
 70
     1
102
RTVSPost2010Prop48
 90
       50
102
RTVSPost2010PropOp48
 70
     1
102
RTVSPost2010Prop49
280
     0
102
RTVSPost2010PropOp49
 70
     1
102
RTVSPost2010Prop50
 90
       50
102
RTVSPost2010PropOp50
 70
     1
102
RTVSPost2010Prop51ColorIndex
 90
      256
102
RTVSPost2010Prop51ColorRGB
 90
-16777216
102
RTVSPost2010PropOp51
 70
     0
102
RTVSPost2010Prop52
140
1.0
102
RTVSPost2010PropOp52
 70
     0
102
RTVSPost2010Prop53
 90
        2
102
RTVSPost2010PropOp53
 70
     1
102
RTVSPost2010Prop54
  1
strokes_ogs.tif
102
RTVSPost2010PropOp54
 70
     1
102
RTVSPost2010Prop55
280
     0
102
RTVSPost2010PropOp55
 70
     1
102
RTVSPost2010Prop56
140
1.0
102
RTVSPost2010PropOp56
 70
     1
102
RTVSPost2010Prop57
140
1.0
102
RTVSPost2010PropOp57
 70
     1
102
RTVSPropertyOp0
 70
     1
102
RTVSPropertyOp1
 70
     1
102
RTVSPropertyOp2
 70
     1
102
RTVSPropertyOp3
 70
     1
102
RTVSPropertyOp4
 70
     1
102
RTVSPropertyOp5
 70
     1
102
RTVSPropertyOp6
 70
     1
102
RTVSPropertyOp7
 70
     1
102
RTVSPropertyOp8
 70
     1
102
RTVSPropertyOp9
 70
     1
102
RTVSPropertyOp10
 70
     1
102
RTVSPropertyOp11
 70
     1
102
RTVSPropertyOp12
 70
     1
102
RTVSPropertyOp13
 70
     1
102
RTVSPropertyOp14
 70
     1
102
RTVSPropertyOp15
 70
     1
102
RTVSPropertyOp16
 70
     1
102
RTVSPropertyOp17
 70
     1
102
RTVSPropertyOp18
 70
     1
102
RTVSPropertyOp19
 70
     1
102
RTVSPropertyOp20
 70
     1
102
RTVSPropertyOp21
 70
     1
102
RTVSPropertyOp22
 70
     1
102
RTVSPropertyOp23
 70
     1
102
RTVSPropertyOp24
 70
     1
102
RTVSPropertyOp25
 70
     1
102
RTVSPropertyOp26
 70
     1
102
RTVSPropertyOp27
 70
     1
102
RTVSPropertyOp28
 70
     1
102
RTVSPropertyOp29
 70
     1
102
RTVSPropertyOp30
 70
     1
102
RTVSPropertyOp31
 70
     1
102
RTVSPropertyOp32
 70
     1
102
RTVSPropertyOp33
 70
     1
102
RTVSPropertyOp34
 70
     1
102
RTVSPropertyOp35
 70
     1
102
RTVSPropertyOp36
 70
     1
102
RTVSPropertyOp37
 70
     1
102
RTVSPropertyOp38
 70
     1
102
RTVSPropertyOp39
 70
     1
102
RTVSPropertyOp40
 70
     1
102
RTVSPropertyOp41
 70
     1
102
RTVSPropertyOp42
 70
     1
102
RTVSPropertyOp43
 70
     1
102
RTVSPropertyOp44
 70
     1
102
RTVSPropertyOp45
 70
     1
102
RTVSPropertyOp46
 70
     1
102
RTVSPropertyOp47
 70
     1
102
RTVSPropertyOp48
 70
     1
102
RTVSPropertyOp49
 70
     1
102
RTVSPropertyOp50
 70
     1
102
RTVSPropertyOp51
 70
     0
102
RTVSPropertyOp52
 70
     0
102
RTVSPropertyOp53
 70
     1
102
RTVSPropertyOp54
 70
     1
102
RTVSPropertyOp55
 70
     1
102
RTVSPropertyOp56
 70
     1
102
RTVSPropertyOp57
 70
     1
102
RTVSPropertyOp58
 70
     1
102
RTVSPropertyOp59
 70
     1
102
RTVSPropertyOp60
 70
     1
102
RTVSPropertyOp61
 70
     1
102
RTVSPropertyOp62
 70
     1
  0
XRECORD
  5
B1D7
102
{ACAD_REACTORS
330
B1D6
102
}
330
B1D6
100
AcDbXrecord
280
     1
102
RTVSPost2010Prop28
280
     0
102
RTVSPost2010PropOp28
 70
     1
102
RTVSPost2010Prop29
280
     1
102
RTVSPost2010PropOp29
 70
     1
102
RTVSPost2010Prop30
280
     1
102
RTVSPost2010PropOp30
 70
     1
102
RTVSPost2010Prop31
280
     0
102
RTVSPost2010PropOp31
 70
     1
102
RTVSPost2010Prop32
280
     0
102
RTVSPost2010PropOp32
 70
     1
102
RTVSPost2010Prop33
280
     0
102
RTVSPost2010PropOp33
 70
     1
102
RTVSPost2010Prop34
280
     0
102
RTVSPost2010PropOp34
 70
     1
102
RTVSPost2010Prop35
280
     0
102
RTVSPost2010PropOp35
 70
     1
102
RTVSPost2010Prop36
280
     0
102
RTVSPost2010PropOp36
 70
     1
102
RTVSPost2010Prop37
 90
       50
102
RTVSPost2010PropOp37
 70
     1
102
RTVSPost2010Prop38
140
0.0
102
RTVSPost2010PropOp38
 70
     1
102
RTVSPost2010Prop39
140
1.0
102
RTVSPost2010PropOp39
 70
     1
102
RTVSPost2010Prop40
 90
        0
102
RTVSPost2010PropOp40
 70
     1
102
RTVSPost2010Prop41ColorIndex
 90
       18
102
RTVSPost2010Prop41ColorRGB
 90
        0
102
RTVSPost2010PropOp41
 70
     1
102
RTVSPost2010Prop42
 90
       50
102
RTVSPost2010PropOp42
 70
     1
102
RTVSPost2010Prop43
 90
        3
102
RTVSPost2010PropOp43
 70
     1
102
RTVSPost2010Prop44ColorIndex
 90
        5
102
RTVSPost2010Prop44ColorRGB
 90
      255
102
RTVSPost2010PropOp44
 70
     1
102
RTVSPost2010Prop45
280
     0
102
RTVSPost2010PropOp45
 70
     1
102
RTVSPost2010Prop46
 90
       50
102
RTVSPost2010PropOp46
 70
     1
102
RTVSPost2010Prop47
 90
       50
102
RTVSPost2010PropOp47
 70
     1
102
RTVSPost2010Prop48
 90
       50
102
RTVSPost2010PropOp48
 70
     1
102
RTVSPost2010Prop49
280
     0
102
RTVSPost2010PropOp49
 70
     1
102
RTVSPost2010Prop50
 90
       50
102
RTVSPost2010PropOp50
 70
     1
102
RTVSPost2010Prop51ColorIndex
 90
      256
102
RTVSPost2010Prop51ColorRGB
 90
-16777216
102
RTVSPost2010PropOp51
 70
     0
102
RTVSPost2010Prop52
140
1.0
102
RTVSPost2010PropOp52
 70
     0
102
RTVSPost2010Prop53
 90
        2
102
RTVSPost2010PropOp53
 70
     1
102
RTVSPost2010Prop54
  1
strokes_ogs.tif
102
RTVSPost2010PropOp54
 70
     1
102
RTVSPost2010Prop55
280
     0
102
RTVSPost2010PropOp55
 70
     1
102
RTVSPost2010Prop56
140
1.0
102
RTVSPost2010PropOp56
 70
     1
102
RTVSPost2010Prop57
140
1.0
102
RTVSPost2010PropOp57
 70
     1
102
RTVSPropertyOp0
 70
     1
102
RTVSPropertyOp1
 70
     1
102
RTVSPropertyOp2
 70
     1
102
RTVSPropertyOp3
 70
     1
102
RTVSPropertyOp4
 70
     1
102
RTVSPropertyOp5
 70
     1
102
RTVSPropertyOp6
 70
     1
102
RTVSPropertyOp7
 70
     1
102
RTVSPropertyOp8
 70
     1
102
RTVSPropertyOp9
 70
     1
102
RTVSPropertyOp10
 70
     1
102
RTVSPropertyOp11
 70
     1
102
RTVSPropertyOp12
 70
     1
102
RTVSPropertyOp13
 70
     1
102
RTVSPropertyOp14
 70
     1
102
RTVSPropertyOp15
 70
     1
102
RTVSPropertyOp16
 70
     1
102
RTVSPropertyOp17
 70
     1
102
RTVSPropertyOp18
 70
     1
102
RTVSPropertyOp19
 70
     1
102
RTVSPropertyOp20
 70
     1
102
RTVSPropertyOp21
 70
     1
102
RTVSPropertyOp22
 70
     1
102
RTVSPropertyOp23
 70
     1
102
RTVSPropertyOp24
 70
     1
102
RTVSPropertyOp25
 70
     1
102
RTVSPropertyOp26
 70
     1
102
RTVSPropertyOp27
 70
     1
102
RTVSPropertyOp28
 70
     1
102
RTVSPropertyOp29
 70
     1
102
RTVSPropertyOp30
 70
     1
102
RTVSPropertyOp31
 70
     1
102
RTVSPropertyOp32
 70
     1
102
RTVSPropertyOp33
 70
     1
102
RTVSPropertyOp34
 70
     1
102
RTVSPropertyOp35
 70
     1
102
RTVSPropertyOp36
 70
     1
102
RTVSPropertyOp37
 70
     1
102
RTVSPropertyOp38
 70
     1
102
RTVSPropertyOp39
 70
     1
102
RTVSPropertyOp40
 70
     1
102
RTVSPropertyOp41
 70
     1
102
RTVSPropertyOp42
 70
     1
102
RTVSPropertyOp43
 70
     1
102
RTVSPropertyOp44
 70
     1
102
RTVSPropertyOp45
 70
     1
102
RTVSPropertyOp46
 70
     1
102
RTVSPropertyOp47
 70
     1
102
RTVSPropertyOp48
 70
     1
102
RTVSPropertyOp49
 70
     1
102
RTVSPropertyOp50
 70
     1
102
RTVSPropertyOp51
 70
     0
102
RTVSPropertyOp52
 70
     0
102
RTVSPropertyOp53
 70
     1
102
RTVSPropertyOp54
 70
     1
102
RTVSPropertyOp55
 70
     1
102
RTVSPropertyOp56
 70
     1
102
RTVSPropertyOp57
 70
     1
102
RTVSPropertyOp58
 70
     1
102
RTVSPropertyOp59
 70
     1
102
RTVSPropertyOp60
 70
     1
102
RTVSPropertyOp61
 70
     1
102
RTVSPropertyOp62
 70
     1
  0
XRECORD
  5
B1EF
102
{ACAD_REACTORS
330
B1EE
102
}
330
B1EE
100
AcDbXrecord
280
     1
102
RTVSPost2010Prop28
280
     0
102
RTVSPost2010PropOp28
 70
     1
102
RTVSPost2010Prop29
280
     1
102
RTVSPost2010PropOp29
 70
     1
102
RTVSPost2010Prop30
280
     1
102
RTVSPost2010PropOp30
 70
     1
102
RTVSPost2010Prop31
280
     0
102
RTVSPost2010PropOp31
 70
     1
102
RTVSPost2010Prop32
280
     0
102
RTVSPost2010PropOp32
 70
     1
102
RTVSPost2010Prop33
280
     0
102
RTVSPost2010PropOp33
 70
     1
102
RTVSPost2010Prop34
280
     0
102
RTVSPost2010PropOp34
 70
     1
102
RTVSPost2010Prop35
280
     0
102
RTVSPost2010PropOp35
 70
     1
102
RTVSPost2010Prop36
280
     0
102
RTVSPost2010PropOp36
 70
     1
102
RTVSPost2010Prop37
 90
       50
102
RTVSPost2010PropOp37
 70
     1
102
RTVSPost2010Prop38
140
0.0
102
RTVSPost2010PropOp38
 70
     1
102
RTVSPost2010Prop39
140
1.0
102
RTVSPost2010PropOp39
 70
     1
102
RTVSPost2010Prop40
 90
        0
102
RTVSPost2010PropOp40
 70
     1
102
RTVSPost2010Prop41ColorIndex
 90
       18
102
RTVSPost2010Prop41ColorRGB
 90
        0
102
RTVSPost2010PropOp41
 70
     1
102
RTVSPost2010Prop42
 90
       50
102
RTVSPost2010PropOp42
 70
     1
102
RTVSPost2010Prop43
 90
        3
102
RTVSPost2010PropOp43
 70
     1
102
RTVSPost2010Prop44ColorIndex
 90
        5
102
RTVSPost2010Prop44ColorRGB
 90
      255
102
RTVSPost2010PropOp44
 70
     1
102
RTVSPost2010Prop45
280
     0
102
RTVSPost2010PropOp45
 70
     1
102
RTVSPost2010Prop46
 90
       50
102
RTVSPost2010PropOp46
 70
     1
102
RTVSPost2010Prop47
 90
       50
102
RTVSPost2010PropOp47
 70
     1
102
RTVSPost2010Prop48
 90
       50
102
RTVSPost2010PropOp48
 70
     1
102
RTVSPost2010Prop49
280
     0
102
RTVSPost2010PropOp49
 70
     1
102
RTVSPost2010Prop50
 90
       50
102
RTVSPost2010PropOp50
 70
     1
102
RTVSPost2010Prop51ColorIndex
 90
      256
102
RTVSPost2010Prop51ColorRGB
 90
-16777216
102
RTVSPost2010PropOp51
 70
     0
102
RTVSPost2010Prop52
140
1.0
102
RTVSPost2010PropOp52
 70
     0
102
RTVSPost2010Prop53
 90
        2
102
RTVSPost2010PropOp53
 70
     1
102
RTVSPost2010Prop54
  1
strokes_ogs.tif
102
RTVSPost2010PropOp54
 70
     1
102
RTVSPost2010Prop55
280
     0
102
RTVSPost2010PropOp55
 70
     1
102
RTVSPost2010Prop56
140
1.0
102
RTVSPost2010PropOp56
 70
     1
102
RTVSPost2010Prop57
140
1.0
102
RTVSPost2010PropOp57
 70
     1
102
RTVSPropertyOp0
 70
     1
102
RTVSPropertyOp1
 70
     1
102
RTVSPropertyOp2
 70
     1
102
RTVSPropertyOp3
 70
     1
102
RTVSPropertyOp4
 70
     1
102
RTVSPropertyOp5
 70
     1
102
RTVSPropertyOp6
 70
     1
102
RTVSPropertyOp7
 70
     1
102
RTVSPropertyOp8
 70
     1
102
RTVSPropertyOp9
 70
     1
102
RTVSPropertyOp10
 70
     1
102
RTVSPropertyOp11
 70
     1
102
RTVSPropertyOp12
 70
     1
102
RTVSPropertyOp13
 70
     1
102
RTVSPropertyOp14
 70
     1
102
RTVSPropertyOp15
 70
     1
102
RTVSPropertyOp16
 70
     1
102
RTVSPropertyOp17
 70
     1
102
RTVSPropertyOp18
 70
     1
102
RTVSPropertyOp19
 70
     1
102
RTVSPropertyOp20
 70
     1
102
RTVSPropertyOp21
 70
     1
102
RTVSPropertyOp22
 70
     1
102
RTVSPropertyOp23
 70
     1
102
RTVSPropertyOp24
 70
     1
102
RTVSPropertyOp25
 70
     1
102
RTVSPropertyOp26
 70
     1
102
RTVSPropertyOp27
 70
     1
102
RTVSPropertyOp28
 70
     1
102
RTVSPropertyOp29
 70
     1
102
RTVSPropertyOp30
 70
     1
102
RTVSPropertyOp31
 70
     1
102
RTVSPropertyOp32
 70
     1
102
RTVSPropertyOp33
 70
     1
102
RTVSPropertyOp34
 70
     1
102
RTVSPropertyOp35
 70
     1
102
RTVSPropertyOp36
 70
     1
102
RTVSPropertyOp37
 70
     1
102
RTVSPropertyOp38
 70
     1
102
RTVSPropertyOp39
 70
     1
102
RTVSPropertyOp40
 70
     1
102
RTVSPropertyOp41
 70
     1
102
RTVSPropertyOp42
 70
     1
102
RTVSPropertyOp43
 70
     1
102
RTVSPropertyOp44
 70
     1
102
RTVSPropertyOp45
 70
     1
102
RTVSPropertyOp46
 70
     1
102
RTVSPropertyOp47
 70
     1
102
RTVSPropertyOp48
 70
     1
102
RTVSPropertyOp49
 70
     1
102
RTVSPropertyOp50
 70
     1
102
RTVSPropertyOp51
 70
     0
102
RTVSPropertyOp52
 70
     0
102
RTVSPropertyOp53
 70
     1
102
RTVSPropertyOp54
 70
     1
102
RTVSPropertyOp55
 70
     1
102
RTVSPropertyOp56
 70
     1
102
RTVSPropertyOp57
 70
     1
102
RTVSPropertyOp58
 70
     1
102
RTVSPropertyOp59
 70
     1
102
RTVSPropertyOp60
 70
     1
102
RTVSPropertyOp61
 70
     1
102
RTVSPropertyOp62
 70
     1
  0
ENDSEC
  0
EOF
