  0
SECTION
  2
HEADER
  9
$ACADVER
  1
AC1015
  9
$ACADMAINTVER
 70
    20
  9
$DWGCODEPAGE
  3
ANSI_1252
  9
$INSBASE
 10
0.0
 20
0.0
 30
0.0
  9
$EXTMIN
 10
701.6064307373719
 20
-1189.461883555691
 30
0.0
  9
$EXTMAX
 10
1104.579022289454
 20
-672.7637351047889
 30
0.0
  9
$LIMMIN
 10
0.0
 20
0.0
  9
$LIMMAX
 10
297.0
 20
210.0
  9
$ORTHOMODE
 70
     0
  9
$REGENMODE
 70
     1
  9
$FILLMODE
 70
     1
  9
$QTEXTMODE
 70
     0
  9
$MIRRTEXT
 70
     1
  9
$LTSCALE
 40
2.0
  9
$ATTMODE
 70
     1
  9
$TEXTSIZE
 40
3.5
  9
$TRACEWID
 40
1.0
  9
$TEXTSTYLE
  7
STANDARD
  9
$CLAYER
  8
FERRO
  9
$CELTYPE
  6
BYLAYER
  9
$CECOLOR
 62
   256
  9
$CELTSCALE
 40
1.0
  9
$DISPSILH
 70
     0
  9
$DIMSCALE
 40
2.0
  9
$DIMASZ
 40
1.0
  9
$DIMEXO
 40
1.5
  9
$DIMDLI
 40
10.0
  9
$DIMRND
 40
0.0
  9
$DIMDLE
 40
0.0
  9
$DIMEXE
 40
0.0
  9
$DIMTP
 40
0.0
  9
$DIMTM
 40
0.0
  9
$DIMTXT
 40
2.5
  9
$DIMCEN
 40
2.0
  9
$DIMTSZ
 40
0.0
  9
$DIMTOL
 70
     0
  9
$DIMLIM
 70
     0
  9
$DIMTIH
 70
     0
  9
$DIMTOH
 70
     0
  9
$DIMSE1
 70
     0
  9
$DIMSE2
 70
     0
  9
$DIMTAD
 70
     1
  9
$DIMZIN
 70
     8
  9
$DIMBLK
  1
Oblique
  9
$DIMASO
 70
     1
  9
$DIMSHO
 70
     1
  9
$DIMPOST
  1

  9
$DIMAPOST
  1

  9
$DIMALT
 70
     0
  9
$DIMALTD
 70
     4
  9
$DIMALTF
 40
0.0394
  9
$DIMLFAC
 40
1.0
  9
$DIMTOFL
 70
     1
  9
$DIMTVP
 40
0.0
  9
$DIMTIX
 70
     0
  9
$DIMSOXD
 70
     0
  9
$DIMSAH
 70
     0
  9
$DIMBLK1
  1

  9
$DIMBLK2
  1

  9
$DIMSTYLE
  2
STANDARD_WS
  9
$DIMCLRD
 70
   256
  9
$DIMCLRE
 70
   256
  9
$DIMCLRT
 70
   256
  9
$DIMTFAC
 40
1.0
  9
$DIMGAP
 40
1.0
  9
$DIMJUST
 70
     0
  9
$DIMSD1
 70
     0
  9
$DIMSD2
 70
     0
  9
$DIMTOLJ
 70
     1
  9
$DIMTZIN
 70
     0
  9
$DIMALTZ
 70
     0
  9
$DIMALTTZ
 70
     0
  9
$DIMUPT
 70
     0
  9
$DIMDEC
 70
     1
  9
$DIMTDEC
 70
     1
  9
$DIMALTU
 70
     8
  9
$DIMALTTD
 70
     4
  9
$DIMTXSTY
  7
STANDARD
  9
$DIMAUNIT
 70
     0
  9
$DIMADEC
 70
     1
  9
$DIMALTRND
 40
0.0
  9
$DIMAZIN
 70
     2
  9
$DIMDSEP
 70
    46
  9
$DIMATFIT
 70
     3
  9
$DIMFRAC
 70
     0
  9
$DIMLDRBLK
  1
Oblique
  9
$DIMLUNIT
 70
     2
  9
$DIMLWD
 70
    -2
  9
$DIMLWE
 70
    -2
  9
$DIMTMOVE
 70
     0
  9
$LUNITS
 70
     2
  9
$LUPREC
 70
     4
  9
$SKETCHINC
 40
1.0
  9
$FILLETRAD
 40
7.07070707070707
  9
$AUNITS
 70
     0
  9
$AUPREC
 70
     0
  9
$MENU
  1
acad
  9
$ELEVATION
 40
0.0
  9
$PELEVATION
 40
0.0
  9
$THICKNESS
 40
0.0
  9
$LIMCHECK
 70
     0
  9
$CHAMFERA
 40
7.07070707070707
  9
$CHAMFERB
 40
7.07070707070707
  9
$CHAMFERC
 40
14.14141414141414
  9
$CHAMFERD
 40
0.0
  9
$SKPOLY
 70
     0
  9
$TDCREATE
 40
2451513.764827315
  9
$TDUCREATE
 40
2451513.723160648
  9
$TDUPDATE
 40
2457730.484537940
  9
$TDUUPDATE
 40
2457730.442871273
  9
$TDINDWG
 40
0.2468015972
  9
$TDUSRTIMER
 40
0.2468015972
  9
$USRTIMER
 70
     1
  9
$ANGBASE
 50
0.0
  9
$ANGDIR
 70
     0
  9
$PDMODE
 70
     0
  9
$PDSIZE
 40
0.0
  9
$PLINEWID
 40
0.0
  9
$SPLFRAME
 70
     0
  9
$SPLINETYPE
 70
     6
  9
$SPLINESEGS
 70
     8
  9
$HANDSEED
  5
A62B
  9
$SURFTAB1
 70
     6
  9
$SURFTAB2
 70
     6
  9
$SURFTYPE
 70
     6
  9
$SURFU
 70
     6
  9
$SURFV
 70
     6
  9
$UCSBASE
  2

  9
$UCSNAME
  2

  9
$UCSORG
 10
0.0
 20
0.0
 30
0.0
  9
$UCSXDIR
 10
1.0
 20
0.0
 30
0.0
  9
$UCSYDIR
 10
0.0
 20
1.0
 30
0.0
  9
$UCSORTHOREF
  2

  9
$UCSORTHOVIEW
 70
     0
  9
$UCSORGTOP
 10
0.0
 20
0.0
 30
0.0
  9
$UCSORGBOTTOM
 10
0.0
 20
0.0
 30
0.0
  9
$UCSORGLEFT
 10
0.0
 20
0.0
 30
0.0
  9
$UCSORGRIGHT
 10
0.0
 20
0.0
 30
0.0
  9
$UCSORGFRONT
 10
0.0
 20
0.0
 30
0.0
  9
$UCSORGBACK
 10
0.0
 20
0.0
 30
0.0
  9
$PUCSBASE
  2

  9
$PUCSNAME
  2

  9
$PUCSORG
 10
0.0
 20
0.0
 30
0.0
  9
$PUCSXDIR
 10
1.0
 20
0.0
 30
0.0
  9
$PUCSYDIR
 10
0.0
 20
1.0
 30
0.0
  9
$PUCSORTHOREF
  2

  9
$PUCSORTHOVIEW
 70
     0
  9
$PUCSORGTOP
 10
0.0
 20
0.0
 30
0.0
  9
$PUCSORGBOTTOM
 10
0.0
 20
0.0
 30
0.0
  9
$PUCSORGLEFT
 10
0.0
 20
0.0
 30
0.0
  9
$PUCSORGRIGHT
 10
0.0
 20
0.0
 30
0.0
  9
$PUCSORGFRONT
 10
0.0
 20
0.0
 30
0.0
  9
$PUCSORGBACK
 10
0.0
 20
0.0
 30
0.0
  9
$USERI1
 70
     0
  9
$USERI2
 70
     0
  9
$USERI3
 70
     0
  9
$USERI4
 70
     0
  9
$USERI5
 70
     0
  9
$USERR1
 40
0.0
  9
$USERR2
 40
0.0
  9
$USERR3
 40
0.0
  9
$USERR4
 40
0.0
  9
$USERR5
 40
0.0
  9
$WORLDVIEW
 70
     1
  9
$SHADEDGE
 70
     3
  9
$SHADEDIF
 70
    70
  9
$TILEMODE
 70
     1
  9
$MAXACTVP
 70
    48
  9
$PINSBASE
 10
0.0
 20
0.0
 30
0.0
  9
$PLIMCHECK
 70
     0
  9
$PEXTMIN
 10
0.0
 20
0.0
 30
0.0
  9
$PEXTMAX
 10
11.0
 20
8.5
 30
0.0
  9
$PLIMMIN
 10
0.0
 20
0.0
  9
$PLIMMAX
 10
11.0
 20
8.5
  9
$UNITMODE
 70
     0
  9
$VISRETAIN
 70
     1
  9
$PLINEGEN
 70
     0
  9
$PSLTSCALE
 70
     1
  9
$TREEDEPTH
 70
  3020
  9
$CMLSTYLE
  2
STANDARD
  9
$CMLJUST
 70
     0
  9
$CMLSCALE
 40
20.0
  9
$PROXYGRAPHICS
 70
     1
  9
$MEASUREMENT
 70
     1
  9
$CELWEIGHT
370
    -1
  9
$ENDCAPS
280
     0
  9
$JOINSTYLE
280
     0
  9
$LWDISPLAY
290
     0
  9
$INSUNITS
 70
     0
  9
$HYPERLINKBASE
  1

  9
$STYLESHEET
  1
aclt.ctb
  9
$XEDIT
290
     1
  9
$CEPSNTYPE
380
     0
  9
$PSTYLEMODE
290
     1
  9
$FINGERPRINTGUID
  2
{245EECEC-B48F-11D3-AE0D-0050BF001A35}
  9
$VERSIONGUID
  2
{E3C6D152-EF62-4D74-ACCD-A43A2CFEC6F1}
  9
$EXTNAMES
290
     1
  9
$PSVPSCALE
 40
0.0
  9
$OLESTARTUP
290
     0
  0
ENDSEC
  0
SECTION
  2
CLASSES
  0
CLASS
  1
DICTIONARYVAR
  2
AcDbDictionaryVar
  3
ObjectDBX Classes
 90
        0
280
     0
281
     0
  0
CLASS
  1
ACDBDICTIONARYWDFLT
  2
AcDbDictionaryWithDefault
  3
ObjectDBX Classes
 90
        0
280
     0
281
     0
  0
CLASS
  1
ACDBPLACEHOLDER
  2
AcDbPlaceHolder
  3
ObjectDBX Classes
 90
        0
280
     0
281
     0
  0
CLASS
  1
LAYOUT
  2
AcDbLayout
  3
ObjectDBX Classes
 90
        0
280
     0
281
     0
  0
CLASS
  1
MATERIAL
  2
AcDbMaterial
  3
ObjectDBX Classes
 90
     1153
280
     0
281
     0
  0
CLASS
  1
VISUALSTYLE
  2
AcDbVisualStyle
  3
ObjectDBX Classes
 90
     4095
280
     0
281
     0
  0
CLASS
  1
TABLESTYLE
  2
AcDbTableStyle
  3
ObjectDBX Classes
 90
     4095
280
     0
281
     0
  0
CLASS
  1
SCALE
  2
AcDbScale
  3
ObjectDBX Classes
 90
     1153
280
     0
281
     0
  0
CLASS
  1
MLEADERSTYLE
  2
AcDbMLeaderStyle
  3
ACDB_MLEADERSTYLE_CLASS
 90
     4095
280
     0
281
     0
  0
CLASS
  1
ACDBSECTIONVIEWSTYLE
  2
AcDbSectionViewStyle
  3
ObjectDBX Classes
 90
     1025
280
     0
281
     0
  0
CLASS
  1
ACDBDETAILVIEWSTYLE
  2
AcDbDetailViewStyle
  3
ObjectDBX Classes
 90
     1025
280
     0
281
     0
  0
CLASS
  1
CELLSTYLEMAP
  2
AcDbCellStyleMap
  3
ObjectDBX Classes
 90
     1152
280
     0
281
     0
  0
ENDSEC
  0
SECTION
  2
TABLES
  0
TABLE
  2
VPORT
  5
8
330
0
100
AcDbSymbolTable
 70
     1
  0
VPORT
  5
A576
330
8
100
AcDbSymbolTableRecord
100
AcDbViewportTableRecord
  2
*Active
 70
     0
 10
0.0
 20
0.0
 11
1.0
 21
1.0
 12
1498.397835828649
 22
-867.8061354030072
 13
0.0
 23
0.0
 14
10.0
 24
10.0
 15
10.0
 25
10.0
 16
0.0
 26
0.0
 36
1.0
 17
0.0
 27
0.0
 37
0.0
 40
1341.228834325481
 41
2.085280373831775
 42
50.0
 43
0.0
 44
0.0
 50
0.0
 51
0.0
 71
     0
 72
   100
 73
     1
 74
     1
 75
     0
 76
     0
 77
     0
 78
     0
281
     0
 65
     1
110
0.0
120
0.0
130
0.0
111
1.0
121
0.0
131
0.0
112
0.0
122
1.0
132
0.0
 79
     0
146
0.0
1001
ACAD_NAV_VCDISPLAY
1070
     3
  0
ENDTAB
  0
TABLE
  2
LTYPE
  5
5
330
0
100
AcDbSymbolTable
 70
     5
  0
LTYPE
  5
12
330
5
100
AcDbSymbolTableRecord
100
AcDbLinetypeTableRecord
  2
BYBLOCK
 70
     0
  3

 72
    65
 73
     0
 40
0.0
  0
LTYPE
  5
13
330
5
100
AcDbSymbolTableRecord
100
AcDbLinetypeTableRecord
  2
BYLAYER
 70
     0
  3

 72
    65
 73
     0
 40
0.0
  0
LTYPE
  5
14
330
5
100
AcDbSymbolTableRecord
100
AcDbLinetypeTableRecord
  2
CONTINUOUS
 70
     0
  3
Solid line
 72
    65
 73
     0
 40
0.0
  0
LTYPE
  5
40
330
5
100
AcDbSymbolTableRecord
100
AcDbLinetypeTableRecord
  2
TRATTEGGIATA2
 70
     0
  3
tratteggiata (.5x) _ _ _ _ _ _ _ _ _ _ _ _ _ _ 
 72
    65
 73
     2
 40
9.524999999999998
 49
6.349999999999999
 74
     0
 49
-3.174999999999999
 74
     0
  0
LTYPE
  5
41
330
5
100
AcDbSymbolTableRecord
100
AcDbLinetypeTableRecord
  2
TRATTO-PUNTO2
 70
     0
  3
tratto-punto (.5x) _._._._._._._._._._._._._._.
 72
    65
 73
     4
 40
12.7
 49
6.349999999999999
 74
     0
 49
-3.174999999999999
 74
     0
 49
0.0
 74
     0
 49
-3.174999999999999
 74
     0
  0
LTYPE
  5
37D
330
5
100
AcDbSymbolTableRecord
100
AcDbLinetypeTableRecord
  2
TRATTO-PUNTOX2
 70
     0
  3
____  .  ____  .  ____  .  ____  .  ____  .  __
 72
    65
 73
     4
 40
2.0
 49
1.0
 74
     0
 49
-0.5
 74
     0
 49
0.0
 74
     0
 49
-0.5
 74
     0
  0
LTYPE
  5
2DB7
330
5
100
AcDbSymbolTableRecord
100
AcDbLinetypeTableRecord
  2
ACAD_ISO10W100
 70
     0
  3
tratto punto ISO __ . __ . __ . __ . __ . __ . 
 72
    65
 73
     4
 40
18.5
 49
12.0
 74
     0
 49
-3.0
 74
     0
 49
0.5
 74
     0
 49
-3.0
 74
     0
  0
ENDTAB
  0
TABLE
  2
LAYER
  5
2
330
0
100
AcDbSymbolTable
 70
    10
  0
LAYER
  5
E
102
{ACAD_XDICTIONARY
360
A5CD
102
}
330
2
100
AcDbSymbolTableRecord
100
AcDbLayerTableRecord
  2
0
 70
     0
 62
     7
  6
CONTINUOUS
370
    -3
390
9F4F
  0
LAYER
  5
33
102
{ACAD_XDICTIONARY
360
A5CF
102
}
330
2
100
AcDbSymbolTableRecord
100
AcDbLayerTableRecord
  2
QUOTE
 70
     0
 62
    12
  6
TRATTEGGIATA2
370
    -3
390
9F4F
  0
LAYER
  5
43
102
{ACAD_XDICTIONARY
360
A5D1
102
}
330
2
100
AcDbSymbolTableRecord
100
AcDbLayerTableRecord
  2
FERRO
 70
     0
 62
   250
  6
CONTINUOUS
370
    -3
390
9F4F
  0
LAYER
  5
59
102
{ACAD_XDICTIONARY
360
A5D3
102
}
330
2
100
AcDbSymbolTableRecord
100
AcDbLayerTableRecord
  2
AREA
 70
     1
 62
   166
  6
CONTINUOUS
370
    -3
390
9F4F
  0
LAYER
  5
138
330
2
100
AcDbSymbolTableRecord
100
AcDbLayerTableRecord
  2
DEFPOINTS
 70
     0
 62
     7
  6
CONTINUOUS
290
     0
370
    -3
390
9F4F
  0
LAYER
  5
5AF
102
{ACAD_XDICTIONARY
360
A5D5
102
}
330
2
100
AcDbSymbolTableRecord
100
AcDbLayerTableRecord
  2
TABELLA
 70
     0
 62
     7
  6
CONTINUOUS
370
    -3
390
9F4F
  0
LAYER
  5
185F
102
{ACAD_XDICTIONARY
360
A5D7
102
}
330
2
100
AcDbSymbolTableRecord
100
AcDbLayerTableRecord
  2
ALLUMINIO
 70
     0
 62
     3
  6
CONTINUOUS
370
    -3
390
9F4F
  0
LAYER
  5
2DBD
102
{ACAD_XDICTIONARY
360
A5D9
102
}
330
2
100
AcDbSymbolTableRecord
100
AcDbLayerTableRecord
  2
CONTORNO
 70
     0
 62
     7
  6
CONTINUOUS
370
    -3
390
9F4F
  0
LAYER
  5
2DBE
102
{ACAD_XDICTIONARY
360
A5DB
102
}
330
2
100
AcDbSymbolTableRecord
100
AcDbLayerTableRecord
  2
AREA166
 70
     0
 62
   166
  6
CONTINUOUS
370
    -3
390
9F4F
  0
LAYER
  5
9F5E
102
{ACAD_XDICTIONARY
360
A5DD
102
}
330
2
100
AcDbSymbolTableRecord
100
AcDbLayerTableRecord
  2
ASSI
 70
     0
 62
     5
  6
TRATTO-PUNTO2
370
    -3
390
9F4F
  0
ENDTAB
  0
TABLE
  2
STYLE
  5
3
330
0
100
AcDbSymbolTable
 70
     3
  0
STYLE
  5
F
330
3
100
AcDbSymbolTableRecord
100
AcDbTextStyleTableRecord
  2
STANDARD
 70
     0
 40
0.0
 41
1.0
 50
0.0
 71
     0
 42
3.5
  3
txt
  4

  0
STYLE
  5
394
330
3
100
AcDbSymbolTableRecord
100
AcDbTextStyleTableRecord
  2
ROMANS
 70
     0
 40
2.5
 41
0.5
 50
0.0
 71
     0
 42
2.5
  3
romans
  4

  0
STYLE
  5
395
330
3
100
AcDbSymbolTableRecord
100
AcDbTextStyleTableRecord
  2
ROMAND
 70
     0
 40
3.0
 41
0.5
 50
0.0
 71
     0
 42
3.0
  3
romand
  4

  0
ENDTAB
  0
TABLE
  2
VIEW
  5
6
330
0
100
AcDbSymbolTable
 70
     0
  0
ENDTAB
  0
TABLE
  2
UCS
  5
7
330
0
100
AcDbSymbolTable
 70
     0
  0
ENDTAB
  0
TABLE
  2
APPID
  5
9
330
0
100
AcDbSymbolTable
 70
     7
  0
APPID
  5
10
330
9
100
AcDbSymbolTableRecord
100
AcDbRegAppTableRecord
  2
ACAD
 70
     0
  0
APPID
  5
24
330
9
100
AcDbSymbolTableRecord
100
AcDbRegAppTableRecord
  2
CONTENTTABDATA
 70
     0
  0
APPID
  5
25
330
9
100
AcDbSymbolTableRecord
100
AcDbRegAppTableRecord
  2
CONTENTCURRENTTAB
 70
     0
  0
APPID
  5
2DBF
330
9
100
AcDbSymbolTableRecord
100
AcDbRegAppTableRecord
  2
CONTENTBLOCKDESCRIPTION
 70
     0
  0
APPID
  5
2DC0
330
9
100
AcDbSymbolTableRecord
100
AcDbRegAppTableRecord
  2
CONTENTBLOCKICON
 70
     0
  0
APPID
  5
A5E7
330
9
100
AcDbSymbolTableRecord
100
AcDbRegAppTableRecord
  2
ACAD_NAV_VCDISPLAY
 70
     0
  0
APPID
  5
A628
330
9
100
AcDbSymbolTableRecord
100
AcDbRegAppTableRecord
  2
ACAD_MLEADERVER
 70
     0
  0
ENDTAB
  0
TABLE
  2
DIMSTYLE
  5
A
330
0
100
AcDbSymbolTable
 70
     2
100
AcDbDimStyleTable
 71
     1
340
38
  0
DIMSTYLE
105
1D
330
A
100
AcDbSymbolTableRecord
100
AcDbDimStyleTableRecord
  2
STANDARD
 70
     0
340
F
  0
DIMSTYLE
105
38
102
{ACAD_REACTORS
330
A128
330
9E90
330
9E5D
330
9F67
330
9EA2
330
9E92
330
9F00
330
A073
330
A00D
330
A02D
330
9F4A
330
A03A
102
}
330
A
100
AcDbSymbolTableRecord
100
AcDbDimStyleTableRecord
  2
STANDARD_WS
 70
     0
 40
0.7070707070707071
 41
2.5
 42
0.625
 43
3.75
 44
1.25
 73
     0
 74
     0
 77
     1
 78
     8
140
2.5
141
2.5
143
0.0394
147
0.625
171
     4
172
     1
273
     8
274
     4
340
F
  0
ENDTAB
  0
TABLE
  2
BLOCK_RECORD
  5
1
330
0
100
AcDbSymbolTable
 70
    15
  0
BLOCK_RECORD
  5
18
330
1
100
AcDbSymbolTableRecord
100
AcDbBlockTableRecord
  2
*MODEL_SPACE
340
9F52
  0
BLOCK_RECORD
  5
15
330
1
100
AcDbSymbolTableRecord
100
AcDbBlockTableRecord
  2
*PAPER_SPACE
340
9F53
  0
BLOCK_RECORD
  5
370
330
1
100
AcDbSymbolTableRecord
100
AcDbBlockTableRecord
  2
WMF3
340
0
102
{BLKREFS
331
58A
331
CB4
331
D59
331
46E9
331
655B
331
670C
331
8AB0
331
8B44
331
8C16
331
8DD8
331
8F1B
331
8F1E
331
8F20
331
9079
331
907C
331
907E
331
9D7B
331
9D7D
331
9D7F
331
9E13
102
}
  0
BLOCK_RECORD
  5
373
330
1
100
AcDbSymbolTableRecord
100
AcDbBlockTableRecord
  2
WMF4
340
0
102
{BLKREFS
331
58B
331
CB5
331
D5A
331
46EA
331
655C
331
670D
331
8AB1
331
8B45
331
8C17
331
8DD9
331
8F1C
331
8F1F
331
8F21
331
907A
331
907D
331
907F
331
9D7C
331
9D7E
331
9D80
331
9E14
102
}
  0
BLOCK_RECORD
  5
57B8
330
1
100
AcDbSymbolTableRecord
100
AcDbBlockTableRecord
  2
*X2
340
0
102
{BLKREFS
331
6455
102
}
  0
BLOCK_RECORD
  5
9CDE
330
1
100
AcDbSymbolTableRecord
100
AcDbBlockTableRecord
  2
*X3
340
0
  0
BLOCK_RECORD
  5
9E4F
330
1
100
AcDbSymbolTableRecord
100
AcDbBlockTableRecord
  2
*D4
340
0
  0
BLOCK_RECORD
  5
9E94
330
1
100
AcDbSymbolTableRecord
100
AcDbBlockTableRecord
  2
*D5
340
0
  0
BLOCK_RECORD
  5
9EF4
330
1
100
AcDbSymbolTableRecord
100
AcDbBlockTableRecord
  2
*D6
340
0
  0
BLOCK_RECORD
  5
9F68
330
1
100
AcDbSymbolTableRecord
100
AcDbBlockTableRecord
  2
*D7
340
0
  0
BLOCK_RECORD
  5
9FB4
330
1
100
AcDbSymbolTableRecord
100
AcDbBlockTableRecord
  2
_Oblique
340
0
102
{BLKREFS
331
A431
331
A432
331
A43A
331
A43B
331
A443
331
A444
331
A44C
331
A44D
331
A455
331
A456
331
A45E
331
A45F
331
A467
331
A468
331
A470
331
A471
331
A479
331
A47A
102
}
  0
BLOCK_RECORD
  5
A00E
330
1
100
AcDbSymbolTableRecord
100
AcDbBlockTableRecord
  2
*D9
340
0
  0
BLOCK_RECORD
  5
A02E
330
1
100
AcDbSymbolTableRecord
100
AcDbBlockTableRecord
  2
*D10
340
0
  0
BLOCK_RECORD
  5
A03B
330
1
100
AcDbSymbolTableRecord
100
AcDbBlockTableRecord
  2
*D11
340
0
  0
BLOCK_RECORD
  5
A074
330
1
100
AcDbSymbolTableRecord
100
AcDbBlockTableRecord
  2
*D12
340
0
  0
BLOCK_RECORD
  5
A129
330
1
100
AcDbSymbolTableRecord
100
AcDbBlockTableRecord
  2
*D13
340
0
  0
BLOCK_RECORD
  5
A4FB
330
1
100
AcDbSymbolTableRecord
100
AcDbBlockTableRecord
  2
A$C75EC7B59
340
0
  0
ENDTAB
  0
ENDSEC
  0
SECTION
  2
BLOCKS
  0
BLOCK
  5
19
330
18
100
AcDbEntity
  8
0
100
AcDbBlockBegin
  2
*MODEL_SPACE
 70
     0
 10
0.0
 20
0.0
 30
0.0
  3
*MODEL_SPACE
  1

  0
ENDBLK
  5
1A
330
18
100
AcDbEntity
  8
0
100
AcDbBlockEnd
  0
BLOCK
  5
16
330
15
100
AcDbEntity
 67
     1
  8
0
100
AcDbBlockBegin
  2
*PAPER_SPACE
 70
     0
 10
0.0
 20
0.0
 30
0.0
  3
*PAPER_SPACE
  1

  0
ENDBLK
  5
17
330
15
100
AcDbEntity
 67
     1
  8
0
100
AcDbBlockEnd
  0
BLOCK
  5
371
330
370
100
AcDbEntity
  8
0
100
AcDbBlockBegin
  2
WMF3
 70
     0
 10
297.0543972648738
 20
-297.0543972648738
 30
0.0
  3
WMF3
  1

  0
ENDBLK
  5
372
330
370
100
AcDbEntity
  8
0
100
AcDbBlockEnd
  0
BLOCK
  5
374
330
373
100
AcDbEntity
  8
0
100
AcDbBlockBegin
  2
WMF4
 70
     0
 10
297.0543972648738
 20
-297.0543972648738
 30
0.0
  3
WMF4
  1

  0
ENDBLK
  5
375
330
373
100
AcDbEntity
  8
0
100
AcDbBlockEnd
  0
BLOCK
  5
59CF
330
57B8
100
AcDbEntity
  8
0
100
AcDbBlockBegin
  2
*X2
 70
     1
 10
0.0
 20
0.0
 30
0.0
  3
*X2
  1

  0
LINE
  5
57B9
330
57B8
100
AcDbEntity
  8
0
 62
     0
100
AcDbLine
 10
96.3867464777282
 20
162.8406417736399
 30
0.0
 11
97.38674647772819
 21
163.8406417736399
 31
0.0
  0
LINE
  5
57BA
330
57B8
100
AcDbEntity
  8
0
 62
     0
100
AcDbLine
 10
120.3346499393209
 20
186.7885452352325
 30
0.0
 11
121.3346499393209
 21
187.7885452352326
 31
0.0
  0
LINE
  5
57BB
330
57B8
100
AcDbEntity
  8
0
 62
     0
100
AcDbLine
 10
96.33464993932093
 20
163.1477554800754
 30
0.0
 11
97.3346499393209
 21
164.1477554800754
 31
0.0
  0
LINE
  5
57BC
330
57B8
100
AcDbEntity
  8
0
 62
     0
100
AcDbLine
 10
120.0275362328853
 20
186.8406417736398
 30
0.0
 11
121.0275362328853
 21
187.8406417736398
 31
0.0
  0
LINE
  5
57BD
330
57B8
100
AcDbEntity
  8
0
 62
     0
100
AcDbLine
 10
96.33464993932093
 20
163.5069657249182
 30
0.0
 11
97.3346499393209
 21
164.5069657249181
 31
0.0
  0
LINE
  5
57BE
330
57B8
100
AcDbEntity
  8
0
 62
     0
100
AcDbLine
 10
119.6683259880426
 20
186.8406417736398
 30
0.0
 11
120.6683259880426
 21
187.8406417736398
 31
0.0
  0
LINE
  5
57BF
330
57B8
100
AcDbEntity
  8
0
 62
     0
100
AcDbLine
 10
96.33464993932093
 20
163.8661759697609
 30
0.0
 11
97.3346499393209
 21
164.8661759697609
 31
0.0
  0
LINE
  5
57C0
330
57B8
100
AcDbEntity
  8
0
 62
     0
100
AcDbLine
 10
119.3091157431998
 20
186.8406417736398
 30
0.0
 11
120.3091157431998
 21
187.8406417736398
 31
0.0
  0
LINE
  5
57C1
330
57B8
100
AcDbEntity
  8
0
 62
     0
100
AcDbLine
 10
96.33464993932093
 20
164.2253862146037
 30
0.0
 11
97.3346499393209
 21
165.2253862146037
 31
0.0
  0
LINE
  5
57C2
330
57B8
100
AcDbEntity
  8
0
 62
     0
100
AcDbLine
 10
118.949905498357
 20
186.8406417736398
 30
0.0
 11
119.949905498357
 21
187.8406417736398
 31
0.0
  0
LINE
  5
57C3
330
57B8
100
AcDbEntity
  8
0
 62
     0
100
AcDbLine
 10
96.33464993932093
 20
164.5845964594465
 30
0.0
 11
97.3346499393209
 21
165.5845964594464
 31
0.0
  0
LINE
  5
57C4
330
57B8
100
AcDbEntity
  8
0
 62
     0
100
AcDbLine
 10
118.5906952535143
 20
186.8406417736398
 30
0.0
 11
119.5906952535143
 21
187.8406417736398
 31
0.0
  0
LINE
  5
57C5
330
57B8
100
AcDbEntity
  8
0
 62
     0
100
AcDbLine
 10
96.33464993932093
 20
164.9438067042892
 30
0.0
 11
97.3346499393209
 21
165.9438067042892
 31
0.0
  0
LINE
  5
57C6
330
57B8
100
AcDbEntity
  8
0
 62
     0
100
AcDbLine
 10
118.2314850086715
 20
186.8406417736398
 30
0.0
 11
119.2314850086715
 21
187.8406417736398
 31
0.0
  0
LINE
  5
57C7
330
57B8
100
AcDbEntity
  8
0
 62
     0
100
AcDbLine
 10
96.33464993932093
 20
165.303016949132
 30
0.0
 11
97.3346499393209
 21
166.303016949132
 31
0.0
  0
LINE
  5
57C8
330
57B8
100
AcDbEntity
  8
0
 62
     0
100
AcDbLine
 10
117.8722747638287
 20
186.8406417736398
 30
0.0
 11
118.8722747638287
 21
187.8406417736398
 31
0.0
  0
LINE
  5
57C9
330
57B8
100
AcDbEntity
  8
0
 62
     0
100
AcDbLine
 10
96.33464993932093
 20
165.6622271939748
 30
0.0
 11
97.3346499393209
 21
166.6622271939747
 31
0.0
  0
LINE
  5
57CA
330
57B8
100
AcDbEntity
  8
0
 62
     0
100
AcDbLine
 10
117.5130645189859
 20
186.8406417736398
 30
0.0
 11
118.5130645189859
 21
187.8406417736398
 31
0.0
  0
LINE
  5
57CB
330
57B8
100
AcDbEntity
  8
0
 62
     0
100
AcDbLine
 10
96.33464993932093
 20
166.0214374388175
 30
0.0
 11
97.3346499393209
 21
167.0214374388175
 31
0.0
  0
LINE
  5
57CC
330
57B8
100
AcDbEntity
  8
0
 62
     0
100
AcDbLine
 10
117.1538542741432
 20
186.8406417736398
 30
0.0
 11
118.1538542741432
 21
187.8406417736398
 31
0.0
  0
LINE
  5
57CD
330
57B8
100
AcDbEntity
  8
0
 62
     0
100
AcDbLine
 10
96.33464993932093
 20
166.3806476836603
 30
0.0
 11
97.3346499393209
 21
167.3806476836603
 31
0.0
  0
LINE
  5
57CE
330
57B8
100
AcDbEntity
  8
0
 62
     0
100
AcDbLine
 10
116.7946440293004
 20
186.8406417736398
 30
0.0
 11
117.7946440293004
 21
187.8406417736398
 31
0.0
  0
LINE
  5
57CF
330
57B8
100
AcDbEntity
  8
0
 62
     0
100
AcDbLine
 10
96.33464993932093
 20
166.7398579285031
 30
0.0
 11
97.3346499393209
 21
167.739857928503
 31
0.0
  0
LINE
  5
57D0
330
57B8
100
AcDbEntity
  8
0
 62
     0
100
AcDbLine
 10
116.4354337844577
 20
186.8406417736398
 30
0.0
 11
117.4354337844577
 21
187.8406417736398
 31
0.0
  0
LINE
  5
57D1
330
57B8
100
AcDbEntity
  8
0
 62
     0
100
AcDbLine
 10
96.33464993932093
 20
167.0990681733458
 30
0.0
 11
97.3346499393209
 21
168.0990681733458
 31
0.0
  0
LINE
  5
57D2
330
57B8
100
AcDbEntity
  8
0
 62
     0
100
AcDbLine
 10
116.0762235396149
 20
186.8406417736398
 30
0.0
 11
117.0762235396149
 21
187.8406417736398
 31
0.0
  0
LINE
  5
57D3
330
57B8
100
AcDbEntity
  8
0
 62
     0
100
AcDbLine
 10
96.33464993932093
 20
167.4582784181886
 30
0.0
 11
97.3346499393209
 21
168.4582784181886
 31
0.0
  0
LINE
  5
57D4
330
57B8
100
AcDbEntity
  8
0
 62
     0
100
AcDbLine
 10
115.7170132947721
 20
186.8406417736398
 30
0.0
 11
116.7170132947721
 21
187.8406417736398
 31
0.0
  0
LINE
  5
57D5
330
57B8
100
AcDbEntity
  8
0
 62
     0
100
AcDbLine
 10
96.33464993932093
 20
167.8174886630314
 30
0.0
 11
97.3346499393209
 21
168.8174886630313
 31
0.0
  0
LINE
  5
57D6
330
57B8
100
AcDbEntity
  8
0
 62
     0
100
AcDbLine
 10
115.3578030499294
 20
186.8406417736398
 30
0.0
 11
116.3578030499294
 21
187.8406417736398
 31
0.0
  0
LINE
  5
57D7
330
57B8
100
AcDbEntity
  8
0
 62
     0
100
AcDbLine
 10
96.33464993932093
 20
168.1766989078741
 30
0.0
 11
97.3346499393209
 21
169.1766989078741
 31
0.0
  0
LINE
  5
57D8
330
57B8
100
AcDbEntity
  8
0
 62
     0
100
AcDbLine
 10
114.9985928050866
 20
186.8406417736398
 30
0.0
 11
115.9985928050866
 21
187.8406417736398
 31
0.0
  0
LINE
  5
57D9
330
57B8
100
AcDbEntity
  8
0
 62
     0
100
AcDbLine
 10
96.33464993932093
 20
168.5359091527169
 30
0.0
 11
97.3346499393209
 21
169.5359091527169
 31
0.0
  0
LINE
  5
57DA
330
57B8
100
AcDbEntity
  8
0
 62
     0
100
AcDbLine
 10
114.6393825602438
 20
186.8406417736398
 30
0.0
 11
115.6393825602438
 21
187.8406417736398
 31
0.0
  0
LINE
  5
57DB
330
57B8
100
AcDbEntity
  8
0
 62
     0
100
AcDbLine
 10
96.33464993932093
 20
168.8951193975596
 30
0.0
 11
97.3346499393209
 21
169.8951193975596
 31
0.0
  0
LINE
  5
57DC
330
57B8
100
AcDbEntity
  8
0
 62
     0
100
AcDbLine
 10
114.2801723154011
 20
186.8406417736398
 30
0.0
 11
115.2801723154011
 21
187.8406417736398
 31
0.0
  0
LINE
  5
57DD
330
57B8
100
AcDbEntity
  8
0
 62
     0
100
AcDbLine
 10
96.33464993932093
 20
169.2543296424024
 30
0.0
 11
97.3346499393209
 21
170.2543296424024
 31
0.0
  0
LINE
  5
57DE
330
57B8
100
AcDbEntity
  8
0
 62
     0
100
AcDbLine
 10
113.9209620705583
 20
186.8406417736398
 30
0.0
 11
114.9209620705583
 21
187.8406417736398
 31
0.0
  0
LINE
  5
57DF
330
57B8
100
AcDbEntity
  8
0
 62
     0
100
AcDbLine
 10
96.33464993932093
 20
169.6135398872452
 30
0.0
 11
97.3346499393209
 21
170.6135398872452
 31
0.0
  0
LINE
  5
57E0
330
57B8
100
AcDbEntity
  8
0
 62
     0
100
AcDbLine
 10
113.5617518257155
 20
186.8406417736398
 30
0.0
 11
114.5617518257155
 21
187.8406417736398
 31
0.0
  0
LINE
  5
57E1
330
57B8
100
AcDbEntity
  8
0
 62
     0
100
AcDbLine
 10
96.33464993932093
 20
169.972750132088
 30
0.0
 11
97.3346499393209
 21
170.9727501320879
 31
0.0
  0
LINE
  5
57E2
330
57B8
100
AcDbEntity
  8
0
 62
     0
100
AcDbLine
 10
113.2025415808728
 20
186.8406417736398
 30
0.0
 11
114.2025415808728
 21
187.8406417736398
 31
0.0
  0
LINE
  5
57E3
330
57B8
100
AcDbEntity
  8
0
 62
     0
100
AcDbLine
 10
96.33464993932093
 20
170.3319603769307
 30
0.0
 11
97.3346499393209
 21
171.3319603769307
 31
0.0
  0
LINE
  5
57E4
330
57B8
100
AcDbEntity
  8
0
 62
     0
100
AcDbLine
 10
112.84333133603
 20
186.8406417736398
 30
0.0
 11
113.84333133603
 21
187.8406417736398
 31
0.0
  0
LINE
  5
57E5
330
57B8
100
AcDbEntity
  8
0
 62
     0
100
AcDbLine
 10
96.33464993932093
 20
170.6911706217735
 30
0.0
 11
97.3346499393209
 21
171.6911706217735
 31
0.0
  0
LINE
  5
57E6
330
57B8
100
AcDbEntity
  8
0
 62
     0
100
AcDbLine
 10
112.4841210911872
 20
186.8406417736398
 30
0.0
 11
113.4841210911872
 21
187.8406417736398
 31
0.0
  0
LINE
  5
57E7
330
57B8
100
AcDbEntity
  8
0
 62
     0
100
AcDbLine
 10
96.33464993932093
 20
171.0503808666163
 30
0.0
 11
97.3346499393209
 21
172.0503808666162
 31
0.0
  0
LINE
  5
57E8
330
57B8
100
AcDbEntity
  8
0
 62
     0
100
AcDbLine
 10
112.1249108463445
 20
186.8406417736398
 30
0.0
 11
113.1249108463445
 21
187.8406417736398
 31
0.0
  0
LINE
  5
57E9
330
57B8
100
AcDbEntity
  8
0
 62
     0
100
AcDbLine
 10
96.33464993932093
 20
171.409591111459
 30
0.0
 11
97.3346499393209
 21
172.409591111459
 31
0.0
  0
LINE
  5
57EA
330
57B8
100
AcDbEntity
  8
0
 62
     0
100
AcDbLine
 10
111.7657006015017
 20
186.8406417736398
 30
0.0
 11
112.7657006015017
 21
187.8406417736398
 31
0.0
  0
LINE
  5
57EB
330
57B8
100
AcDbEntity
  8
0
 62
     0
100
AcDbLine
 10
96.33464993932093
 20
171.7688013563018
 30
0.0
 11
97.3346499393209
 21
172.7688013563018
 31
0.0
  0
LINE
  5
57EC
330
57B8
100
AcDbEntity
  8
0
 62
     0
100
AcDbLine
 10
111.4064903566589
 20
186.8406417736398
 30
0.0
 11
112.4064903566589
 21
187.8406417736398
 31
0.0
  0
LINE
  5
57ED
330
57B8
100
AcDbEntity
  8
0
 62
     0
100
AcDbLine
 10
96.33464993932093
 20
172.1280116011446
 30
0.0
 11
97.3346499393209
 21
173.1280116011445
 31
0.0
  0
LINE
  5
57EE
330
57B8
100
AcDbEntity
  8
0
 62
     0
100
AcDbLine
 10
111.0472801118162
 20
186.8406417736398
 30
0.0
 11
112.0472801118162
 21
187.8406417736398
 31
0.0
  0
LINE
  5
57EF
330
57B8
100
AcDbEntity
  8
0
 62
     0
100
AcDbLine
 10
96.33464993932093
 20
172.4872218459873
 30
0.0
 11
97.3346499393209
 21
173.4872218459873
 31
0.0
  0
LINE
  5
57F0
330
57B8
100
AcDbEntity
  8
0
 62
     0
100
AcDbLine
 10
110.6880698669734
 20
186.8406417736398
 30
0.0
 11
111.6880698669734
 21
187.8406417736398
 31
0.0
  0
LINE
  5
57F1
330
57B8
100
AcDbEntity
  8
0
 62
     0
100
AcDbLine
 10
96.33464993932093
 20
172.8464320908301
 30
0.0
 11
97.3346499393209
 21
173.8464320908301
 31
0.0
  0
LINE
  5
57F2
330
57B8
100
AcDbEntity
  8
0
 62
     0
100
AcDbLine
 10
110.3288596221306
 20
186.8406417736398
 30
0.0
 11
111.3288596221306
 21
187.8406417736398
 31
0.0
  0
LINE
  5
57F3
330
57B8
100
AcDbEntity
  8
0
 62
     0
100
AcDbLine
 10
96.33464993932093
 20
173.2056423356729
 30
0.0
 11
97.3346499393209
 21
174.2056423356728
 31
0.0
  0
LINE
  5
57F4
330
57B8
100
AcDbEntity
  8
0
 62
     0
100
AcDbLine
 10
109.9696493772879
 20
186.8406417736398
 30
0.0
 11
110.9696493772879
 21
187.8406417736398
 31
0.0
  0
LINE
  5
57F5
330
57B8
100
AcDbEntity
  8
0
 62
     0
100
AcDbLine
 10
96.33464993932093
 20
173.5648525805156
 30
0.0
 11
97.3346499393209
 21
174.5648525805156
 31
0.0
  0
LINE
  5
57F6
330
57B8
100
AcDbEntity
  8
0
 62
     0
100
AcDbLine
 10
109.6104391324451
 20
186.8406417736398
 30
0.0
 11
110.6104391324451
 21
187.8406417736398
 31
0.0
  0
LINE
  5
57F7
330
57B8
100
AcDbEntity
  8
0
 62
     0
100
AcDbLine
 10
96.33464993932093
 20
173.9240628253584
 30
0.0
 11
97.3346499393209
 21
174.9240628253584
 31
0.0
  0
LINE
  5
57F8
330
57B8
100
AcDbEntity
  8
0
 62
     0
100
AcDbLine
 10
109.2512288876023
 20
186.8406417736398
 30
0.0
 11
110.2512288876023
 21
187.8406417736398
 31
0.0
  0
LINE
  5
57F9
330
57B8
100
AcDbEntity
  8
0
 62
     0
100
AcDbLine
 10
96.33464993932093
 20
174.2832730702011
 30
0.0
 11
97.3346499393209
 21
175.2832730702011
 31
0.0
  0
LINE
  5
57FA
330
57B8
100
AcDbEntity
  8
0
 62
     0
100
AcDbLine
 10
108.8920186427596
 20
186.8406417736398
 30
0.0
 11
109.8920186427596
 21
187.8406417736398
 31
0.0
  0
LINE
  5
57FB
330
57B8
100
AcDbEntity
  8
0
 62
     0
100
AcDbLine
 10
96.33464993932093
 20
174.6424833150439
 30
0.0
 11
97.3346499393209
 21
175.6424833150439
 31
0.0
  0
LINE
  5
57FC
330
57B8
100
AcDbEntity
  8
0
 62
     0
100
AcDbLine
 10
108.5328083979168
 20
186.8406417736398
 30
0.0
 11
109.5328083979168
 21
187.8406417736398
 31
0.0
  0
LINE
  5
57FD
330
57B8
100
AcDbEntity
  8
0
 62
     0
100
AcDbLine
 10
96.33464993932093
 20
175.0016935598867
 30
0.0
 11
97.3346499393209
 21
176.0016935598867
 31
0.0
  0
LINE
  5
57FE
330
57B8
100
AcDbEntity
  8
0
 62
     0
100
AcDbLine
 10
108.1735981530741
 20
186.8406417736398
 30
0.0
 11
109.1735981530741
 21
187.8406417736398
 31
0.0
  0
LINE
  5
57FF
330
57B8
100
AcDbEntity
  8
0
 62
     0
100
AcDbLine
 10
96.33464993932093
 20
175.3609038047295
 30
0.0
 11
97.3346499393209
 21
176.3609038047294
 31
0.0
  0
LINE
  5
5800
330
57B8
100
AcDbEntity
  8
0
 62
     0
100
AcDbLine
 10
107.8143879082313
 20
186.8406417736398
 30
0.0
 11
108.8143879082313
 21
187.8406417736398
 31
0.0
  0
LINE
  5
5801
330
57B8
100
AcDbEntity
  8
0
 62
     0
100
AcDbLine
 10
96.33464993932093
 20
175.7201140495722
 30
0.0
 11
97.3346499393209
 21
176.7201140495722
 31
0.0
  0
LINE
  5
5802
330
57B8
100
AcDbEntity
  8
0
 62
     0
100
AcDbLine
 10
107.4551776633885
 20
186.8406417736398
 30
0.0
 11
108.4551776633885
 21
187.8406417736398
 31
0.0
  0
LINE
  5
5803
330
57B8
100
AcDbEntity
  8
0
 62
     0
100
AcDbLine
 10
96.33464993932093
 20
176.079324294415
 30
0.0
 11
97.3346499393209
 21
177.0793242944149
 31
0.0
  0
LINE
  5
5804
330
57B8
100
AcDbEntity
  8
0
 62
     0
100
AcDbLine
 10
107.0959674185458
 20
186.8406417736398
 30
0.0
 11
108.0959674185458
 21
187.8406417736398
 31
0.0
  0
LINE
  5
5805
330
57B8
100
AcDbEntity
  8
0
 62
     0
100
AcDbLine
 10
96.33464993932093
 20
176.4385345392577
 30
0.0
 11
97.3346499393209
 21
177.4385345392577
 31
0.0
  0
LINE
  5
5806
330
57B8
100
AcDbEntity
  8
0
 62
     0
100
AcDbLine
 10
106.736757173703
 20
186.8406417736398
 30
0.0
 11
107.736757173703
 21
187.8406417736398
 31
0.0
  0
LINE
  5
5807
330
57B8
100
AcDbEntity
  8
0
 62
     0
100
AcDbLine
 10
96.33464993932093
 20
176.7977447841005
 30
0.0
 11
97.3346499393209
 21
177.7977447841005
 31
0.0
  0
LINE
  5
5808
330
57B8
100
AcDbEntity
  8
0
 62
     0
100
AcDbLine
 10
106.3775469288602
 20
186.8406417736398
 30
0.0
 11
107.3775469288602
 21
187.8406417736398
 31
0.0
  0
LINE
  5
5809
330
57B8
100
AcDbEntity
  8
0
 62
     0
100
AcDbLine
 10
96.33464993932093
 20
177.1569550289433
 30
0.0
 11
97.3346499393209
 21
178.1569550289432
 31
0.0
  0
LINE
  5
580A
330
57B8
100
AcDbEntity
  8
0
 62
     0
100
AcDbLine
 10
106.0183366840175
 20
186.8406417736398
 30
0.0
 11
107.0183366840175
 21
187.8406417736398
 31
0.0
  0
LINE
  5
580B
330
57B8
100
AcDbEntity
  8
0
 62
     0
100
AcDbLine
 10
96.33464993932093
 20
177.5161652737861
 30
0.0
 11
97.3346499393209
 21
178.516165273786
 31
0.0
  0
LINE
  5
580C
330
57B8
100
AcDbEntity
  8
0
 62
     0
100
AcDbLine
 10
105.6591264391747
 20
186.8406417736398
 30
0.0
 11
106.6591264391747
 21
187.8406417736398
 31
0.0
  0
LINE
  5
580D
330
57B8
100
AcDbEntity
  8
0
 62
     0
100
AcDbLine
 10
96.33464993932093
 20
177.8753755186288
 30
0.0
 11
97.3346499393209
 21
178.8753755186288
 31
0.0
  0
LINE
  5
580E
330
57B8
100
AcDbEntity
  8
0
 62
     0
100
AcDbLine
 10
105.2999161943319
 20
186.8406417736398
 30
0.0
 11
106.2999161943319
 21
187.8406417736398
 31
0.0
  0
LINE
  5
580F
330
57B8
100
AcDbEntity
  8
0
 62
     0
100
AcDbLine
 10
96.33464993932093
 20
178.2345857634716
 30
0.0
 11
97.3346499393209
 21
179.2345857634715
 31
0.0
  0
LINE
  5
5810
330
57B8
100
AcDbEntity
  8
0
 62
     0
100
AcDbLine
 10
104.9407059494892
 20
186.8406417736398
 30
0.0
 11
105.9407059494891
 21
187.8406417736398
 31
0.0
  0
LINE
  5
5811
330
57B8
100
AcDbEntity
  8
0
 62
     0
100
AcDbLine
 10
96.33464993932093
 20
178.5937960083144
 30
0.0
 11
97.3346499393209
 21
179.5937960083143
 31
0.0
  0
LINE
  5
5812
330
57B8
100
AcDbEntity
  8
0
 62
     0
100
AcDbLine
 10
104.5814957046464
 20
186.8406417736398
 30
0.0
 11
105.5814957046464
 21
187.8406417736398
 31
0.0
  0
LINE
  5
5813
330
57B8
100
AcDbEntity
  8
0
 62
     0
100
AcDbLine
 10
96.33464993932093
 20
178.9530062531571
 30
0.0
 11
97.3346499393209
 21
179.9530062531571
 31
0.0
  0
LINE
  5
5814
330
57B8
100
AcDbEntity
  8
0
 62
     0
100
AcDbLine
 10
104.2222854598036
 20
186.8406417736398
 30
0.0
 11
105.2222854598036
 21
187.8406417736398
 31
0.0
  0
LINE
  5
5815
330
57B8
100
AcDbEntity
  8
0
 62
     0
100
AcDbLine
 10
96.33464993932093
 20
179.3122164979999
 30
0.0
 11
97.3346499393209
 21
180.3122164979998
 31
0.0
  0
LINE
  5
5816
330
57B8
100
AcDbEntity
  8
0
 62
     0
100
AcDbLine
 10
103.8630752149609
 20
186.8406417736398
 30
0.0
 11
104.8630752149608
 21
187.8406417736398
 31
0.0
  0
LINE
  5
5817
330
57B8
100
AcDbEntity
  8
0
 62
     0
100
AcDbLine
 10
96.33464993932093
 20
179.6714267428426
 30
0.0
 11
97.3346499393209
 21
180.6714267428426
 31
0.0
  0
LINE
  5
5818
330
57B8
100
AcDbEntity
  8
0
 62
     0
100
AcDbLine
 10
103.5038649701181
 20
186.8406417736398
 30
0.0
 11
104.5038649701181
 21
187.8406417736398
 31
0.0
  0
LINE
  5
5819
330
57B8
100
AcDbEntity
  8
0
 62
     0
100
AcDbLine
 10
96.33464993932093
 20
180.0306369876854
 30
0.0
 11
97.3346499393209
 21
181.0306369876854
 31
0.0
  0
LINE
  5
581A
330
57B8
100
AcDbEntity
  8
0
 62
     0
100
AcDbLine
 10
103.1446547252753
 20
186.8406417736398
 30
0.0
 11
104.1446547252753
 21
187.8406417736398
 31
0.0
  0
LINE
  5
581B
330
57B8
100
AcDbEntity
  8
0
 62
     0
100
AcDbLine
 10
96.33464993932093
 20
180.3898472325282
 30
0.0
 11
97.3346499393209
 21
181.3898472325281
 31
0.0
  0
LINE
  5
581C
330
57B8
100
AcDbEntity
  8
0
 62
     0
100
AcDbLine
 10
102.7854444804326
 20
186.8406417736398
 30
0.0
 11
103.7854444804325
 21
187.8406417736398
 31
0.0
  0
LINE
  5
581D
330
57B8
100
AcDbEntity
  8
0
 62
     0
100
AcDbLine
 10
96.33464993932093
 20
180.749057477371
 30
0.0
 11
97.3346499393209
 21
181.7490574773709
 31
0.0
  0
LINE
  5
581E
330
57B8
100
AcDbEntity
  8
0
 62
     0
100
AcDbLine
 10
102.4262342355898
 20
186.8406417736398
 30
0.0
 11
103.4262342355898
 21
187.8406417736398
 31
0.0
  0
LINE
  5
581F
330
57B8
100
AcDbEntity
  8
0
 62
     0
100
AcDbLine
 10
96.33464993932093
 20
181.1082677222137
 30
0.0
 11
97.3346499393209
 21
182.1082677222137
 31
0.0
  0
LINE
  5
5820
330
57B8
100
AcDbEntity
  8
0
 62
     0
100
AcDbLine
 10
102.067023990747
 20
186.8406417736398
 30
0.0
 11
103.067023990747
 21
187.8406417736398
 31
0.0
  0
LINE
  5
5821
330
57B8
100
AcDbEntity
  8
0
 62
     0
100
AcDbLine
 10
96.33464993932093
 20
181.4674779670565
 30
0.0
 11
97.3346499393209
 21
182.4674779670564
 31
0.0
  0
LINE
  5
5822
330
57B8
100
AcDbEntity
  8
0
 62
     0
100
AcDbLine
 10
101.7078137459043
 20
186.8406417736398
 30
0.0
 11
102.7078137459042
 21
187.8406417736398
 31
0.0
  0
LINE
  5
5823
330
57B8
100
AcDbEntity
  8
0
 62
     0
100
AcDbLine
 10
96.33464993932093
 20
181.8266882118992
 30
0.0
 11
97.3346499393209
 21
182.8266882118992
 31
0.0
  0
LINE
  5
5824
330
57B8
100
AcDbEntity
  8
0
 62
     0
100
AcDbLine
 10
101.3486035010615
 20
186.8406417736398
 30
0.0
 11
102.3486035010615
 21
187.8406417736398
 31
0.0
  0
LINE
  5
5825
330
57B8
100
AcDbEntity
  8
0
 62
     0
100
AcDbLine
 10
96.33464993932093
 20
182.185898456742
 30
0.0
 11
97.3346499393209
 21
183.185898456742
 31
0.0
  0
LINE
  5
5826
330
57B8
100
AcDbEntity
  8
0
 62
     0
100
AcDbLine
 10
100.9893932562187
 20
186.8406417736398
 30
0.0
 11
101.9893932562187
 21
187.8406417736398
 31
0.0
  0
LINE
  5
5827
330
57B8
100
AcDbEntity
  8
0
 62
     0
100
AcDbLine
 10
96.33464993932093
 20
182.5451087015848
 30
0.0
 11
97.3346499393209
 21
183.5451087015847
 31
0.0
  0
LINE
  5
5828
330
57B8
100
AcDbEntity
  8
0
 62
     0
100
AcDbLine
 10
100.630183011376
 20
186.8406417736398
 30
0.0
 11
101.630183011376
 21
187.8406417736398
 31
0.0
  0
LINE
  5
5829
330
57B8
100
AcDbEntity
  8
0
 62
     0
100
AcDbLine
 10
96.33464993932093
 20
182.9043189464275
 30
0.0
 11
97.3346499393209
 21
183.9043189464275
 31
0.0
  0
LINE
  5
582A
330
57B8
100
AcDbEntity
  8
0
 62
     0
100
AcDbLine
 10
100.2709727665332
 20
186.8406417736398
 30
0.0
 11
101.2709727665332
 21
187.8406417736398
 31
0.0
  0
LINE
  5
582B
330
57B8
100
AcDbEntity
  8
0
 62
     0
100
AcDbLine
 10
96.33464993932093
 20
183.2635291912703
 30
0.0
 11
97.3346499393209
 21
184.2635291912703
 31
0.0
  0
LINE
  5
582C
330
57B8
100
AcDbEntity
  8
0
 62
     0
100
AcDbLine
 10
99.91176252169047
 20
186.8406417736398
 30
0.0
 11
100.9117625216904
 21
187.8406417736398
 31
0.0
  0
LINE
  5
582D
330
57B8
100
AcDbEntity
  8
0
 62
     0
100
AcDbLine
 10
96.33464993932093
 20
183.6227394361131
 30
0.0
 11
97.3346499393209
 21
184.622739436113
 31
0.0
  0
LINE
  5
582E
330
57B8
100
AcDbEntity
  8
0
 62
     0
100
AcDbLine
 10
99.55255227684769
 20
186.8406417736398
 30
0.0
 11
100.5525522768476
 21
187.8406417736398
 31
0.0
  0
LINE
  5
582F
330
57B8
100
AcDbEntity
  8
0
 62
     0
100
AcDbLine
 10
96.33464993932093
 20
183.9819496809558
 30
0.0
 11
97.3346499393209
 21
184.9819496809558
 31
0.0
  0
LINE
  5
5830
330
57B8
100
AcDbEntity
  8
0
 62
     0
100
AcDbLine
 10
99.19334203200492
 20
186.8406417736398
 30
0.0
 11
100.1933420320049
 21
187.8406417736398
 31
0.0
  0
LINE
  5
5831
330
57B8
100
AcDbEntity
  8
0
 62
     0
100
AcDbLine
 10
96.33464993932093
 20
184.3411599257986
 30
0.0
 11
97.3346499393209
 21
185.3411599257986
 31
0.0
  0
LINE
  5
5832
330
57B8
100
AcDbEntity
  8
0
 62
     0
100
AcDbLine
 10
98.83413178716217
 20
186.8406417736398
 30
0.0
 11
99.83413178716215
 21
187.8406417736398
 31
0.0
  0
LINE
  5
5833
330
57B8
100
AcDbEntity
  8
0
 62
     0
100
AcDbLine
 10
96.33464993932093
 20
184.7003701706414
 30
0.0
 11
97.3346499393209
 21
185.7003701706414
 31
0.0
  0
LINE
  5
5834
330
57B8
100
AcDbEntity
  8
0
 62
     0
100
AcDbLine
 10
98.47492154231938
 20
186.8406417736398
 30
0.0
 11
99.47492154231937
 21
187.8406417736398
 31
0.0
  0
LINE
  5
5835
330
57B8
100
AcDbEntity
  8
0
 62
     0
100
AcDbLine
 10
96.33464993932093
 20
185.0595804154841
 30
0.0
 11
97.3346499393209
 21
186.0595804154841
 31
0.0
  0
LINE
  5
5836
330
57B8
100
AcDbEntity
  8
0
 62
     0
100
AcDbLine
 10
98.11571129747662
 20
186.8406417736398
 30
0.0
 11
99.11571129747663
 21
187.8406417736398
 31
0.0
  0
LINE
  5
5837
330
57B8
100
AcDbEntity
  8
0
 62
     0
100
AcDbLine
 10
96.33464993932093
 20
185.4187906603269
 30
0.0
 11
97.3346499393209
 21
186.4187906603269
 31
0.0
  0
LINE
  5
5838
330
57B8
100
AcDbEntity
  8
0
 62
     0
100
AcDbLine
 10
97.75650105263387
 20
186.8406417736398
 30
0.0
 11
98.75650105263385
 21
187.8406417736398
 31
0.0
  0
LINE
  5
5839
330
57B8
100
AcDbEntity
  8
0
 62
     0
100
AcDbLine
 10
96.33464993932093
 20
185.7780009051697
 30
0.0
 11
97.3346499393209
 21
186.7780009051696
 31
0.0
  0
LINE
  5
583A
330
57B8
100
AcDbEntity
  8
0
 62
     0
100
AcDbLine
 10
97.39729080779108
 20
186.8406417736398
 30
0.0
 11
98.39729080779108
 21
187.8406417736398
 31
0.0
  0
LINE
  5
583B
330
57B8
100
AcDbEntity
  8
0
 62
     0
100
AcDbLine
 10
96.33464993932093
 20
186.1372111500124
 30
0.0
 11
98.03808056294833
 21
187.8406417736398
 31
0.0
  0
LINE
  5
583C
330
57B8
100
AcDbEntity
  8
0
 62
     0
100
AcDbLine
 10
96.33464993932093
 20
186.4964213948552
 30
0.0
 11
97.67887031810555
 21
187.8406417736398
 31
0.0
  0
LINE
  5
583D
330
57B8
100
AcDbEntity
  8
0
 62
     0
100
AcDbLine
 10
96.33464993932093
 20
186.855631639698
 30
0.0
 11
97.31966007326279
 21
187.8406417736398
 31
0.0
  0
LINE
  5
583E
330
57B8
100
AcDbEntity
  8
0
 62
     0
100
AcDbLine
 10
96.33464993932093
 20
187.2148418845407
 30
0.0
 11
96.96044982842003
 21
187.8406417736398
 31
0.0
  0
LINE
  5
583F
330
57B8
100
AcDbEntity
  8
0
 62
     0
100
AcDbLine
 10
96.33464993932093
 20
187.5740521293835
 30
0.0
 11
96.60123958357726
 21
187.8406417736398
 31
0.0
  0
LINE
  5
5840
330
57B8
100
AcDbEntity
  8
0
 62
     0
100
AcDbLine
 10
96.74595672257096
 20
162.8406417736399
 30
0.0
 11
97.74595672257095
 21
163.8406417736399
 31
0.0
  0
LINE
  5
5841
330
57B8
100
AcDbEntity
  8
0
 62
     0
100
AcDbLine
 10
120.3346499393209
 20
186.4293349903898
 30
0.0
 11
121.3346499393209
 21
187.4293349903899
 31
0.0
  0
LINE
  5
5842
330
57B8
100
AcDbEntity
  8
0
 62
     0
100
AcDbLine
 10
97.10516696741372
 20
162.8406417736399
 30
0.0
 11
98.10516696741373
 21
163.8406417736399
 31
0.0
  0
LINE
  5
5843
330
57B8
100
AcDbEntity
  8
0
 62
     0
100
AcDbLine
 10
120.3346499393209
 20
186.070124745547
 30
0.0
 11
121.3346499393209
 21
187.0701247455471
 31
0.0
  0
LINE
  5
5844
330
57B8
100
AcDbEntity
  8
0
 62
     0
100
AcDbLine
 10
97.4643772122565
 20
162.8406417736399
 30
0.0
 11
98.46437721225649
 21
163.8406417736399
 31
0.0
  0
LINE
  5
5845
330
57B8
100
AcDbEntity
  8
0
 62
     0
100
AcDbLine
 10
120.3346499393209
 20
185.7109145007043
 30
0.0
 11
121.3346499393209
 21
186.7109145007043
 31
0.0
  0
LINE
  5
5846
330
57B8
100
AcDbEntity
  8
0
 62
     0
100
AcDbLine
 10
97.82358745709926
 20
162.8406417736399
 30
0.0
 11
98.82358745709925
 21
163.8406417736399
 31
0.0
  0
LINE
  5
5847
330
57B8
100
AcDbEntity
  8
0
 62
     0
100
AcDbLine
 10
120.3346499393209
 20
185.3517042558615
 30
0.0
 11
121.3346499393209
 21
186.3517042558615
 31
0.0
  0
LINE
  5
5848
330
57B8
100
AcDbEntity
  8
0
 62
     0
100
AcDbLine
 10
98.18279770194202
 20
162.8406417736399
 30
0.0
 11
99.18279770194203
 21
163.8406417736399
 31
0.0
  0
LINE
  5
5849
330
57B8
100
AcDbEntity
  8
0
 62
     0
100
AcDbLine
 10
120.3346499393209
 20
184.9924940110188
 30
0.0
 11
121.3346499393209
 21
185.9924940110188
 31
0.0
  0
LINE
  5
584A
330
57B8
100
AcDbEntity
  8
0
 62
     0
100
AcDbLine
 10
98.54200794678479
 20
162.8406417736399
 30
0.0
 11
99.54200794678479
 21
163.8406417736399
 31
0.0
  0
LINE
  5
584B
330
57B8
100
AcDbEntity
  8
0
 62
     0
100
AcDbLine
 10
120.3346499393209
 20
184.633283766176
 30
0.0
 11
121.3346499393209
 21
185.633283766176
 31
0.0
  0
LINE
  5
584C
330
57B8
100
AcDbEntity
  8
0
 62
     0
100
AcDbLine
 10
98.90121819162756
 20
162.8406417736399
 30
0.0
 11
99.90121819162755
 21
163.8406417736399
 31
0.0
  0
LINE
  5
584D
330
57B8
100
AcDbEntity
  8
0
 62
     0
100
AcDbLine
 10
120.3346499393209
 20
184.2740735213332
 30
0.0
 11
121.3346499393209
 21
185.2740735213332
 31
0.0
  0
LINE
  5
584E
330
57B8
100
AcDbEntity
  8
0
 62
     0
100
AcDbLine
 10
99.26042843647032
 20
162.8406417736399
 30
0.0
 11
100.2604284364703
 21
163.8406417736399
 31
0.0
  0
LINE
  5
584F
330
57B8
100
AcDbEntity
  8
0
 62
     0
100
AcDbLine
 10
120.3346499393209
 20
183.9148632764905
 30
0.0
 11
121.3346499393209
 21
184.9148632764905
 31
0.0
  0
LINE
  5
5850
330
57B8
100
AcDbEntity
  8
0
 62
     0
100
AcDbLine
 10
99.61963868131309
 20
162.8406417736399
 30
0.0
 11
100.6196386813131
 21
163.8406417736399
 31
0.0
  0
LINE
  5
5851
330
57B8
100
AcDbEntity
  8
0
 62
     0
100
AcDbLine
 10
120.3346499393209
 20
183.5556530316477
 30
0.0
 11
121.3346499393209
 21
184.5556530316477
 31
0.0
  0
LINE
  5
5852
330
57B8
100
AcDbEntity
  8
0
 62
     0
100
AcDbLine
 10
99.97884892615585
 20
162.8406417736399
 30
0.0
 11
100.9788489261558
 21
163.8406417736399
 31
0.0
  0
LINE
  5
5853
330
57B8
100
AcDbEntity
  8
0
 62
     0
100
AcDbLine
 10
120.3346499393209
 20
183.1964427868049
 30
0.0
 11
121.3346499393209
 21
184.1964427868049
 31
0.0
  0
LINE
  5
5854
330
57B8
100
AcDbEntity
  8
0
 62
     0
100
AcDbLine
 10
100.3380591709986
 20
162.8406417736399
 30
0.0
 11
101.3380591709986
 21
163.8406417736399
 31
0.0
  0
LINE
  5
5855
330
57B8
100
AcDbEntity
  8
0
 62
     0
100
AcDbLine
 10
120.3346499393209
 20
182.8372325419621
 30
0.0
 11
121.3346499393209
 21
183.8372325419622
 31
0.0
  0
LINE
  5
5856
330
57B8
100
AcDbEntity
  8
0
 62
     0
100
AcDbLine
 10
100.6972694158414
 20
162.8406417736399
 30
0.0
 11
101.6972694158414
 21
163.8406417736399
 31
0.0
  0
LINE
  5
5857
330
57B8
100
AcDbEntity
  8
0
 62
     0
100
AcDbLine
 10
120.3346499393209
 20
182.4780222971194
 30
0.0
 11
121.3346499393209
 21
183.4780222971194
 31
0.0
  0
LINE
  5
5858
330
57B8
100
AcDbEntity
  8
0
 62
     0
100
AcDbLine
 10
101.0564796606841
 20
162.8406417736399
 30
0.0
 11
102.0564796606841
 21
163.8406417736399
 31
0.0
  0
LINE
  5
5859
330
57B8
100
AcDbEntity
  8
0
 62
     0
100
AcDbLine
 10
120.3346499393209
 20
182.1188120522766
 30
0.0
 11
121.3346499393209
 21
183.1188120522766
 31
0.0
  0
LINE
  5
585A
330
57B8
100
AcDbEntity
  8
0
 62
     0
100
AcDbLine
 10
101.4156899055269
 20
162.8406417736399
 30
0.0
 11
102.4156899055269
 21
163.8406417736399
 31
0.0
  0
LINE
  5
585B
330
57B8
100
AcDbEntity
  8
0
 62
     0
100
AcDbLine
 10
120.3346499393209
 20
181.7596018074339
 30
0.0
 11
121.3346499393209
 21
182.7596018074339
 31
0.0
  0
LINE
  5
585C
330
57B8
100
AcDbEntity
  8
0
 62
     0
100
AcDbLine
 10
101.7749001503696
 20
162.8406417736399
 30
0.0
 11
102.7749001503696
 21
163.8406417736399
 31
0.0
  0
LINE
  5
585D
330
57B8
100
AcDbEntity
  8
0
 62
     0
100
AcDbLine
 10
120.3346499393209
 20
181.4003915625911
 30
0.0
 11
121.3346499393209
 21
182.4003915625911
 31
0.0
  0
LINE
  5
585E
330
57B8
100
AcDbEntity
  8
0
 62
     0
100
AcDbLine
 10
102.1341103952124
 20
162.8406417736399
 30
0.0
 11
103.1341103952124
 21
163.8406417736399
 31
0.0
  0
LINE
  5
585F
330
57B8
100
AcDbEntity
  8
0
 62
     0
100
AcDbLine
 10
120.3346499393209
 20
181.0411813177483
 30
0.0
 11
121.3346499393209
 21
182.0411813177484
 31
0.0
  0
LINE
  5
5860
330
57B8
100
AcDbEntity
  8
0
 62
     0
100
AcDbLine
 10
102.4933206400552
 20
162.8406417736399
 30
0.0
 11
103.4933206400552
 21
163.8406417736399
 31
0.0
  0
LINE
  5
5861
330
57B8
100
AcDbEntity
  8
0
 62
     0
100
AcDbLine
 10
120.3346499393209
 20
180.6819710729056
 30
0.0
 11
121.3346499393209
 21
181.6819710729056
 31
0.0
  0
LINE
  5
5862
330
57B8
100
AcDbEntity
  8
0
 62
     0
100
AcDbLine
 10
102.852530884898
 20
162.8406417736399
 30
0.0
 11
103.8525308848979
 21
163.8406417736399
 31
0.0
  0
LINE
  5
5863
330
57B8
100
AcDbEntity
  8
0
 62
     0
100
AcDbLine
 10
120.3346499393209
 20
180.3227608280628
 30
0.0
 11
121.3346499393209
 21
181.3227608280628
 31
0.0
  0
LINE
  5
5864
330
57B8
100
AcDbEntity
  8
0
 62
     0
100
AcDbLine
 10
103.2117411297407
 20
162.8406417736399
 30
0.0
 11
104.2117411297407
 21
163.8406417736399
 31
0.0
  0
LINE
  5
5865
330
57B8
100
AcDbEntity
  8
0
 62
     0
100
AcDbLine
 10
120.3346499393209
 20
179.96355058322
 30
0.0
 11
121.3346499393209
 21
180.96355058322
 31
0.0
  0
LINE
  5
5866
330
57B8
100
AcDbEntity
  8
0
 62
     0
100
AcDbLine
 10
103.5709513745835
 20
162.8406417736399
 30
0.0
 11
104.5709513745835
 21
163.8406417736399
 31
0.0
  0
LINE
  5
5867
330
57B8
100
AcDbEntity
  8
0
 62
     0
100
AcDbLine
 10
120.3346499393209
 20
179.6043403383773
 30
0.0
 11
121.3346499393209
 21
180.6043403383773
 31
0.0
  0
LINE
  5
5868
330
57B8
100
AcDbEntity
  8
0
 62
     0
100
AcDbLine
 10
103.9301616194262
 20
162.8406417736399
 30
0.0
 11
104.9301616194262
 21
163.8406417736399
 31
0.0
  0
LINE
  5
5869
330
57B8
100
AcDbEntity
  8
0
 62
     0
100
AcDbLine
 10
120.3346499393209
 20
179.2451300935345
 30
0.0
 11
121.3346499393209
 21
180.2451300935345
 31
0.0
  0
LINE
  5
586A
330
57B8
100
AcDbEntity
  8
0
 62
     0
100
AcDbLine
 10
104.289371864269
 20
162.8406417736399
 30
0.0
 11
105.289371864269
 21
163.8406417736399
 31
0.0
  0
LINE
  5
586B
330
57B8
100
AcDbEntity
  8
0
 62
     0
100
AcDbLine
 10
120.3346499393209
 20
178.8859198486917
 30
0.0
 11
121.3346499393209
 21
179.8859198486918
 31
0.0
  0
LINE
  5
586C
330
57B8
100
AcDbEntity
  8
0
 62
     0
100
AcDbLine
 10
104.6485821091118
 20
162.8406417736399
 30
0.0
 11
105.6485821091118
 21
163.8406417736399
 31
0.0
  0
LINE
  5
586D
330
57B8
100
AcDbEntity
  8
0
 62
     0
100
AcDbLine
 10
120.3346499393209
 20
178.526709603849
 30
0.0
 11
121.3346499393209
 21
179.526709603849
 31
0.0
  0
LINE
  5
586E
330
57B8
100
AcDbEntity
  8
0
 62
     0
100
AcDbLine
 10
105.0077923539545
 20
162.8406417736399
 30
0.0
 11
106.0077923539545
 21
163.8406417736399
 31
0.0
  0
LINE
  5
586F
330
57B8
100
AcDbEntity
  8
0
 62
     0
100
AcDbLine
 10
120.3346499393209
 20
178.1674993590062
 30
0.0
 11
121.3346499393209
 21
179.1674993590062
 31
0.0
  0
LINE
  5
5870
330
57B8
100
AcDbEntity
  8
0
 62
     0
100
AcDbLine
 10
105.3670025987973
 20
162.8406417736399
 30
0.0
 11
106.3670025987973
 21
163.8406417736399
 31
0.0
  0
LINE
  5
5871
330
57B8
100
AcDbEntity
  8
0
 62
     0
100
AcDbLine
 10
120.3346499393209
 20
177.8082891141634
 30
0.0
 11
121.3346499393209
 21
178.8082891141635
 31
0.0
  0
LINE
  5
5872
330
57B8
100
AcDbEntity
  8
0
 62
     0
100
AcDbLine
 10
105.7262128436401
 20
162.8406417736399
 30
0.0
 11
106.7262128436401
 21
163.8406417736399
 31
0.0
  0
LINE
  5
5873
330
57B8
100
AcDbEntity
  8
0
 62
     0
100
AcDbLine
 10
120.3346499393209
 20
177.4490788693207
 30
0.0
 11
121.3346499393209
 21
178.4490788693207
 31
0.0
  0
LINE
  5
5874
330
57B8
100
AcDbEntity
  8
0
 62
     0
100
AcDbLine
 10
106.0854230884828
 20
162.8406417736399
 30
0.0
 11
107.0854230884829
 21
163.8406417736399
 31
0.0
  0
LINE
  5
5875
330
57B8
100
AcDbEntity
  8
0
 62
     0
100
AcDbLine
 10
120.3346499393209
 20
177.0898686244779
 30
0.0
 11
121.3346499393209
 21
178.0898686244779
 31
0.0
  0
LINE
  5
5876
330
57B8
100
AcDbEntity
  8
0
 62
     0
100
AcDbLine
 10
106.4446333333256
 20
162.8406417736399
 30
0.0
 11
107.4446333333256
 21
163.8406417736399
 31
0.0
  0
LINE
  5
5877
330
57B8
100
AcDbEntity
  8
0
 62
     0
100
AcDbLine
 10
120.3346499393209
 20
176.7306583796352
 30
0.0
 11
121.3346499393209
 21
177.7306583796352
 31
0.0
  0
LINE
  5
5878
330
57B8
100
AcDbEntity
  8
0
 62
     0
100
AcDbLine
 10
106.8038435781684
 20
162.8406417736399
 30
0.0
 11
107.8038435781684
 21
163.8406417736399
 31
0.0
  0
LINE
  5
5879
330
57B8
100
AcDbEntity
  8
0
 62
     0
100
AcDbLine
 10
120.3346499393209
 20
176.3714481347924
 30
0.0
 11
121.3346499393209
 21
177.3714481347924
 31
0.0
  0
LINE
  5
587A
330
57B8
100
AcDbEntity
  8
0
 62
     0
100
AcDbLine
 10
107.1630538230111
 20
162.8406417736399
 30
0.0
 11
108.1630538230111
 21
163.8406417736399
 31
0.0
  0
LINE
  5
587B
330
57B8
100
AcDbEntity
  8
0
 62
     0
100
AcDbLine
 10
120.3346499393209
 20
176.0122378899496
 30
0.0
 11
121.3346499393209
 21
177.0122378899496
 31
0.0
  0
LINE
  5
587C
330
57B8
100
AcDbEntity
  8
0
 62
     0
100
AcDbLine
 10
107.5222640678539
 20
162.8406417736399
 30
0.0
 11
108.5222640678539
 21
163.8406417736399
 31
0.0
  0
LINE
  5
587D
330
57B8
100
AcDbEntity
  8
0
 62
     0
100
AcDbLine
 10
120.3346499393209
 20
175.6530276451069
 30
0.0
 11
121.3346499393209
 21
176.6530276451069
 31
0.0
  0
LINE
  5
587E
330
57B8
100
AcDbEntity
  8
0
 62
     0
100
AcDbLine
 10
107.8814743126967
 20
162.8406417736399
 30
0.0
 11
108.8814743126967
 21
163.8406417736399
 31
0.0
  0
LINE
  5
587F
330
57B8
100
AcDbEntity
  8
0
 62
     0
100
AcDbLine
 10
120.3346499393209
 20
175.2938174002641
 30
0.0
 11
121.3346499393209
 21
176.2938174002641
 31
0.0
  0
LINE
  5
5880
330
57B8
100
AcDbEntity
  8
0
 62
     0
100
AcDbLine
 10
108.2406845575395
 20
162.8406417736399
 30
0.0
 11
109.2406845575395
 21
163.8406417736399
 31
0.0
  0
LINE
  5
5881
330
57B8
100
AcDbEntity
  8
0
 62
     0
100
AcDbLine
 10
120.3346499393209
 20
174.9346071554213
 30
0.0
 11
121.3346499393209
 21
175.9346071554213
 31
0.0
  0
LINE
  5
5882
330
57B8
100
AcDbEntity
  8
0
 62
     0
100
AcDbLine
 10
108.5998948023822
 20
162.8406417736399
 30
0.0
 11
109.5998948023822
 21
163.8406417736399
 31
0.0
  0
LINE
  5
5883
330
57B8
100
AcDbEntity
  8
0
 62
     0
100
AcDbLine
 10
120.3346499393209
 20
174.5753969105785
 30
0.0
 11
121.3346499393209
 21
175.5753969105786
 31
0.0
  0
LINE
  5
5884
330
57B8
100
AcDbEntity
  8
0
 62
     0
100
AcDbLine
 10
108.959105047225
 20
162.8406417736399
 30
0.0
 11
109.959105047225
 21
163.8406417736399
 31
0.0
  0
LINE
  5
5885
330
57B8
100
AcDbEntity
  8
0
 62
     0
100
AcDbLine
 10
120.3346499393209
 20
174.2161866657358
 30
0.0
 11
121.3346499393209
 21
175.2161866657358
 31
0.0
  0
LINE
  5
5886
330
57B8
100
AcDbEntity
  8
0
 62
     0
100
AcDbLine
 10
109.3183152920677
 20
162.8406417736399
 30
0.0
 11
110.3183152920677
 21
163.8406417736399
 31
0.0
  0
LINE
  5
5887
330
57B8
100
AcDbEntity
  8
0
 62
     0
100
AcDbLine
 10
120.3346499393209
 20
173.856976420893
 30
0.0
 11
121.3346499393209
 21
174.856976420893
 31
0.0
  0
LINE
  5
5888
330
57B8
100
AcDbEntity
  8
0
 62
     0
100
AcDbLine
 10
109.6775255369105
 20
162.8406417736399
 30
0.0
 11
110.6775255369105
 21
163.8406417736399
 31
0.0
  0
LINE
  5
5889
330
57B8
100
AcDbEntity
  8
0
 62
     0
100
AcDbLine
 10
120.3346499393209
 20
173.4977661760503
 30
0.0
 11
121.3346499393209
 21
174.4977661760503
 31
0.0
  0
LINE
  5
588A
330
57B8
100
AcDbEntity
  8
0
 62
     0
100
AcDbLine
 10
110.0367357817533
 20
162.8406417736399
 30
0.0
 11
111.0367357817533
 21
163.8406417736399
 31
0.0
  0
LINE
  5
588B
330
57B8
100
AcDbEntity
  8
0
 62
     0
100
AcDbLine
 10
120.3346499393209
 20
173.1385559312075
 30
0.0
 11
121.3346499393209
 21
174.1385559312075
 31
0.0
  0
LINE
  5
588C
330
57B8
100
AcDbEntity
  8
0
 62
     0
100
AcDbLine
 10
110.395946026596
 20
162.8406417736399
 30
0.0
 11
111.395946026596
 21
163.8406417736399
 31
0.0
  0
LINE
  5
588D
330
57B8
100
AcDbEntity
  8
0
 62
     0
100
AcDbLine
 10
120.3346499393209
 20
172.7793456863647
 30
0.0
 11
121.3346499393209
 21
173.7793456863647
 31
0.0
  0
LINE
  5
588E
330
57B8
100
AcDbEntity
  8
0
 62
     0
100
AcDbLine
 10
110.7551562714388
 20
162.8406417736399
 30
0.0
 11
111.7551562714388
 21
163.8406417736399
 31
0.0
  0
LINE
  5
588F
330
57B8
100
AcDbEntity
  8
0
 62
     0
100
AcDbLine
 10
120.3346499393209
 20
172.4201354415219
 30
0.0
 11
121.3346499393209
 21
173.420135441522
 31
0.0
  0
LINE
  5
5890
330
57B8
100
AcDbEntity
  8
0
 62
     0
100
AcDbLine
 10
111.1143665162816
 20
162.8406417736399
 30
0.0
 11
112.1143665162816
 21
163.8406417736399
 31
0.0
  0
LINE
  5
5891
330
57B8
100
AcDbEntity
  8
0
 62
     0
100
AcDbLine
 10
120.3346499393209
 20
172.0609251966792
 30
0.0
 11
121.3346499393209
 21
173.0609251966792
 31
0.0
  0
LINE
  5
5892
330
57B8
100
AcDbEntity
  8
0
 62
     0
100
AcDbLine
 10
111.4735767611243
 20
162.8406417736399
 30
0.0
 11
112.4735767611243
 21
163.8406417736399
 31
0.0
  0
LINE
  5
5893
330
57B8
100
AcDbEntity
  8
0
 62
     0
100
AcDbLine
 10
120.3346499393209
 20
171.7017149518364
 30
0.0
 11
121.3346499393209
 21
172.7017149518364
 31
0.0
  0
LINE
  5
5894
330
57B8
100
AcDbEntity
  8
0
 62
     0
100
AcDbLine
 10
111.8327870059671
 20
162.8406417736399
 30
0.0
 11
112.8327870059671
 21
163.8406417736399
 31
0.0
  0
LINE
  5
5895
330
57B8
100
AcDbEntity
  8
0
 62
     0
100
AcDbLine
 10
120.3346499393209
 20
171.3425047069937
 30
0.0
 11
121.3346499393209
 21
172.3425047069937
 31
0.0
  0
LINE
  5
5896
330
57B8
100
AcDbEntity
  8
0
 62
     0
100
AcDbLine
 10
112.1919972508099
 20
162.8406417736399
 30
0.0
 11
113.1919972508099
 21
163.8406417736399
 31
0.0
  0
LINE
  5
5897
330
57B8
100
AcDbEntity
  8
0
 62
     0
100
AcDbLine
 10
120.3346499393209
 20
170.9832944621509
 30
0.0
 11
121.3346499393209
 21
171.9832944621509
 31
0.0
  0
LINE
  5
5898
330
57B8
100
AcDbEntity
  8
0
 62
     0
100
AcDbLine
 10
112.5512074956526
 20
162.8406417736399
 30
0.0
 11
113.5512074956526
 21
163.8406417736399
 31
0.0
  0
LINE
  5
5899
330
57B8
100
AcDbEntity
  8
0
 62
     0
100
AcDbLine
 10
120.3346499393209
 20
170.6240842173081
 30
0.0
 11
121.3346499393209
 21
171.6240842173081
 31
0.0
  0
LINE
  5
589A
330
57B8
100
AcDbEntity
  8
0
 62
     0
100
AcDbLine
 10
112.9104177404954
 20
162.8406417736399
 30
0.0
 11
113.9104177404954
 21
163.8406417736399
 31
0.0
  0
LINE
  5
589B
330
57B8
100
AcDbEntity
  8
0
 62
     0
100
AcDbLine
 10
120.3346499393209
 20
170.2648739724654
 30
0.0
 11
121.3346499393209
 21
171.2648739724654
 31
0.0
  0
LINE
  5
589C
330
57B8
100
AcDbEntity
  8
0
 62
     0
100
AcDbLine
 10
113.2696279853382
 20
162.8406417736399
 30
0.0
 11
114.2696279853382
 21
163.8406417736399
 31
0.0
  0
LINE
  5
589D
330
57B8
100
AcDbEntity
  8
0
 62
     0
100
AcDbLine
 10
120.3346499393209
 20
169.9056637276226
 30
0.0
 11
121.3346499393209
 21
170.9056637276226
 31
0.0
  0
LINE
  5
589E
330
57B8
100
AcDbEntity
  8
0
 62
     0
100
AcDbLine
 10
113.6288382301809
 20
162.8406417736399
 30
0.0
 11
114.6288382301809
 21
163.8406417736399
 31
0.0
  0
LINE
  5
589F
330
57B8
100
AcDbEntity
  8
0
 62
     0
100
AcDbLine
 10
120.3346499393209
 20
169.5464534827798
 30
0.0
 11
121.3346499393209
 21
170.5464534827799
 31
0.0
  0
LINE
  5
58A0
330
57B8
100
AcDbEntity
  8
0
 62
     0
100
AcDbLine
 10
113.9880484750237
 20
162.8406417736399
 30
0.0
 11
114.9880484750237
 21
163.8406417736399
 31
0.0
  0
LINE
  5
58A1
330
57B8
100
AcDbEntity
  8
0
 62
     0
100
AcDbLine
 10
120.3346499393209
 20
169.1872432379371
 30
0.0
 11
121.3346499393209
 21
170.1872432379371
 31
0.0
  0
LINE
  5
58A2
330
57B8
100
AcDbEntity
  8
0
 62
     0
100
AcDbLine
 10
114.3472587198665
 20
162.8406417736399
 30
0.0
 11
115.3472587198665
 21
163.8406417736399
 31
0.0
  0
LINE
  5
58A3
330
57B8
100
AcDbEntity
  8
0
 62
     0
100
AcDbLine
 10
120.3346499393209
 20
168.8280329930943
 30
0.0
 11
121.3346499393209
 21
169.8280329930943
 31
0.0
  0
LINE
  5
58A4
330
57B8
100
AcDbEntity
  8
0
 62
     0
100
AcDbLine
 10
114.7064689647092
 20
162.8406417736399
 30
0.0
 11
115.7064689647092
 21
163.8406417736399
 31
0.0
  0
LINE
  5
58A5
330
57B8
100
AcDbEntity
  8
0
 62
     0
100
AcDbLine
 10
120.3346499393209
 20
168.4688227482515
 30
0.0
 11
121.3346499393209
 21
169.4688227482515
 31
0.0
  0
LINE
  5
58A6
330
57B8
100
AcDbEntity
  8
0
 62
     0
100
AcDbLine
 10
115.065679209552
 20
162.8406417736399
 30
0.0
 11
116.065679209552
 21
163.8406417736399
 31
0.0
  0
LINE
  5
58A7
330
57B8
100
AcDbEntity
  8
0
 62
     0
100
AcDbLine
 10
120.3346499393209
 20
168.1096125034088
 30
0.0
 11
121.3346499393209
 21
169.1096125034088
 31
0.0
  0
LINE
  5
58A8
330
57B8
100
AcDbEntity
  8
0
 62
     0
100
AcDbLine
 10
115.4248894543948
 20
162.8406417736399
 30
0.0
 11
116.4248894543948
 21
163.8406417736399
 31
0.0
  0
LINE
  5
58A9
330
57B8
100
AcDbEntity
  8
0
 62
     0
100
AcDbLine
 10
120.3346499393209
 20
167.750402258566
 30
0.0
 11
121.3346499393209
 21
168.750402258566
 31
0.0
  0
LINE
  5
58AA
330
57B8
100
AcDbEntity
  8
0
 62
     0
100
AcDbLine
 10
115.7840996992375
 20
162.8406417736399
 30
0.0
 11
116.7840996992375
 21
163.8406417736399
 31
0.0
  0
LINE
  5
58AB
330
57B8
100
AcDbEntity
  8
0
 62
     0
100
AcDbLine
 10
120.3346499393209
 20
167.3911920137233
 30
0.0
 11
121.3346499393209
 21
168.3911920137233
 31
0.0
  0
LINE
  5
58AC
330
57B8
100
AcDbEntity
  8
0
 62
     0
100
AcDbLine
 10
116.1433099440803
 20
162.8406417736399
 30
0.0
 11
117.1433099440803
 21
163.8406417736399
 31
0.0
  0
LINE
  5
58AD
330
57B8
100
AcDbEntity
  8
0
 62
     0
100
AcDbLine
 10
120.3346499393209
 20
167.0319817688804
 30
0.0
 11
121.3346499393209
 21
168.0319817688805
 31
0.0
  0
LINE
  5
58AE
330
57B8
100
AcDbEntity
  8
0
 62
     0
100
AcDbLine
 10
116.5025201889231
 20
162.8406417736399
 30
0.0
 11
117.5025201889231
 21
163.8406417736399
 31
0.0
  0
LINE
  5
58AF
330
57B8
100
AcDbEntity
  8
0
 62
     0
100
AcDbLine
 10
120.3346499393209
 20
166.6727715240377
 30
0.0
 11
121.3346499393209
 21
167.6727715240377
 31
0.0
  0
LINE
  5
58B0
330
57B8
100
AcDbEntity
  8
0
 62
     0
100
AcDbLine
 10
116.8617304337658
 20
162.8406417736399
 30
0.0
 11
117.8617304337658
 21
163.8406417736399
 31
0.0
  0
LINE
  5
58B1
330
57B8
100
AcDbEntity
  8
0
 62
     0
100
AcDbLine
 10
120.3346499393209
 20
166.3135612791949
 30
0.0
 11
121.3346499393209
 21
167.3135612791949
 31
0.0
  0
LINE
  5
58B2
330
57B8
100
AcDbEntity
  8
0
 62
     0
100
AcDbLine
 10
117.2209406786086
 20
162.8406417736399
 30
0.0
 11
118.2209406786086
 21
163.8406417736399
 31
0.0
  0
LINE
  5
58B3
330
57B8
100
AcDbEntity
  8
0
 62
     0
100
AcDbLine
 10
120.3346499393209
 20
165.9543510343522
 30
0.0
 11
121.3346499393209
 21
166.9543510343522
 31
0.0
  0
LINE
  5
58B4
330
57B8
100
AcDbEntity
  8
0
 62
     0
100
AcDbLine
 10
117.5801509234514
 20
162.8406417736399
 30
0.0
 11
118.5801509234514
 21
163.8406417736399
 31
0.0
  0
LINE
  5
58B5
330
57B8
100
AcDbEntity
  8
0
 62
     0
100
AcDbLine
 10
120.3346499393209
 20
165.5951407895094
 30
0.0
 11
121.3346499393209
 21
166.5951407895094
 31
0.0
  0
LINE
  5
58B6
330
57B8
100
AcDbEntity
  8
0
 62
     0
100
AcDbLine
 10
117.9393611682941
 20
162.8406417736399
 30
0.0
 11
118.9393611682941
 21
163.8406417736399
 31
0.0
  0
LINE
  5
58B7
330
57B8
100
AcDbEntity
  8
0
 62
     0
100
AcDbLine
 10
120.3346499393209
 20
165.2359305446666
 30
0.0
 11
121.3346499393209
 21
166.2359305446666
 31
0.0
  0
LINE
  5
58B8
330
57B8
100
AcDbEntity
  8
0
 62
     0
100
AcDbLine
 10
118.2985714131369
 20
162.8406417736399
 30
0.0
 11
119.2985714131369
 21
163.8406417736399
 31
0.0
  0
LINE
  5
58B9
330
57B8
100
AcDbEntity
  8
0
 62
     0
100
AcDbLine
 10
120.3346499393209
 20
164.8767202998239
 30
0.0
 11
121.3346499393209
 21
165.8767202998239
 31
0.0
  0
LINE
  5
58BA
330
57B8
100
AcDbEntity
  8
0
 62
     0
100
AcDbLine
 10
118.6577816579797
 20
162.8406417736399
 30
0.0
 11
119.6577816579797
 21
163.8406417736399
 31
0.0
  0
LINE
  5
58BB
330
57B8
100
AcDbEntity
  8
0
 62
     0
100
AcDbLine
 10
120.3346499393209
 20
164.5175100549811
 30
0.0
 11
121.3346499393209
 21
165.5175100549811
 31
0.0
  0
LINE
  5
58BC
330
57B8
100
AcDbEntity
  8
0
 62
     0
100
AcDbLine
 10
119.0169919028224
 20
162.8406417736399
 30
0.0
 11
120.0169919028224
 21
163.8406417736399
 31
0.0
  0
LINE
  5
58BD
330
57B8
100
AcDbEntity
  8
0
 62
     0
100
AcDbLine
 10
120.3346499393209
 20
164.1582998101384
 30
0.0
 11
121.3346499393209
 21
165.1582998101384
 31
0.0
  0
LINE
  5
58BE
330
57B8
100
AcDbEntity
  8
0
 62
     0
100
AcDbLine
 10
119.3762021476652
 20
162.8406417736399
 30
0.0
 11
121.3346499393209
 21
164.7990895652956
 31
0.0
  0
LINE
  5
58BF
330
57B8
100
AcDbEntity
  8
0
 62
     0
100
AcDbLine
 10
119.7354123925079
 20
162.8406417736399
 30
0.0
 11
121.3346499393209
 21
164.4398793204528
 31
0.0
  0
LINE
  5
58C0
330
57B8
100
AcDbEntity
  8
0
 62
     0
100
AcDbLine
 10
120.0946226373507
 20
162.8406417736399
 30
0.0
 11
121.3346499393209
 21
164.08066907561
 31
0.0
  0
LINE
  5
58C1
330
57B8
100
AcDbEntity
  8
0
 62
     0
100
AcDbLine
 10
120.4538328821935
 20
162.8406417736399
 30
0.0
 11
121.3346499393209
 21
163.7214588307673
 31
0.0
  0
LINE
  5
58C2
330
57B8
100
AcDbEntity
  8
0
 62
     0
100
AcDbLine
 10
120.8130431270363
 20
162.8406417736399
 30
0.0
 11
121.3346499393209
 21
163.3622485859245
 31
0.0
  0
LINE
  5
58C3
330
57B8
100
AcDbEntity
  8
0
 62
     0
100
AcDbLine
 10
121.172253371879
 20
162.8406417736399
 30
0.0
 11
121.3346499393209
 21
163.0030383410818
 31
0.0
  0
LINE
  5
58C4
330
57B8
100
AcDbEntity
  8
0
 62
     0
100
AcDbLine
 10
121.2946618969881
 20
162.8406417736399
 30
0.0
 11
120.2946618969881
 21
163.8406417736399
 31
0.0
  0
LINE
  5
58C5
330
57B8
100
AcDbEntity
  8
0
 62
     0
100
AcDbLine
 10
97.3346499393209
 20
186.8006537313071
 30
0.0
 11
96.33464993932093
 21
187.800653731307
 31
0.0
  0
LINE
  5
58C6
330
57B8
100
AcDbEntity
  8
0
 62
     0
100
AcDbLine
 10
120.9354516521453
 20
162.8406417736399
 30
0.0
 11
119.9354516521453
 21
163.8406417736399
 31
0.0
  0
LINE
  5
58C7
330
57B8
100
AcDbEntity
  8
0
 62
     0
100
AcDbLine
 10
97.3346499393209
 20
186.4414434864643
 30
0.0
 11
96.33464993932093
 21
187.4414434864642
 31
0.0
  0
LINE
  5
58C8
330
57B8
100
AcDbEntity
  8
0
 62
     0
100
AcDbLine
 10
120.5762414073025
 20
162.8406417736399
 30
0.0
 11
119.5762414073025
 21
163.8406417736399
 31
0.0
  0
LINE
  5
58C9
330
57B8
100
AcDbEntity
  8
0
 62
     0
100
AcDbLine
 10
97.3346499393209
 20
186.0822332416215
 30
0.0
 11
96.33464993932093
 21
187.0822332416215
 31
0.0
  0
LINE
  5
58CA
330
57B8
100
AcDbEntity
  8
0
 62
     0
100
AcDbLine
 10
120.2170311624598
 20
162.8406417736399
 30
0.0
 11
119.2170311624598
 21
163.8406417736399
 31
0.0
  0
LINE
  5
58CB
330
57B8
100
AcDbEntity
  8
0
 62
     0
100
AcDbLine
 10
97.3346499393209
 20
185.7230229967788
 30
0.0
 11
96.33464993932093
 21
186.7230229967787
 31
0.0
  0
LINE
  5
58CC
330
57B8
100
AcDbEntity
  8
0
 62
     0
100
AcDbLine
 10
119.857820917617
 20
162.8406417736399
 30
0.0
 11
118.857820917617
 21
163.8406417736399
 31
0.0
  0
LINE
  5
58CD
330
57B8
100
AcDbEntity
  8
0
 62
     0
100
AcDbLine
 10
97.3346499393209
 20
185.363812751936
 30
0.0
 11
96.33464993932093
 21
186.363812751936
 31
0.0
  0
LINE
  5
58CE
330
57B8
100
AcDbEntity
  8
0
 62
     0
100
AcDbLine
 10
119.4986106727742
 20
162.8406417736399
 30
0.0
 11
118.4986106727742
 21
163.8406417736399
 31
0.0
  0
LINE
  5
58CF
330
57B8
100
AcDbEntity
  8
0
 62
     0
100
AcDbLine
 10
97.3346499393209
 20
185.0046025070932
 30
0.0
 11
96.33464993932093
 21
186.0046025070932
 31
0.0
  0
LINE
  5
58D0
330
57B8
100
AcDbEntity
  8
0
 62
     0
100
AcDbLine
 10
119.1394004279315
 20
162.8406417736399
 30
0.0
 11
118.1394004279315
 21
163.8406417736399
 31
0.0
  0
LINE
  5
58D1
330
57B8
100
AcDbEntity
  8
0
 62
     0
100
AcDbLine
 10
97.3346499393209
 20
184.6453922622505
 30
0.0
 11
96.33464993932093
 21
185.6453922622504
 31
0.0
  0
LINE
  5
58D2
330
57B8
100
AcDbEntity
  8
0
 62
     0
100
AcDbLine
 10
118.7801901830887
 20
162.8406417736399
 30
0.0
 11
117.7801901830887
 21
163.8406417736399
 31
0.0
  0
LINE
  5
58D3
330
57B8
100
AcDbEntity
  8
0
 62
     0
100
AcDbLine
 10
97.3346499393209
 20
184.2861820174077
 30
0.0
 11
96.33464993932093
 21
185.2861820174077
 31
0.0
  0
LINE
  5
58D4
330
57B8
100
AcDbEntity
  8
0
 62
     0
100
AcDbLine
 10
118.4209799382459
 20
162.8406417736399
 30
0.0
 11
117.4209799382459
 21
163.8406417736399
 31
0.0
  0
LINE
  5
58D5
330
57B8
100
AcDbEntity
  8
0
 62
     0
100
AcDbLine
 10
97.3346499393209
 20
183.9269717725649
 30
0.0
 11
96.33464993932093
 21
184.9269717725649
 31
0.0
  0
LINE
  5
58D6
330
57B8
100
AcDbEntity
  8
0
 62
     0
100
AcDbLine
 10
118.0617696934032
 20
162.8406417736399
 30
0.0
 11
117.0617696934032
 21
163.8406417736399
 31
0.0
  0
LINE
  5
58D7
330
57B8
100
AcDbEntity
  8
0
 62
     0
100
AcDbLine
 10
97.3346499393209
 20
183.5677615277222
 30
0.0
 11
96.33464993932093
 21
184.5677615277221
 31
0.0
  0
LINE
  5
58D8
330
57B8
100
AcDbEntity
  8
0
 62
     0
100
AcDbLine
 10
117.7025594485604
 20
162.8406417736399
 30
0.0
 11
116.7025594485604
 21
163.8406417736399
 31
0.0
  0
LINE
  5
58D9
330
57B8
100
AcDbEntity
  8
0
 62
     0
100
AcDbLine
 10
97.3346499393209
 20
183.2085512828794
 30
0.0
 11
96.33464993932093
 21
184.2085512828794
 31
0.0
  0
LINE
  5
58DA
330
57B8
100
AcDbEntity
  8
0
 62
     0
100
AcDbLine
 10
117.3433492037176
 20
162.8406417736399
 30
0.0
 11
116.3433492037176
 21
163.8406417736399
 31
0.0
  0
LINE
  5
58DB
330
57B8
100
AcDbEntity
  8
0
 62
     0
100
AcDbLine
 10
97.3346499393209
 20
182.8493410380366
 30
0.0
 11
96.33464993932093
 21
183.8493410380366
 31
0.0
  0
LINE
  5
58DC
330
57B8
100
AcDbEntity
  8
0
 62
     0
100
AcDbLine
 10
116.9841389588749
 20
162.8406417736399
 30
0.0
 11
115.9841389588748
 21
163.8406417736399
 31
0.0
  0
LINE
  5
58DD
330
57B8
100
AcDbEntity
  8
0
 62
     0
100
AcDbLine
 10
97.3346499393209
 20
182.4901307931939
 30
0.0
 11
96.33464993932093
 21
183.4901307931938
 31
0.0
  0
LINE
  5
58DE
330
57B8
100
AcDbEntity
  8
0
 62
     0
100
AcDbLine
 10
116.6249287140321
 20
162.8406417736399
 30
0.0
 11
115.6249287140321
 21
163.8406417736399
 31
0.0
  0
LINE
  5
58DF
330
57B8
100
AcDbEntity
  8
0
 62
     0
100
AcDbLine
 10
97.3346499393209
 20
182.1309205483511
 30
0.0
 11
96.33464993932093
 21
183.1309205483511
 31
0.0
  0
LINE
  5
58E0
330
57B8
100
AcDbEntity
  8
0
 62
     0
100
AcDbLine
 10
116.2657184691893
 20
162.8406417736399
 30
0.0
 11
115.2657184691893
 21
163.8406417736399
 31
0.0
  0
LINE
  5
58E1
330
57B8
100
AcDbEntity
  8
0
 62
     0
100
AcDbLine
 10
97.3346499393209
 20
181.7717103035084
 30
0.0
 11
96.33464993932093
 21
182.7717103035083
 31
0.0
  0
LINE
  5
58E2
330
57B8
100
AcDbEntity
  8
0
 62
     0
100
AcDbLine
 10
115.9065082243466
 20
162.8406417736399
 30
0.0
 11
114.9065082243466
 21
163.8406417736399
 31
0.0
  0
LINE
  5
58E3
330
57B8
100
AcDbEntity
  8
0
 62
     0
100
AcDbLine
 10
97.3346499393209
 20
181.4125000586656
 30
0.0
 11
96.33464993932093
 21
182.4125000586655
 31
0.0
  0
LINE
  5
58E4
330
57B8
100
AcDbEntity
  8
0
 62
     0
100
AcDbLine
 10
115.5472979795038
 20
162.8406417736399
 30
0.0
 11
114.5472979795038
 21
163.8406417736399
 31
0.0
  0
LINE
  5
58E5
330
57B8
100
AcDbEntity
  8
0
 62
     0
100
AcDbLine
 10
97.3346499393209
 20
181.0532898138228
 30
0.0
 11
96.33464993932093
 21
182.0532898138228
 31
0.0
  0
LINE
  5
58E6
330
57B8
100
AcDbEntity
  8
0
 62
     0
100
AcDbLine
 10
115.188087734661
 20
162.8406417736399
 30
0.0
 11
114.188087734661
 21
163.8406417736399
 31
0.0
  0
LINE
  5
58E7
330
57B8
100
AcDbEntity
  8
0
 62
     0
100
AcDbLine
 10
97.3346499393209
 20
180.69407956898
 30
0.0
 11
96.33464993932093
 21
181.69407956898
 31
0.0
  0
LINE
  5
58E8
330
57B8
100
AcDbEntity
  8
0
 62
     0
100
AcDbLine
 10
114.8288774898183
 20
162.8406417736399
 30
0.0
 11
113.8288774898183
 21
163.8406417736399
 31
0.0
  0
LINE
  5
58E9
330
57B8
100
AcDbEntity
  8
0
 62
     0
100
AcDbLine
 10
97.3346499393209
 20
180.3348693241373
 30
0.0
 11
96.33464993932093
 21
181.3348693241372
 31
0.0
  0
LINE
  5
58EA
330
57B8
100
AcDbEntity
  8
0
 62
     0
100
AcDbLine
 10
114.4696672449755
 20
162.8406417736399
 30
0.0
 11
113.4696672449755
 21
163.8406417736399
 31
0.0
  0
LINE
  5
58EB
330
57B8
100
AcDbEntity
  8
0
 62
     0
100
AcDbLine
 10
97.3346499393209
 20
179.9756590792945
 30
0.0
 11
96.33464993932093
 21
180.9756590792945
 31
0.0
  0
LINE
  5
58EC
330
57B8
100
AcDbEntity
  8
0
 62
     0
100
AcDbLine
 10
114.1104570001327
 20
162.8406417736399
 30
0.0
 11
113.1104570001327
 21
163.8406417736399
 31
0.0
  0
LINE
  5
58ED
330
57B8
100
AcDbEntity
  8
0
 62
     0
100
AcDbLine
 10
97.3346499393209
 20
179.6164488344517
 30
0.0
 11
96.33464993932093
 21
180.6164488344517
 31
0.0
  0
LINE
  5
58EE
330
57B8
100
AcDbEntity
  8
0
 62
     0
100
AcDbLine
 10
113.75124675529
 20
162.8406417736399
 30
0.0
 11
112.75124675529
 21
163.8406417736399
 31
0.0
  0
LINE
  5
58EF
330
57B8
100
AcDbEntity
  8
0
 62
     0
100
AcDbLine
 10
97.3346499393209
 20
179.257238589609
 30
0.0
 11
96.33464993932093
 21
180.2572385896089
 31
0.0
  0
LINE
  5
58F0
330
57B8
100
AcDbEntity
  8
0
 62
     0
100
AcDbLine
 10
113.3920365104472
 20
162.8406417736399
 30
0.0
 11
112.3920365104472
 21
163.8406417736399
 31
0.0
  0
LINE
  5
58F1
330
57B8
100
AcDbEntity
  8
0
 62
     0
100
AcDbLine
 10
97.3346499393209
 20
178.8980283447662
 30
0.0
 11
96.33464993932093
 21
179.8980283447662
 31
0.0
  0
LINE
  5
58F2
330
57B8
100
AcDbEntity
  8
0
 62
     0
100
AcDbLine
 10
113.0328262656044
 20
162.8406417736399
 30
0.0
 11
112.0328262656044
 21
163.8406417736399
 31
0.0
  0
LINE
  5
58F3
330
57B8
100
AcDbEntity
  8
0
 62
     0
100
AcDbLine
 10
97.3346499393209
 20
178.5388180999234
 30
0.0
 11
96.33464993932093
 21
179.5388180999234
 31
0.0
  0
LINE
  5
58F4
330
57B8
100
AcDbEntity
  8
0
 62
     0
100
AcDbLine
 10
112.6736160207617
 20
162.8406417736399
 30
0.0
 11
111.6736160207617
 21
163.8406417736399
 31
0.0
  0
LINE
  5
58F5
330
57B8
100
AcDbEntity
  8
0
 62
     0
100
AcDbLine
 10
97.3346499393209
 20
178.1796078550807
 30
0.0
 11
96.33464993932093
 21
179.1796078550806
 31
0.0
  0
LINE
  5
58F6
330
57B8
100
AcDbEntity
  8
0
 62
     0
100
AcDbLine
 10
112.3144057759189
 20
162.8406417736399
 30
0.0
 11
111.3144057759189
 21
163.8406417736399
 31
0.0
  0
LINE
  5
58F7
330
57B8
100
AcDbEntity
  8
0
 62
     0
100
AcDbLine
 10
97.3346499393209
 20
177.8203976102379
 30
0.0
 11
96.33464993932093
 21
178.8203976102379
 31
0.0
  0
LINE
  5
58F8
330
57B8
100
AcDbEntity
  8
0
 62
     0
100
AcDbLine
 10
111.9551955310761
 20
162.8406417736399
 30
0.0
 11
110.9551955310761
 21
163.8406417736399
 31
0.0
  0
LINE
  5
58F9
330
57B8
100
AcDbEntity
  8
0
 62
     0
100
AcDbLine
 10
97.3346499393209
 20
177.4611873653952
 30
0.0
 11
96.33464993932093
 21
178.4611873653951
 31
0.0
  0
LINE
  5
58FA
330
57B8
100
AcDbEntity
  8
0
 62
     0
100
AcDbLine
 10
111.5959852862334
 20
162.8406417736399
 30
0.0
 11
110.5959852862334
 21
163.8406417736399
 31
0.0
  0
LINE
  5
58FB
330
57B8
100
AcDbEntity
  8
0
 62
     0
100
AcDbLine
 10
97.3346499393209
 20
177.1019771205524
 30
0.0
 11
96.33464993932093
 21
178.1019771205523
 31
0.0
  0
LINE
  5
58FC
330
57B8
100
AcDbEntity
  8
0
 62
     0
100
AcDbLine
 10
111.2367750413906
 20
162.8406417736399
 30
0.0
 11
110.2367750413906
 21
163.8406417736399
 31
0.0
  0
LINE
  5
58FD
330
57B8
100
AcDbEntity
  8
0
 62
     0
100
AcDbLine
 10
97.3346499393209
 20
176.7427668757096
 30
0.0
 11
96.33464993932093
 21
177.7427668757096
 31
0.0
  0
LINE
  5
58FE
330
57B8
100
AcDbEntity
  8
0
 62
     0
100
AcDbLine
 10
110.8775647965478
 20
162.8406417736399
 30
0.0
 11
109.8775647965478
 21
163.8406417736399
 31
0.0
  0
LINE
  5
58FF
330
57B8
100
AcDbEntity
  8
0
 62
     0
100
AcDbLine
 10
97.3346499393209
 20
176.3835566308669
 30
0.0
 11
96.33464993932093
 21
177.3835566308668
 31
0.0
  0
LINE
  5
5900
330
57B8
100
AcDbEntity
  8
0
 62
     0
100
AcDbLine
 10
110.5183545517051
 20
162.8406417736399
 30
0.0
 11
109.5183545517051
 21
163.8406417736399
 31
0.0
  0
LINE
  5
5901
330
57B8
100
AcDbEntity
  8
0
 62
     0
100
AcDbLine
 10
97.3346499393209
 20
176.0243463860241
 30
0.0
 11
96.33464993932093
 21
177.024346386024
 31
0.0
  0
LINE
  5
5902
330
57B8
100
AcDbEntity
  8
0
 62
     0
100
AcDbLine
 10
110.1591443068623
 20
162.8406417736399
 30
0.0
 11
109.1591443068623
 21
163.8406417736399
 31
0.0
  0
LINE
  5
5903
330
57B8
100
AcDbEntity
  8
0
 62
     0
100
AcDbLine
 10
97.3346499393209
 20
175.6651361411813
 30
0.0
 11
96.33464993932093
 21
176.6651361411813
 31
0.0
  0
LINE
  5
5904
330
57B8
100
AcDbEntity
  8
0
 62
     0
100
AcDbLine
 10
109.7999340620195
 20
162.8406417736399
 30
0.0
 11
108.7999340620195
 21
163.8406417736399
 31
0.0
  0
LINE
  5
5905
330
57B8
100
AcDbEntity
  8
0
 62
     0
100
AcDbLine
 10
97.3346499393209
 20
175.3059258963386
 30
0.0
 11
96.33464993932093
 21
176.3059258963385
 31
0.0
  0
LINE
  5
5906
330
57B8
100
AcDbEntity
  8
0
 62
     0
100
AcDbLine
 10
109.4407238171768
 20
162.8406417736399
 30
0.0
 11
108.4407238171768
 21
163.8406417736399
 31
0.0
  0
LINE
  5
5907
330
57B8
100
AcDbEntity
  8
0
 62
     0
100
AcDbLine
 10
97.3346499393209
 20
174.9467156514958
 30
0.0
 11
96.33464993932093
 21
175.9467156514958
 31
0.0
  0
LINE
  5
5908
330
57B8
100
AcDbEntity
  8
0
 62
     0
100
AcDbLine
 10
109.081513572334
 20
162.8406417736399
 30
0.0
 11
108.081513572334
 21
163.8406417736399
 31
0.0
  0
LINE
  5
5909
330
57B8
100
AcDbEntity
  8
0
 62
     0
100
AcDbLine
 10
97.3346499393209
 20
174.587505406653
 30
0.0
 11
96.33464993932093
 21
175.587505406653
 31
0.0
  0
LINE
  5
590A
330
57B8
100
AcDbEntity
  8
0
 62
     0
100
AcDbLine
 10
108.7223033274912
 20
162.8406417736399
 30
0.0
 11
107.7223033274912
 21
163.8406417736399
 31
0.0
  0
LINE
  5
590B
330
57B8
100
AcDbEntity
  8
0
 62
     0
100
AcDbLine
 10
97.3346499393209
 20
174.2282951618103
 30
0.0
 11
96.33464993932093
 21
175.2282951618102
 31
0.0
  0
LINE
  5
590C
330
57B8
100
AcDbEntity
  8
0
 62
     0
100
AcDbLine
 10
108.3630930826485
 20
162.8406417736399
 30
0.0
 11
107.3630930826485
 21
163.8406417736399
 31
0.0
  0
LINE
  5
590D
330
57B8
100
AcDbEntity
  8
0
 62
     0
100
AcDbLine
 10
97.3346499393209
 20
173.8690849169675
 30
0.0
 11
96.33464993932093
 21
174.8690849169674
 31
0.0
  0
LINE
  5
590E
330
57B8
100
AcDbEntity
  8
0
 62
     0
100
AcDbLine
 10
108.0038828378057
 20
162.8406417736399
 30
0.0
 11
107.0038828378057
 21
163.8406417736399
 31
0.0
  0
LINE
  5
590F
330
57B8
100
AcDbEntity
  8
0
 62
     0
100
AcDbLine
 10
97.3346499393209
 20
173.5098746721248
 30
0.0
 11
96.33464993932093
 21
174.5098746721247
 31
0.0
  0
LINE
  5
5910
330
57B8
100
AcDbEntity
  8
0
 62
     0
100
AcDbLine
 10
107.6446725929629
 20
162.8406417736399
 30
0.0
 11
106.6446725929629
 21
163.8406417736399
 31
0.0
  0
LINE
  5
5911
330
57B8
100
AcDbEntity
  8
0
 62
     0
100
AcDbLine
 10
97.3346499393209
 20
173.1506644272819
 30
0.0
 11
96.33464993932093
 21
174.1506644272819
 31
0.0
  0
LINE
  5
5912
330
57B8
100
AcDbEntity
  8
0
 62
     0
100
AcDbLine
 10
107.2854623481202
 20
162.8406417736399
 30
0.0
 11
106.2854623481202
 21
163.8406417736399
 31
0.0
  0
LINE
  5
5913
330
57B8
100
AcDbEntity
  8
0
 62
     0
100
AcDbLine
 10
97.3346499393209
 20
172.7914541824392
 30
0.0
 11
96.33464993932093
 21
173.7914541824391
 31
0.0
  0
LINE
  5
5914
330
57B8
100
AcDbEntity
  8
0
 62
     0
100
AcDbLine
 10
106.9262521032774
 20
162.8406417736399
 30
0.0
 11
105.9262521032774
 21
163.8406417736399
 31
0.0
  0
LINE
  5
5915
330
57B8
100
AcDbEntity
  8
0
 62
     0
100
AcDbLine
 10
97.3346499393209
 20
172.4322439375964
 30
0.0
 11
96.33464993932093
 21
173.4322439375964
 31
0.0
  0
LINE
  5
5916
330
57B8
100
AcDbEntity
  8
0
 62
     0
100
AcDbLine
 10
106.5670418584346
 20
162.8406417736399
 30
0.0
 11
105.5670418584346
 21
163.8406417736399
 31
0.0
  0
LINE
  5
5917
330
57B8
100
AcDbEntity
  8
0
 62
     0
100
AcDbLine
 10
97.3346499393209
 20
172.0730336927537
 30
0.0
 11
96.33464993932093
 21
173.0730336927536
 31
0.0
  0
LINE
  5
5918
330
57B8
100
AcDbEntity
  8
0
 62
     0
100
AcDbLine
 10
106.2078316135919
 20
162.8406417736399
 30
0.0
 11
105.2078316135919
 21
163.8406417736399
 31
0.0
  0
LINE
  5
5919
330
57B8
100
AcDbEntity
  8
0
 62
     0
100
AcDbLine
 10
97.3346499393209
 20
171.7138234479109
 30
0.0
 11
96.33464993932093
 21
172.7138234479108
 31
0.0
  0
LINE
  5
591A
330
57B8
100
AcDbEntity
  8
0
 62
     0
100
AcDbLine
 10
105.8486213687491
 20
162.8406417736399
 30
0.0
 11
104.8486213687491
 21
163.8406417736399
 31
0.0
  0
LINE
  5
591B
330
57B8
100
AcDbEntity
  8
0
 62
     0
100
AcDbLine
 10
97.3346499393209
 20
171.3546132030681
 30
0.0
 11
96.33464993932093
 21
172.3546132030681
 31
0.0
  0
LINE
  5
591C
330
57B8
100
AcDbEntity
  8
0
 62
     0
100
AcDbLine
 10
105.4894111239063
 20
162.8406417736399
 30
0.0
 11
104.4894111239063
 21
163.8406417736399
 31
0.0
  0
LINE
  5
591D
330
57B8
100
AcDbEntity
  8
0
 62
     0
100
AcDbLine
 10
97.3346499393209
 20
170.9954029582254
 30
0.0
 11
96.33464993932093
 21
171.9954029582253
 31
0.0
  0
LINE
  5
591E
330
57B8
100
AcDbEntity
  8
0
 62
     0
100
AcDbLine
 10
105.1302008790636
 20
162.8406417736399
 30
0.0
 11
104.1302008790636
 21
163.8406417736399
 31
0.0
  0
LINE
  5
591F
330
57B8
100
AcDbEntity
  8
0
 62
     0
100
AcDbLine
 10
97.3346499393209
 20
170.6361927133826
 30
0.0
 11
96.33464993932093
 21
171.6361927133825
 31
0.0
  0
LINE
  5
5920
330
57B8
100
AcDbEntity
  8
0
 62
     0
100
AcDbLine
 10
104.7709906342208
 20
162.8406417736399
 30
0.0
 11
103.7709906342208
 21
163.8406417736399
 31
0.0
  0
LINE
  5
5921
330
57B8
100
AcDbEntity
  8
0
 62
     0
100
AcDbLine
 10
97.3346499393209
 20
170.2769824685399
 30
0.0
 11
96.33464993932093
 21
171.2769824685398
 31
0.0
  0
LINE
  5
5922
330
57B8
100
AcDbEntity
  8
0
 62
     0
100
AcDbLine
 10
104.411780389378
 20
162.8406417736399
 30
0.0
 11
103.411780389378
 21
163.8406417736399
 31
0.0
  0
LINE
  5
5923
330
57B8
100
AcDbEntity
  8
0
 62
     0
100
AcDbLine
 10
97.3346499393209
 20
169.9177722236971
 30
0.0
 11
96.33464993932093
 21
170.917772223697
 31
0.0
  0
LINE
  5
5924
330
57B8
100
AcDbEntity
  8
0
 62
     0
100
AcDbLine
 10
104.0525701445353
 20
162.8406417736399
 30
0.0
 11
103.0525701445353
 21
163.8406417736399
 31
0.0
  0
LINE
  5
5925
330
57B8
100
AcDbEntity
  8
0
 62
     0
100
AcDbLine
 10
97.3346499393209
 20
169.5585619788543
 30
0.0
 11
96.33464993932093
 21
170.5585619788543
 31
0.0
  0
LINE
  5
5926
330
57B8
100
AcDbEntity
  8
0
 62
     0
100
AcDbLine
 10
103.6933598996925
 20
162.8406417736399
 30
0.0
 11
102.6933598996925
 21
163.8406417736399
 31
0.0
  0
LINE
  5
5927
330
57B8
100
AcDbEntity
  8
0
 62
     0
100
AcDbLine
 10
97.3346499393209
 20
169.1993517340115
 30
0.0
 11
96.33464993932093
 21
170.1993517340115
 31
0.0
  0
LINE
  5
5928
330
57B8
100
AcDbEntity
  8
0
 62
     0
100
AcDbLine
 10
103.3341496548498
 20
162.8406417736399
 30
0.0
 11
102.3341496548498
 21
163.8406417736399
 31
0.0
  0
LINE
  5
5929
330
57B8
100
AcDbEntity
  8
0
 62
     0
100
AcDbLine
 10
97.3346499393209
 20
168.8401414891688
 30
0.0
 11
96.33464993932093
 21
169.8401414891687
 31
0.0
  0
LINE
  5
592A
330
57B8
100
AcDbEntity
  8
0
 62
     0
100
AcDbLine
 10
102.974939410007
 20
162.8406417736399
 30
0.0
 11
101.974939410007
 21
163.8406417736399
 31
0.0
  0
LINE
  5
592B
330
57B8
100
AcDbEntity
  8
0
 62
     0
100
AcDbLine
 10
97.3346499393209
 20
168.480931244326
 30
0.0
 11
96.33464993932093
 21
169.4809312443259
 31
0.0
  0
LINE
  5
592C
330
57B8
100
AcDbEntity
  8
0
 62
     0
100
AcDbLine
 10
102.6157291651642
 20
162.8406417736399
 30
0.0
 11
101.6157291651642
 21
163.8406417736399
 31
0.0
  0
LINE
  5
592D
330
57B8
100
AcDbEntity
  8
0
 62
     0
100
AcDbLine
 10
97.3346499393209
 20
168.1217209994833
 30
0.0
 11
96.33464993932093
 21
169.1217209994832
 31
0.0
  0
LINE
  5
592E
330
57B8
100
AcDbEntity
  8
0
 62
     0
100
AcDbLine
 10
102.2565189203215
 20
162.8406417736399
 30
0.0
 11
101.2565189203215
 21
163.8406417736399
 31
0.0
  0
LINE
  5
592F
330
57B8
100
AcDbEntity
  8
0
 62
     0
100
AcDbLine
 10
97.3346499393209
 20
167.7625107546405
 30
0.0
 11
96.33464993932093
 21
168.7625107546404
 31
0.0
  0
LINE
  5
5930
330
57B8
100
AcDbEntity
  8
0
 62
     0
100
AcDbLine
 10
101.8973086754787
 20
162.8406417736399
 30
0.0
 11
100.8973086754787
 21
163.8406417736399
 31
0.0
  0
LINE
  5
5931
330
57B8
100
AcDbEntity
  8
0
 62
     0
100
AcDbLine
 10
97.3346499393209
 20
167.4033005097977
 30
0.0
 11
96.33464993932093
 21
168.4033005097977
 31
0.0
  0
LINE
  5
5932
330
57B8
100
AcDbEntity
  8
0
 62
     0
100
AcDbLine
 10
101.5380984306359
 20
162.8406417736399
 30
0.0
 11
100.5380984306359
 21
163.8406417736399
 31
0.0
  0
LINE
  5
5933
330
57B8
100
AcDbEntity
  8
0
 62
     0
100
AcDbLine
 10
97.3346499393209
 20
167.0440902649549
 30
0.0
 11
96.33464993932093
 21
168.0440902649549
 31
0.0
  0
LINE
  5
5934
330
57B8
100
AcDbEntity
  8
0
 62
     0
100
AcDbLine
 10
101.1788881857932
 20
162.8406417736399
 30
0.0
 11
100.1788881857932
 21
163.8406417736399
 31
0.0
  0
LINE
  5
5935
330
57B8
100
AcDbEntity
  8
0
 62
     0
100
AcDbLine
 10
97.3346499393209
 20
166.6848800201122
 30
0.0
 11
96.33464993932093
 21
167.6848800201121
 31
0.0
  0
LINE
  5
5936
330
57B8
100
AcDbEntity
  8
0
 62
     0
100
AcDbLine
 10
100.8196779409504
 20
162.8406417736399
 30
0.0
 11
99.81967794095041
 21
163.8406417736399
 31
0.0
  0
LINE
  5
5937
330
57B8
100
AcDbEntity
  8
0
 62
     0
100
AcDbLine
 10
97.3346499393209
 20
166.3256697752694
 30
0.0
 11
96.33464993932093
 21
167.3256697752693
 31
0.0
  0
LINE
  5
5938
330
57B8
100
AcDbEntity
  8
0
 62
     0
100
AcDbLine
 10
100.4604676961076
 20
162.8406417736399
 30
0.0
 11
99.46046769610765
 21
163.8406417736399
 31
0.0
  0
LINE
  5
5939
330
57B8
100
AcDbEntity
  8
0
 62
     0
100
AcDbLine
 10
97.3346499393209
 20
165.9664595304267
 30
0.0
 11
96.33464993932093
 21
166.9664595304266
 31
0.0
  0
LINE
  5
593A
330
57B8
100
AcDbEntity
  8
0
 62
     0
100
AcDbLine
 10
100.1012574512649
 20
162.8406417736399
 30
0.0
 11
99.10125745126489
 21
163.8406417736399
 31
0.0
  0
LINE
  5
593B
330
57B8
100
AcDbEntity
  8
0
 62
     0
100
AcDbLine
 10
97.3346499393209
 20
165.6072492855839
 30
0.0
 11
96.33464993932092
 21
166.6072492855838
 31
0.0
  0
LINE
  5
593C
330
57B8
100
AcDbEntity
  8
0
 62
     0
100
AcDbLine
 10
99.74204720642211
 20
162.8406417736399
 30
0.0
 11
98.74204720642211
 21
163.8406417736399
 31
0.0
  0
LINE
  5
593D
330
57B8
100
AcDbEntity
  8
0
 62
     0
100
AcDbLine
 10
97.3346499393209
 20
165.2480390407411
 30
0.0
 11
96.33464993932092
 21
166.248039040741
 31
0.0
  0
LINE
  5
593E
330
57B8
100
AcDbEntity
  8
0
 62
     0
100
AcDbLine
 10
99.38283696157935
 20
162.8406417736399
 30
0.0
 11
98.38283696157935
 21
163.8406417736399
 31
0.0
  0
LINE
  5
593F
330
57B8
100
AcDbEntity
  8
0
 62
     0
100
AcDbLine
 10
97.3346499393209
 20
164.8888287958984
 30
0.0
 11
96.33464993932092
 21
165.8888287958983
 31
0.0
  0
LINE
  5
5940
330
57B8
100
AcDbEntity
  8
0
 62
     0
100
AcDbLine
 10
99.0236267167366
 20
162.8406417736399
 30
0.0
 11
98.02362671673659
 21
163.8406417736399
 31
0.0
  0
LINE
  5
5941
330
57B8
100
AcDbEntity
  8
0
 62
     0
100
AcDbLine
 10
97.3346499393209
 20
164.5296185510556
 30
0.0
 11
96.33464993932092
 21
165.5296185510555
 31
0.0
  0
LINE
  5
5942
330
57B8
100
AcDbEntity
  8
0
 62
     0
100
AcDbLine
 10
98.66441647189381
 20
162.8406417736399
 30
0.0
 11
97.66441647189381
 21
163.8406417736399
 31
0.0
  0
LINE
  5
5943
330
57B8
100
AcDbEntity
  8
0
 62
     0
100
AcDbLine
 10
97.3346499393209
 20
164.1704083062128
 30
0.0
 11
96.33464993932092
 21
165.1704083062128
 31
0.0
  0
LINE
  5
5944
330
57B8
100
AcDbEntity
  8
0
 62
     0
100
AcDbLine
 10
98.30520622705105
 20
162.8406417736399
 30
0.0
 11
96.33464993932092
 21
164.81119806137
 31
0.0
  0
LINE
  5
5945
330
57B8
100
AcDbEntity
  8
0
 62
     0
100
AcDbLine
 10
97.9459959822083
 20
162.8406417736399
 30
0.0
 11
96.33464993932092
 21
164.4519878165272
 31
0.0
  0
LINE
  5
5946
330
57B8
100
AcDbEntity
  8
0
 62
     0
100
AcDbLine
 10
97.58678573736551
 20
162.8406417736399
 30
0.0
 11
96.33464993932092
 21
164.0927775716845
 31
0.0
  0
LINE
  5
5947
330
57B8
100
AcDbEntity
  8
0
 62
     0
100
AcDbLine
 10
97.22757549252275
 20
162.8406417736399
 30
0.0
 11
96.33464993932092
 21
163.7335673268417
 31
0.0
  0
LINE
  5
5948
330
57B8
100
AcDbEntity
  8
0
 62
     0
100
AcDbLine
 10
96.86836524768001
 20
162.8406417736399
 30
0.0
 11
96.33464993932092
 21
163.3743570819989
 31
0.0
  0
LINE
  5
5949
330
57B8
100
AcDbEntity
  8
0
 62
     0
100
AcDbLine
 10
96.50915500283721
 20
162.8406417736399
 30
0.0
 11
96.33464993932092
 21
163.0151468371562
 31
0.0
  0
LINE
  5
594A
330
57B8
100
AcDbEntity
  8
0
 62
     0
100
AcDbLine
 10
121.3346499393209
 20
163.1598639761498
 30
0.0
 11
120.3346499393209
 21
164.1598639761498
 31
0.0
  0
LINE
  5
594B
330
57B8
100
AcDbEntity
  8
0
 62
     0
100
AcDbLine
 10
97.65387214183087
 20
186.8406417736398
 30
0.0
 11
96.65387214183091
 21
187.8406417736398
 31
0.0
  0
LINE
  5
594C
330
57B8
100
AcDbEntity
  8
0
 62
     0
100
AcDbLine
 10
121.3346499393209
 20
163.5190742209925
 30
0.0
 11
120.3346499393209
 21
164.5190742209925
 31
0.0
  0
LINE
  5
594D
330
57B8
100
AcDbEntity
  8
0
 62
     0
100
AcDbLine
 10
98.01308238667363
 20
186.8406417736398
 30
0.0
 11
97.01308238667365
 21
187.8406417736398
 31
0.0
  0
LINE
  5
594E
330
57B8
100
AcDbEntity
  8
0
 62
     0
100
AcDbLine
 10
121.3346499393209
 20
163.8782844658353
 30
0.0
 11
120.3346499393209
 21
164.8782844658354
 31
0.0
  0
LINE
  5
594F
330
57B8
100
AcDbEntity
  8
0
 62
     0
100
AcDbLine
 10
98.37229263151641
 20
186.8406417736398
 30
0.0
 11
97.37229263151647
 21
187.8406417736398
 31
0.0
  0
LINE
  5
5950
330
57B8
100
AcDbEntity
  8
0
 62
     0
100
AcDbLine
 10
121.3346499393209
 20
164.2374947106781
 30
0.0
 11
120.3346499393209
 21
165.2374947106781
 31
0.0
  0
LINE
  5
5951
330
57B8
100
AcDbEntity
  8
0
 62
     0
100
AcDbLine
 10
98.73150287635917
 20
186.8406417736398
 30
0.0
 11
97.73150287635921
 21
187.8406417736398
 31
0.0
  0
LINE
  5
5952
330
57B8
100
AcDbEntity
  8
0
 62
     0
100
AcDbLine
 10
121.3346499393209
 20
164.5967049555208
 30
0.0
 11
120.3346499393209
 21
165.5967049555209
 31
0.0
  0
LINE
  5
5953
330
57B8
100
AcDbEntity
  8
0
 62
     0
100
AcDbLine
 10
99.09071312120193
 20
186.8406417736398
 30
0.0
 11
98.09071312120195
 21
187.8406417736398
 31
0.0
  0
LINE
  5
5954
330
57B8
100
AcDbEntity
  8
0
 62
     0
100
AcDbLine
 10
121.3346499393209
 20
164.9559152003636
 30
0.0
 11
120.3346499393209
 21
165.9559152003637
 31
0.0
  0
LINE
  5
5955
330
57B8
100
AcDbEntity
  8
0
 62
     0
100
AcDbLine
 10
99.44992336604471
 20
186.8406417736398
 30
0.0
 11
98.44992336604477
 21
187.8406417736398
 31
0.0
  0
LINE
  5
5956
330
57B8
100
AcDbEntity
  8
0
 62
     0
100
AcDbLine
 10
121.3346499393209
 20
165.3151254452064
 30
0.0
 11
120.3346499393209
 21
166.3151254452064
 31
0.0
  0
LINE
  5
5957
330
57B8
100
AcDbEntity
  8
0
 62
     0
100
AcDbLine
 10
99.80913361088747
 20
186.8406417736398
 30
0.0
 11
98.80913361088751
 21
187.8406417736398
 31
0.0
  0
LINE
  5
5958
330
57B8
100
AcDbEntity
  8
0
 62
     0
100
AcDbLine
 10
121.3346499393209
 20
165.6743356900491
 30
0.0
 11
120.3346499393209
 21
166.6743356900492
 31
0.0
  0
LINE
  5
5959
330
57B8
100
AcDbEntity
  8
0
 62
     0
100
AcDbLine
 10
100.1683438557302
 20
186.8406417736398
 30
0.0
 11
99.16834385573025
 21
187.8406417736398
 31
0.0
  0
LINE
  5
595A
330
57B8
100
AcDbEntity
  8
0
 62
     0
100
AcDbLine
 10
121.3346499393209
 20
166.0335459348919
 30
0.0
 11
120.3346499393209
 21
167.0335459348919
 31
0.0
  0
LINE
  5
595B
330
57B8
100
AcDbEntity
  8
0
 62
     0
100
AcDbLine
 10
100.527554100573
 20
186.8406417736398
 30
0.0
 11
99.52755410057307
 21
187.8406417736398
 31
0.0
  0
LINE
  5
595C
330
57B8
100
AcDbEntity
  8
0
 62
     0
100
AcDbLine
 10
121.3346499393209
 20
166.3927561797347
 30
0.0
 11
120.3346499393209
 21
167.3927561797347
 31
0.0
  0
LINE
  5
595D
330
57B8
100
AcDbEntity
  8
0
 62
     0
100
AcDbLine
 10
100.8867643454157
 20
186.8406417736398
 30
0.0
 11
99.88676434541581
 21
187.8406417736398
 31
0.0
  0
LINE
  5
595E
330
57B8
100
AcDbEntity
  8
0
 62
     0
100
AcDbLine
 10
121.3346499393209
 20
166.7519664245774
 30
0.0
 11
120.3346499393209
 21
167.7519664245775
 31
0.0
  0
LINE
  5
595F
330
57B8
100
AcDbEntity
  8
0
 62
     0
100
AcDbLine
 10
101.2459745902585
 20
186.8406417736398
 30
0.0
 11
100.2459745902585
 21
187.8406417736398
 31
0.0
  0
LINE
  5
5960
330
57B8
100
AcDbEntity
  8
0
 62
     0
100
AcDbLine
 10
121.3346499393209
 20
167.1111766694203
 30
0.0
 11
120.3346499393209
 21
168.1111766694202
 31
0.0
  0
LINE
  5
5961
330
57B8
100
AcDbEntity
  8
0
 62
     0
100
AcDbLine
 10
101.6051848351013
 20
186.8406417736398
 30
0.0
 11
100.6051848351013
 21
187.8406417736398
 31
0.0
  0
LINE
  5
5962
330
57B8
100
AcDbEntity
  8
0
 62
     0
100
AcDbLine
 10
121.3346499393209
 20
167.470386914263
 30
0.0
 11
120.3346499393209
 21
168.470386914263
 31
0.0
  0
LINE
  5
5963
330
57B8
100
AcDbEntity
  8
0
 62
     0
100
AcDbLine
 10
101.9643950799441
 20
186.8406417736398
 30
0.0
 11
100.9643950799441
 21
187.8406417736398
 31
0.0
  0
LINE
  5
5964
330
57B8
100
AcDbEntity
  8
0
 62
     0
100
AcDbLine
 10
121.3346499393209
 20
167.8295971591057
 30
0.0
 11
120.3346499393209
 21
168.8295971591058
 31
0.0
  0
LINE
  5
5965
330
57B8
100
AcDbEntity
  8
0
 62
     0
100
AcDbLine
 10
102.3236053247868
 20
186.8406417736398
 30
0.0
 11
101.3236053247868
 21
187.8406417736398
 31
0.0
  0
LINE
  5
5966
330
57B8
100
AcDbEntity
  8
0
 62
     0
100
AcDbLine
 10
121.3346499393209
 20
168.1888074039485
 30
0.0
 11
120.3346499393209
 21
169.1888074039485
 31
0.0
  0
LINE
  5
5967
330
57B8
100
AcDbEntity
  8
0
 62
     0
100
AcDbLine
 10
102.6828155696296
 20
186.8406417736398
 30
0.0
 11
101.6828155696296
 21
187.8406417736398
 31
0.0
  0
LINE
  5
5968
330
57B8
100
AcDbEntity
  8
0
 62
     0
100
AcDbLine
 10
121.3346499393209
 20
168.5480176487913
 30
0.0
 11
120.3346499393209
 21
169.5480176487913
 31
0.0
  0
LINE
  5
5969
330
57B8
100
AcDbEntity
  8
0
 62
     0
100
AcDbLine
 10
103.0420258144723
 20
186.8406417736398
 30
0.0
 11
102.0420258144724
 21
187.8406417736398
 31
0.0
  0
LINE
  5
596A
330
57B8
100
AcDbEntity
  8
0
 62
     0
100
AcDbLine
 10
121.3346499393209
 20
168.907227893634
 30
0.0
 11
120.3346499393209
 21
169.9072278936341
 31
0.0
  0
LINE
  5
596B
330
57B8
100
AcDbEntity
  8
0
 62
     0
100
AcDbLine
 10
103.4012360593151
 20
186.8406417736398
 30
0.0
 11
102.4012360593151
 21
187.8406417736398
 31
0.0
  0
LINE
  5
596C
330
57B8
100
AcDbEntity
  8
0
 62
     0
100
AcDbLine
 10
121.3346499393209
 20
169.2664381384769
 30
0.0
 11
120.3346499393209
 21
170.2664381384769
 31
0.0
  0
LINE
  5
596D
330
57B8
100
AcDbEntity
  8
0
 62
     0
100
AcDbLine
 10
103.7604463041579
 20
186.8406417736398
 30
0.0
 11
102.7604463041579
 21
187.8406417736398
 31
0.0
  0
LINE
  5
596E
330
57B8
100
AcDbEntity
  8
0
 62
     0
100
AcDbLine
 10
121.3346499393209
 20
169.6256483833196
 30
0.0
 11
120.3346499393209
 21
170.6256483833196
 31
0.0
  0
LINE
  5
596F
330
57B8
100
AcDbEntity
  8
0
 62
     0
100
AcDbLine
 10
104.1196565490006
 20
186.8406417736398
 30
0.0
 11
103.1196565490007
 21
187.8406417736398
 31
0.0
  0
LINE
  5
5970
330
57B8
100
AcDbEntity
  8
0
 62
     0
100
AcDbLine
 10
121.3346499393209
 20
169.9848586281623
 30
0.0
 11
120.3346499393209
 21
170.9848586281624
 31
0.0
  0
LINE
  5
5971
330
57B8
100
AcDbEntity
  8
0
 62
     0
100
AcDbLine
 10
104.4788667938434
 20
186.8406417736398
 30
0.0
 11
103.4788667938434
 21
187.8406417736398
 31
0.0
  0
LINE
  5
5972
330
57B8
100
AcDbEntity
  8
0
 62
     0
100
AcDbLine
 10
121.3346499393209
 20
170.3440688730051
 30
0.0
 11
120.3346499393209
 21
171.3440688730051
 31
0.0
  0
LINE
  5
5973
330
57B8
100
AcDbEntity
  8
0
 62
     0
100
AcDbLine
 10
104.8380770386862
 20
186.8406417736398
 30
0.0
 11
103.8380770386862
 21
187.8406417736398
 31
0.0
  0
LINE
  5
5974
330
57B8
100
AcDbEntity
  8
0
 62
     0
100
AcDbLine
 10
121.3346499393209
 20
170.7032791178479
 30
0.0
 11
120.3346499393209
 21
171.7032791178479
 31
0.0
  0
LINE
  5
5975
330
57B8
100
AcDbEntity
  8
0
 62
     0
100
AcDbLine
 10
105.1972872835289
 20
186.8406417736398
 30
0.0
 11
104.197287283529
 21
187.8406417736398
 31
0.0
  0
LINE
  5
5976
330
57B8
100
AcDbEntity
  8
0
 62
     0
100
AcDbLine
 10
121.3346499393209
 20
171.0624893626906
 30
0.0
 11
120.3346499393209
 21
172.0624893626907
 31
0.0
  0
LINE
  5
5977
330
57B8
100
AcDbEntity
  8
0
 62
     0
100
AcDbLine
 10
105.5564975283717
 20
186.8406417736398
 30
0.0
 11
104.5564975283717
 21
187.8406417736398
 31
0.0
  0
LINE
  5
5978
330
57B8
100
AcDbEntity
  8
0
 62
     0
100
AcDbLine
 10
121.3346499393209
 20
171.4216996075334
 30
0.0
 11
120.3346499393209
 21
172.4216996075334
 31
0.0
  0
LINE
  5
5979
330
57B8
100
AcDbEntity
  8
0
 62
     0
100
AcDbLine
 10
105.9157077732145
 20
186.8406417736398
 30
0.0
 11
104.9157077732145
 21
187.8406417736398
 31
0.0
  0
LINE
  5
597A
330
57B8
100
AcDbEntity
  8
0
 62
     0
100
AcDbLine
 10
121.3346499393209
 20
171.7809098523762
 30
0.0
 11
120.3346499393209
 21
172.7809098523762
 31
0.0
  0
LINE
  5
597B
330
57B8
100
AcDbEntity
  8
0
 62
     0
100
AcDbLine
 10
106.2749180180572
 20
186.8406417736398
 30
0.0
 11
105.2749180180573
 21
187.8406417736398
 31
0.0
  0
LINE
  5
597C
330
57B8
100
AcDbEntity
  8
0
 62
     0
100
AcDbLine
 10
121.3346499393209
 20
172.1401200972189
 30
0.0
 11
120.3346499393209
 21
173.140120097219
 31
0.0
  0
LINE
  5
597D
330
57B8
100
AcDbEntity
  8
0
 62
     0
100
AcDbLine
 10
106.6341282629
 20
186.8406417736398
 30
0.0
 11
105.6341282629
 21
187.8406417736398
 31
0.0
  0
LINE
  5
597E
330
57B8
100
AcDbEntity
  8
0
 62
     0
100
AcDbLine
 10
121.3346499393209
 20
172.4993303420617
 30
0.0
 11
120.3346499393209
 21
173.4993303420617
 31
0.0
  0
LINE
  5
597F
330
57B8
100
AcDbEntity
  8
0
 62
     0
100
AcDbLine
 10
106.9933385077428
 20
186.8406417736398
 30
0.0
 11
105.9933385077428
 21
187.8406417736398
 31
0.0
  0
LINE
  5
5980
330
57B8
100
AcDbEntity
  8
0
 62
     0
100
AcDbLine
 10
121.3346499393209
 20
172.8585405869045
 30
0.0
 11
120.3346499393209
 21
173.8585405869045
 31
0.0
  0
LINE
  5
5981
330
57B8
100
AcDbEntity
  8
0
 62
     0
100
AcDbLine
 10
107.3525487525855
 20
186.8406417736398
 30
0.0
 11
106.3525487525856
 21
187.8406417736398
 31
0.0
  0
LINE
  5
5982
330
57B8
100
AcDbEntity
  8
0
 62
     0
100
AcDbLine
 10
121.3346499393209
 20
173.2177508317472
 30
0.0
 11
120.3346499393209
 21
174.2177508317473
 31
0.0
  0
LINE
  5
5983
330
57B8
100
AcDbEntity
  8
0
 62
     0
100
AcDbLine
 10
107.7117589974283
 20
186.8406417736398
 30
0.0
 11
106.7117589974283
 21
187.8406417736398
 31
0.0
  0
LINE
  5
5984
330
57B8
100
AcDbEntity
  8
0
 62
     0
100
AcDbLine
 10
121.3346499393209
 20
173.57696107659
 30
0.0
 11
120.3346499393209
 21
174.57696107659
 31
0.0
  0
LINE
  5
5985
330
57B8
100
AcDbEntity
  8
0
 62
     0
100
AcDbLine
 10
108.0709692422711
 20
186.8406417736398
 30
0.0
 11
107.0709692422711
 21
187.8406417736398
 31
0.0
  0
LINE
  5
5986
330
57B8
100
AcDbEntity
  8
0
 62
     0
100
AcDbLine
 10
121.3346499393209
 20
173.9361713214328
 30
0.0
 11
120.3346499393209
 21
174.9361713214328
 31
0.0
  0
LINE
  5
5987
330
57B8
100
AcDbEntity
  8
0
 62
     0
100
AcDbLine
 10
108.4301794871138
 20
186.8406417736398
 30
0.0
 11
107.4301794871139
 21
187.8406417736398
 31
0.0
  0
LINE
  5
5988
330
57B8
100
AcDbEntity
  8
0
 62
     0
100
AcDbLine
 10
121.3346499393209
 20
174.2953815662755
 30
0.0
 11
120.3346499393209
 21
175.2953815662755
 31
0.0
  0
LINE
  5
5989
330
57B8
100
AcDbEntity
  8
0
 62
     0
100
AcDbLine
 10
108.7893897319566
 20
186.8406417736398
 30
0.0
 11
107.7893897319566
 21
187.8406417736398
 31
0.0
  0
LINE
  5
598A
330
57B8
100
AcDbEntity
  8
0
 62
     0
100
AcDbLine
 10
121.3346499393209
 20
174.6545918111183
 30
0.0
 11
120.3346499393209
 21
175.6545918111183
 31
0.0
  0
LINE
  5
598B
330
57B8
100
AcDbEntity
  8
0
 62
     0
100
AcDbLine
 10
109.1485999767994
 20
186.8406417736398
 30
0.0
 11
108.1485999767994
 21
187.8406417736398
 31
0.0
  0
LINE
  5
598C
330
57B8
100
AcDbEntity
  8
0
 62
     0
100
AcDbLine
 10
121.3346499393209
 20
175.0138020559611
 30
0.0
 11
120.3346499393209
 21
176.0138020559611
 31
0.0
  0
LINE
  5
598D
330
57B8
100
AcDbEntity
  8
0
 62
     0
100
AcDbLine
 10
109.5078102216421
 20
186.8406417736398
 30
0.0
 11
108.5078102216422
 21
187.8406417736398
 31
0.0
  0
LINE
  5
598E
330
57B8
100
AcDbEntity
  8
0
 62
     0
100
AcDbLine
 10
121.3346499393209
 20
175.3730123008039
 30
0.0
 11
120.3346499393209
 21
176.3730123008039
 31
0.0
  0
LINE
  5
598F
330
57B8
100
AcDbEntity
  8
0
 62
     0
100
AcDbLine
 10
109.8670204664849
 20
186.8406417736398
 30
0.0
 11
108.8670204664849
 21
187.8406417736398
 31
0.0
  0
LINE
  5
5990
330
57B8
100
AcDbEntity
  8
0
 62
     0
100
AcDbLine
 10
121.3346499393209
 20
175.7322225456466
 30
0.0
 11
120.3346499393209
 21
176.7322225456466
 31
0.0
  0
LINE
  5
5991
330
57B8
100
AcDbEntity
  8
0
 62
     0
100
AcDbLine
 10
110.2262307113277
 20
186.8406417736398
 30
0.0
 11
109.2262307113277
 21
187.8406417736398
 31
0.0
  0
LINE
  5
5992
330
57B8
100
AcDbEntity
  8
0
 62
     0
100
AcDbLine
 10
121.3346499393209
 20
176.0914327904894
 30
0.0
 11
120.3346499393209
 21
177.0914327904894
 31
0.0
  0
LINE
  5
5993
330
57B8
100
AcDbEntity
  8
0
 62
     0
100
AcDbLine
 10
110.5854409561704
 20
186.8406417736398
 30
0.0
 11
109.5854409561705
 21
187.8406417736398
 31
0.0
  0
LINE
  5
5994
330
57B8
100
AcDbEntity
  8
0
 62
     0
100
AcDbLine
 10
121.3346499393209
 20
176.4506430353321
 30
0.0
 11
120.3346499393209
 21
177.4506430353322
 31
0.0
  0
LINE
  5
5995
330
57B8
100
AcDbEntity
  8
0
 62
     0
100
AcDbLine
 10
110.9446512010132
 20
186.8406417736398
 30
0.0
 11
109.9446512010132
 21
187.8406417736398
 31
0.0
  0
LINE
  5
5996
330
57B8
100
AcDbEntity
  8
0
 62
     0
100
AcDbLine
 10
121.3346499393209
 20
176.8098532801749
 30
0.0
 11
120.3346499393209
 21
177.8098532801749
 31
0.0
  0
LINE
  5
5997
330
57B8
100
AcDbEntity
  8
0
 62
     0
100
AcDbLine
 10
111.303861445856
 20
186.8406417736398
 30
0.0
 11
110.303861445856
 21
187.8406417736398
 31
0.0
  0
LINE
  5
5998
330
57B8
100
AcDbEntity
  8
0
 62
     0
100
AcDbLine
 10
121.3346499393209
 20
177.1690635250177
 30
0.0
 11
120.3346499393209
 21
178.1690635250177
 31
0.0
  0
LINE
  5
5999
330
57B8
100
AcDbEntity
  8
0
 62
     0
100
AcDbLine
 10
111.6630716906987
 20
186.8406417736398
 30
0.0
 11
110.6630716906988
 21
187.8406417736398
 31
0.0
  0
LINE
  5
599A
330
57B8
100
AcDbEntity
  8
0
 62
     0
100
AcDbLine
 10
121.3346499393209
 20
177.5282737698605
 30
0.0
 11
120.3346499393209
 21
178.5282737698605
 31
0.0
  0
LINE
  5
599B
330
57B8
100
AcDbEntity
  8
0
 62
     0
100
AcDbLine
 10
112.0222819355415
 20
186.8406417736398
 30
0.0
 11
111.0222819355415
 21
187.8406417736398
 31
0.0
  0
LINE
  5
599C
330
57B8
100
AcDbEntity
  8
0
 62
     0
100
AcDbLine
 10
121.3346499393209
 20
177.8874840147032
 30
0.0
 11
120.3346499393209
 21
178.8874840147032
 31
0.0
  0
LINE
  5
599D
330
57B8
100
AcDbEntity
  8
0
 62
     0
100
AcDbLine
 10
112.3814921803842
 20
186.8406417736398
 30
0.0
 11
111.3814921803843
 21
187.8406417736398
 31
0.0
  0
LINE
  5
599E
330
57B8
100
AcDbEntity
  8
0
 62
     0
100
AcDbLine
 10
121.3346499393209
 20
178.246694259546
 30
0.0
 11
120.3346499393209
 21
179.246694259546
 31
0.0
  0
LINE
  5
599F
330
57B8
100
AcDbEntity
  8
0
 62
     0
100
AcDbLine
 10
112.740702425227
 20
186.8406417736398
 30
0.0
 11
111.7407024252271
 21
187.8406417736398
 31
0.0
  0
LINE
  5
59A0
330
57B8
100
AcDbEntity
  8
0
 62
     0
100
AcDbLine
 10
121.3346499393209
 20
178.6059045043888
 30
0.0
 11
120.3346499393209
 21
179.6059045043888
 31
0.0
  0
LINE
  5
59A1
330
57B8
100
AcDbEntity
  8
0
 62
     0
100
AcDbLine
 10
113.0999126700698
 20
186.8406417736398
 30
0.0
 11
112.0999126700698
 21
187.8406417736398
 31
0.0
  0
LINE
  5
59A2
330
57B8
100
AcDbEntity
  8
0
 62
     0
100
AcDbLine
 10
121.3346499393209
 20
178.9651147492315
 30
0.0
 11
120.3346499393209
 21
179.9651147492315
 31
0.0
  0
LINE
  5
59A3
330
57B8
100
AcDbEntity
  8
0
 62
     0
100
AcDbLine
 10
113.4591229149126
 20
186.8406417736398
 30
0.0
 11
112.4591229149126
 21
187.8406417736398
 31
0.0
  0
LINE
  5
59A4
330
57B8
100
AcDbEntity
  8
0
 62
     0
100
AcDbLine
 10
121.3346499393209
 20
179.3243249940743
 30
0.0
 11
120.3346499393209
 21
180.3243249940743
 31
0.0
  0
LINE
  5
59A5
330
57B8
100
AcDbEntity
  8
0
 62
     0
100
AcDbLine
 10
113.8183331597553
 20
186.8406417736398
 30
0.0
 11
112.8183331597554
 21
187.8406417736398
 31
0.0
  0
LINE
  5
59A6
330
57B8
100
AcDbEntity
  8
0
 62
     0
100
AcDbLine
 10
121.3346499393209
 20
179.683535238917
 30
0.0
 11
120.3346499393209
 21
180.683535238917
 31
0.0
  0
LINE
  5
59A7
330
57B8
100
AcDbEntity
  8
0
 62
     0
100
AcDbLine
 10
114.1775434045981
 20
186.8406417736398
 30
0.0
 11
113.1775434045981
 21
187.8406417736398
 31
0.0
  0
LINE
  5
59A8
330
57B8
100
AcDbEntity
  8
0
 62
     0
100
AcDbLine
 10
121.3346499393209
 20
180.0427454837598
 30
0.0
 11
120.3346499393209
 21
181.0427454837598
 31
0.0
  0
LINE
  5
59A9
330
57B8
100
AcDbEntity
  8
0
 62
     0
100
AcDbLine
 10
114.5367536494408
 20
186.8406417736398
 30
0.0
 11
113.5367536494409
 21
187.8406417736398
 31
0.0
  0
LINE
  5
59AA
330
57B8
100
AcDbEntity
  8
0
 62
     0
100
AcDbLine
 10
121.3346499393209
 20
180.4019557286026
 30
0.0
 11
120.3346499393209
 21
181.4019557286026
 31
0.0
  0
LINE
  5
59AB
330
57B8
100
AcDbEntity
  8
0
 62
     0
100
AcDbLine
 10
114.8959638942836
 20
186.8406417736398
 30
0.0
 11
113.8959638942837
 21
187.8406417736398
 31
0.0
  0
LINE
  5
59AC
330
57B8
100
AcDbEntity
  8
0
 62
     0
100
AcDbLine
 10
121.3346499393209
 20
180.7611659734454
 30
0.0
 11
120.3346499393209
 21
181.7611659734454
 31
0.0
  0
LINE
  5
59AD
330
57B8
100
AcDbEntity
  8
0
 62
     0
100
AcDbLine
 10
115.2551741391264
 20
186.8406417736398
 30
0.0
 11
114.2551741391264
 21
187.8406417736398
 31
0.0
  0
LINE
  5
59AE
330
57B8
100
AcDbEntity
  8
0
 62
     0
100
AcDbLine
 10
121.3346499393209
 20
181.1203762182881
 30
0.0
 11
120.3346499393209
 21
182.1203762182881
 31
0.0
  0
LINE
  5
59AF
330
57B8
100
AcDbEntity
  8
0
 62
     0
100
AcDbLine
 10
115.6143843839691
 20
186.8406417736398
 30
0.0
 11
114.6143843839692
 21
187.8406417736398
 31
0.0
  0
LINE
  5
59B0
330
57B8
100
AcDbEntity
  8
0
 62
     0
100
AcDbLine
 10
121.3346499393209
 20
181.4795864631309
 30
0.0
 11
120.3346499393209
 21
182.4795864631309
 31
0.0
  0
LINE
  5
59B1
330
57B8
100
AcDbEntity
  8
0
 62
     0
100
AcDbLine
 10
115.9735946288119
 20
186.8406417736398
 30
0.0
 11
114.973594628812
 21
187.8406417736398
 31
0.0
  0
LINE
  5
59B2
330
57B8
100
AcDbEntity
  8
0
 62
     0
100
AcDbLine
 10
121.3346499393209
 20
181.8387967079736
 30
0.0
 11
120.3346499393209
 21
182.8387967079736
 31
0.0
  0
LINE
  5
59B3
330
57B8
100
AcDbEntity
  8
0
 62
     0
100
AcDbLine
 10
116.3328048736547
 20
186.8406417736398
 30
0.0
 11
115.3328048736547
 21
187.8406417736398
 31
0.0
  0
LINE
  5
59B4
330
57B8
100
AcDbEntity
  8
0
 62
     0
100
AcDbLine
 10
121.3346499393209
 20
182.1980069528164
 30
0.0
 11
120.3346499393209
 21
183.1980069528164
 31
0.0
  0
LINE
  5
59B5
330
57B8
100
AcDbEntity
  8
0
 62
     0
100
AcDbLine
 10
116.6920151184974
 20
186.8406417736398
 30
0.0
 11
115.6920151184975
 21
187.8406417736398
 31
0.0
  0
LINE
  5
59B6
330
57B8
100
AcDbEntity
  8
0
 62
     0
100
AcDbLine
 10
121.3346499393209
 20
182.5572171976592
 30
0.0
 11
120.3346499393209
 21
183.5572171976592
 31
0.0
  0
LINE
  5
59B7
330
57B8
100
AcDbEntity
  8
0
 62
     0
100
AcDbLine
 10
117.0512253633402
 20
186.8406417736398
 30
0.0
 11
116.0512253633403
 21
187.8406417736398
 31
0.0
  0
LINE
  5
59B8
330
57B8
100
AcDbEntity
  8
0
 62
     0
100
AcDbLine
 10
121.3346499393209
 20
182.916427442502
 30
0.0
 11
120.3346499393209
 21
183.916427442502
 31
0.0
  0
LINE
  5
59B9
330
57B8
100
AcDbEntity
  8
0
 62
     0
100
AcDbLine
 10
117.410435608183
 20
186.8406417736398
 30
0.0
 11
116.410435608183
 21
187.8406417736398
 31
0.0
  0
LINE
  5
59BA
330
57B8
100
AcDbEntity
  8
0
 62
     0
100
AcDbLine
 10
121.3346499393209
 20
183.2756376873447
 30
0.0
 11
120.3346499393209
 21
184.2756376873447
 31
0.0
  0
LINE
  5
59BB
330
57B8
100
AcDbEntity
  8
0
 62
     0
100
AcDbLine
 10
117.7696458530257
 20
186.8406417736398
 30
0.0
 11
116.7696458530258
 21
187.8406417736398
 31
0.0
  0
LINE
  5
59BC
330
57B8
100
AcDbEntity
  8
0
 62
     0
100
AcDbLine
 10
121.3346499393209
 20
183.6348479321875
 30
0.0
 11
120.3346499393209
 21
184.6348479321875
 31
0.0
  0
LINE
  5
59BD
330
57B8
100
AcDbEntity
  8
0
 62
     0
100
AcDbLine
 10
118.1288560978685
 20
186.8406417736398
 30
0.0
 11
117.1288560978686
 21
187.8406417736398
 31
0.0
  0
LINE
  5
59BE
330
57B8
100
AcDbEntity
  8
0
 62
     0
100
AcDbLine
 10
121.3346499393209
 20
183.9940581770303
 30
0.0
 11
120.3346499393209
 21
184.9940581770303
 31
0.0
  0
LINE
  5
59BF
330
57B8
100
AcDbEntity
  8
0
 62
     0
100
AcDbLine
 10
118.4880663427113
 20
186.8406417736398
 30
0.0
 11
117.4880663427113
 21
187.8406417736398
 31
0.0
  0
LINE
  5
59C0
330
57B8
100
AcDbEntity
  8
0
 62
     0
100
AcDbLine
 10
121.3346499393209
 20
184.353268421873
 30
0.0
 11
120.3346499393209
 21
185.353268421873
 31
0.0
  0
LINE
  5
59C1
330
57B8
100
AcDbEntity
  8
0
 62
     0
100
AcDbLine
 10
118.847276587554
 20
186.8406417736398
 30
0.0
 11
117.8472765875541
 21
187.8406417736398
 31
0.0
  0
LINE
  5
59C2
330
57B8
100
AcDbEntity
  8
0
 62
     0
100
AcDbLine
 10
121.3346499393209
 20
184.7124786667158
 30
0.0
 11
120.3346499393209
 21
185.7124786667158
 31
0.0
  0
LINE
  5
59C3
330
57B8
100
AcDbEntity
  8
0
 62
     0
100
AcDbLine
 10
119.2064868323968
 20
186.8406417736398
 30
0.0
 11
118.2064868323969
 21
187.8406417736398
 31
0.0
  0
LINE
  5
59C4
330
57B8
100
AcDbEntity
  8
0
 62
     0
100
AcDbLine
 10
121.3346499393209
 20
185.0716889115585
 30
0.0
 11
120.3346499393209
 21
186.0716889115586
 31
0.0
  0
LINE
  5
59C5
330
57B8
100
AcDbEntity
  8
0
 62
     0
100
AcDbLine
 10
119.5656970772396
 20
186.8406417736398
 30
0.0
 11
118.5656970772396
 21
187.8406417736398
 31
0.0
  0
LINE
  5
59C6
330
57B8
100
AcDbEntity
  8
0
 62
     0
100
AcDbLine
 10
121.3346499393209
 20
185.4308991564013
 30
0.0
 11
120.3346499393209
 21
186.4308991564013
 31
0.0
  0
LINE
  5
59C7
330
57B8
100
AcDbEntity
  8
0
 62
     0
100
AcDbLine
 10
119.9249073220823
 20
186.8406417736398
 30
0.0
 11
118.9249073220824
 21
187.8406417736398
 31
0.0
  0
LINE
  5
59C8
330
57B8
100
AcDbEntity
  8
0
 62
     0
100
AcDbLine
 10
121.3346499393209
 20
185.7901094012441
 30
0.0
 11
120.3346499393209
 21
186.7901094012441
 31
0.0
  0
LINE
  5
59C9
330
57B8
100
AcDbEntity
  8
0
 62
     0
100
AcDbLine
 10
120.2841175669251
 20
186.8406417736398
 30
0.0
 11
119.2841175669252
 21
187.8406417736398
 31
0.0
  0
LINE
  5
59CA
330
57B8
100
AcDbEntity
  8
0
 62
     0
100
AcDbLine
 10
121.3346499393209
 20
186.1493196460869
 30
0.0
 11
119.6433278117679
 21
187.8406417736398
 31
0.0
  0
LINE
  5
59CB
330
57B8
100
AcDbEntity
  8
0
 62
     0
100
AcDbLine
 10
121.3346499393209
 20
186.5085298909296
 30
0.0
 11
120.0025380566107
 21
187.8406417736398
 31
0.0
  0
LINE
  5
59CC
330
57B8
100
AcDbEntity
  8
0
 62
     0
100
AcDbLine
 10
121.3346499393209
 20
186.8677401357724
 30
0.0
 11
120.3617483014535
 21
187.8406417736398
 31
0.0
  0
LINE
  5
59CD
330
57B8
100
AcDbEntity
  8
0
 62
     0
100
AcDbLine
 10
121.3346499393209
 20
187.2269503806151
 30
0.0
 11
120.7209585462962
 21
187.8406417736398
 31
0.0
  0
LINE
  5
59CE
330
57B8
100
AcDbEntity
  8
0
 62
     0
100
AcDbLine
 10
121.3346499393209
 20
187.5861606254579
 30
0.0
 11
121.080168791139
 21
187.8406417736398
 31
0.0
  0
ENDBLK
  5
59D0
330
57B8
100
AcDbEntity
  8
0
100
AcDbBlockEnd
  0
BLOCK
  5
9CEC
330
9CDE
100
AcDbEntity
  8
0
100
AcDbBlockBegin
  2
*X3
 70
     1
 10
0.0
 20
0.0
 30
0.0
  3
*X3
  1

  0
LINE
  5
9CDF
330
9CDE
100
AcDbEntity
  8
0
 62
     0
100
AcDbLine
 10
50.3651548004718
 20
80.0
 30
0.0
 11
53.0
 21
82.6348451995282
 31
0.0
  0
LINE
  5
9CE0
330
9CDE
100
AcDbEntity
  8
0
 62
     0
100
AcDbLine
 10
50.0
 20
80.08385800558166
 30
0.0
 11
52.91614199441834
 21
83.0
 31
0.0
  0
LINE
  5
9CE1
330
9CDE
100
AcDbEntity
  8
0
 62
     0
100
AcDbLine
 10
50.0
 20
80.53287081163512
 30
0.0
 11
52.46712918836488
 21
83.0
 31
0.0
  0
LINE
  5
9CE2
330
9CDE
100
AcDbEntity
  8
0
 62
     0
100
AcDbLine
 10
50.0
 20
80.98188361768858
 30
0.0
 11
52.01811638231142
 21
83.0
 31
0.0
  0
LINE
  5
9CE3
330
9CDE
100
AcDbEntity
  8
0
 62
     0
100
AcDbLine
 10
50.0
 20
81.43089642374203
 30
0.0
 11
51.56910357625797
 21
83.0
 31
0.0
  0
LINE
  5
9CE4
330
9CDE
100
AcDbEntity
  8
0
 62
     0
100
AcDbLine
 10
50.0
 20
81.87990922979549
 30
0.0
 11
51.12009077020451
 21
83.0
 31
0.0
  0
LINE
  5
9CE5
330
9CDE
100
AcDbEntity
  8
0
 62
     0
100
AcDbLine
 10
50.0
 20
82.32892203584894
 30
0.0
 11
50.67107796415105
 21
83.0
 31
0.0
  0
LINE
  5
9CE6
330
9CDE
100
AcDbEntity
  8
0
 62
     0
100
AcDbLine
 10
50.0
 20
82.7779348419024
 30
0.0
 11
50.22206515809759
 21
83.0
 31
0.0
  0
LINE
  5
9CE7
330
9CDE
100
AcDbEntity
  8
0
 62
     0
100
AcDbLine
 10
50.81416760652525
 20
80.0
 30
0.0
 11
53.0
 21
82.18583239347474
 31
0.0
  0
LINE
  5
9CE8
330
9CDE
100
AcDbEntity
  8
0
 62
     0
100
AcDbLine
 10
51.26318041257871
 20
80.0
 30
0.0
 11
53.0
 21
81.73681958742129
 31
0.0
  0
LINE
  5
9CE9
330
9CDE
100
AcDbEntity
  8
0
 62
     0
100
AcDbLine
 10
51.71219321863217
 20
80.0
 30
0.0
 11
53.0
 21
81.28780678136783
 31
0.0
  0
LINE
  5
9CEA
330
9CDE
100
AcDbEntity
  8
0
 62
     0
100
AcDbLine
 10
52.16120602468563
 20
80.0
 30
0.0
 11
53.0
 21
80.83879397531438
 31
0.0
  0
LINE
  5
9CEB
330
9CDE
100
AcDbEntity
  8
0
 62
     0
100
AcDbLine
 10
52.61021883073908
 20
80.0
 30
0.0
 11
53.0
 21
80.38978116926092
 31
0.0
  0
ENDBLK
  5
9CED
330
9CDE
100
AcDbEntity
  8
0
100
AcDbBlockEnd
  0
BLOCK
  5
9E85
330
9E4F
100
AcDbEntity
  8
0
100
AcDbBlockBegin
  2
*D4
 70
     1
 10
0.0
 20
0.0
 30
0.0
  3
*D4
  1

  0
LINE
  5
A437
330
9E4F
100
AcDbEntity
  8
QUOTE
370
    -2
100
AcDbLine
 10
829.7335766237686
 20
-738.3687047604581
 30
0.0
 11
829.7335766237686
 21
-718.1261724397487
 31
0.0
  0
LINE
  5
A438
330
9E4F
100
AcDbEntity
  8
QUOTE
370
    -2
100
AcDbLine
 10
849.7335766237686
 20
-739.3240741658701
 30
0.0
 11
849.7335766237686
 21
-718.1261724397487
 31
0.0
  0
LINE
  5
A439
330
9E4F
100
AcDbEntity
  8
QUOTE
370
    -2
100
AcDbLine
 10
829.7335766237686
 20
-718.1261724397487
 30
0.0
 11
849.7335766237686
 21
-718.1261724397487
 31
0.0
  0
INSERT
  5
A43A
330
9E4F
100
AcDbEntity
  8
QUOTE
370
    -2
100
AcDbBlockReference
  2
_Oblique
 10
829.7335766237686
 20
-718.1261724397487
 30
0.0
 41
2.0
 42
2.0
 43
2.0
 50
180.0
  0
INSERT
  5
A43B
330
9E4F
100
AcDbEntity
  8
QUOTE
370
    -2
100
AcDbBlockReference
  2
_Oblique
 10
849.7335766237686
 20
-718.1261724397487
 30
0.0
 41
2.0
 42
2.0
 43
2.0
  0
MTEXT
  5
A43C
330
9E4F
100
AcDbEntity
  8
QUOTE
100
AcDbMText
 10
839.7335766237686
 20
-712.7928391064152
 30
0.0
 40
5.0
 41
0.0
 71
     5
 72
     1
  1
\A1;20 dal massimo ingombro interno
 73
     1
 44
1.0
1001
ACAD
1000
MTEXTBEGIN
1070
    73
1070
     1
1070
    44
1040
1.0
1070
    74
1070
     0
1000
MTEXTEND
  0
POINT
  5
A43D
330
9E4F
100
AcDbEntity
  8
DEFPOINTS
 62
     0
100
AcDbPoint
 10
829.7335766237686
 20
-741.3687047604581
 30
0.0
  0
POINT
  5
A43E
330
9E4F
100
AcDbEntity
  8
DEFPOINTS
 62
     0
100
AcDbPoint
 10
849.7335766237686
 20
-742.3240741658701
 30
0.0
  0
POINT
  5
A43F
330
9E4F
100
AcDbEntity
  8
DEFPOINTS
 62
     0
100
AcDbPoint
 10
849.7335766237686
 20
-718.1261724397487
 30
0.0
  0
ENDBLK
  5
9E8F
330
9E4F
100
AcDbEntity
  8
0
100
AcDbBlockEnd
  0
BLOCK
  5
9EA3
330
9E94
100
AcDbEntity
  8
0
100
AcDbBlockBegin
  2
*D5
 70
     1
 10
0.0
 20
0.0
 30
0.0
  3
*D5
  1

  0
LINE
  5
A449
330
9E94
100
AcDbEntity
  8
QUOTE
370
    -2
100
AcDbLine
 10
856.1065312022225
 20
-987.4274531804003
 30
0.0
 11
855.1986397781119
 21
-987.4274531804003
 31
0.0
  0
LINE
  5
A44A
330
9E94
100
AcDbEntity
  8
QUOTE
370
    -2
100
AcDbLine
 10
864.7295284795744
 20
-977.4325133606437
 30
0.0
 11
855.1986397781119
 21
-977.4325133606437
 31
0.0
  0
LINE
  5
A44B
330
9E94
100
AcDbEntity
  8
QUOTE
370
    -2
100
AcDbLine
 10
855.1986397781119
 20
-987.4274531804003
 30
0.0
 11
855.1986397781119
 21
-977.4325133606437
 31
0.0
  0
INSERT
  5
A44C
330
9E94
100
AcDbEntity
  8
QUOTE
370
    -2
100
AcDbBlockReference
  2
_Oblique
 10
855.1986397781119
 20
-987.4274531804003
 30
0.0
 41
2.0
 42
2.0
 43
2.0
 50
270.0
  0
INSERT
  5
A44D
330
9E94
100
AcDbEntity
  8
QUOTE
370
    -2
100
AcDbBlockReference
  2
_Oblique
 10
855.1986397781119
 20
-977.4325133606437
 30
0.0
 41
2.0
 42
2.0
 43
2.0
 50
90.0
  0
MTEXT
  5
A44E
330
9E94
100
AcDbEntity
  8
QUOTE
100
AcDbMText
 10
850.6986397781121
 20
-982.4299832705216
 30
0.0
 40
5.0
 41
0.0
 71
     5
 72
     1
  1
\A1;10
 11
0.0000000000000001
 21
1.0
 31
0.0
 73
     1
 44
1.0
1001
ACAD
1000
MTEXTBEGIN
1070
    73
1070
     1
1070
    44
1040
1.0
1070
    74
1070
     0
1000
MTEXTEND
  0
POINT
  5
A44F
330
9E94
100
AcDbEntity
  8
DEFPOINTS
 62
     0
100
AcDbPoint
 10
859.1065312022227
 20
-987.4274531804003
 30
0.0
  0
POINT
  5
A450
330
9E94
100
AcDbEntity
  8
DEFPOINTS
 62
     0
100
AcDbPoint
 10
867.7295284795743
 20
-977.4325133606437
 30
0.0
  0
POINT
  5
A451
330
9E94
100
AcDbEntity
  8
DEFPOINTS
 62
     0
100
AcDbPoint
 10
855.1986397781119
 20
-977.4325133606437
 30
0.0
  0
ENDBLK
  5
9EAF
330
9E94
100
AcDbEntity
  8
0
100
AcDbBlockEnd
  0
BLOCK
  5
9F1A
330
9EF4
100
AcDbEntity
  8
0
100
AcDbBlockBegin
  2
*D6
 70
     1
 10
0.0
 20
0.0
 30
0.0
  3
*D6
  1

  0
LINE
  5
A452
330
9EF4
100
AcDbEntity
  8
QUOTE
370
    -2
100
AcDbLine
 10
1031.67011842917
 20
-977.4325133606435
 30
0.0
 11
1049.048548566353
 21
-977.4325133606435
 31
0.0
  0
LINE
  5
A453
330
9EF4
100
AcDbEntity
  8
QUOTE
370
    -2
100
AcDbLine
 10
906.4066058630729
 20
-946.9499709824823
 30
0.0
 11
1049.048548566353
 21
-946.9499709824823
 31
0.0
  0
LINE
  5
A454
330
9EF4
100
AcDbEntity
  8
QUOTE
370
    -2
100
AcDbLine
 10
1049.048548566353
 20
-977.4325133606435
 30
0.0
 11
1049.048548566353
 21
-946.9499709824823
 31
0.0
  0
INSERT
  5
A455
330
9EF4
100
AcDbEntity
  8
QUOTE
370
    -2
100
AcDbBlockReference
  2
_Oblique
 10
1049.048548566353
 20
-977.4325133606435
 30
0.0
 41
2.0
 42
2.0
 43
2.0
 50
270.0
  0
INSERT
  5
A456
330
9EF4
100
AcDbEntity
  8
QUOTE
370
    -2
100
AcDbBlockReference
  2
_Oblique
 10
1049.048548566353
 20
-946.9499709824823
 30
0.0
 41
2.0
 42
2.0
 43
2.0
 50
90.0
  0
MTEXT
  5
A457
330
9EF4
100
AcDbEntity
  8
QUOTE
100
AcDbMText
 10
1044.548548566353
 20
-962.1912421715627
 30
0.0
 40
5.0
 41
0.0
 71
     5
 72
     1
  1
\A1;30
 11
0.0000000000000001
 21
1.0
 31
0.0
 73
     1
 44
1.0
1001
ACAD
1000
MTEXTBEGIN
1070
    73
1070
     1
1070
    44
1040
1.0
1070
    74
1070
     0
1000
MTEXTEND
  0
POINT
  5
A458
330
9EF4
100
AcDbEntity
  8
DEFPOINTS
 62
     0
100
AcDbPoint
 10
1028.67011842917
 20
-977.4325133606435
 30
0.0
  0
POINT
  5
A459
330
9EF4
100
AcDbEntity
  8
DEFPOINTS
 62
     0
100
AcDbPoint
 10
903.4066058630727
 20
-946.9499709824823
 30
0.0
  0
POINT
  5
A45A
330
9EF4
100
AcDbEntity
  8
DEFPOINTS
 62
     0
100
AcDbPoint
 10
1049.048548566353
 20
-946.9499709824823
 30
0.0
  0
ENDBLK
  5
9F24
330
9EF4
100
AcDbEntity
  8
0
100
AcDbBlockEnd
  0
BLOCK
  5
9F73
330
9F68
100
AcDbEntity
  8
0
100
AcDbBlockBegin
  2
*D7
 70
     1
 10
0.0
 20
0.0
 30
0.0
  3
*D7
  1

  0
LINE
  5
A440
330
9F68
100
AcDbEntity
  8
QUOTE
370
    -2
100
AcDbLine
 10
867.6701184291699
 20
-974.4325133606434
 30
0.0
 11
867.6701184291699
 21
-959.7297426347594
 31
0.0
  0
LINE
  5
A441
330
9F68
100
AcDbEntity
  8
QUOTE
370
    -2
100
AcDbLine
 10
829.7335766237685
 20
-961.182810438593
 30
0.0
 11
829.7335766237685
 21
-959.7297426347594
 31
0.0
  0
LINE
  5
A442
330
9F68
100
AcDbEntity
  8
QUOTE
370
    -2
100
AcDbLine
 10
867.6701184291699
 20
-959.7297426347594
 30
0.0
 11
829.7335766237685
 21
-959.7297426347594
 31
0.0
  0
INSERT
  5
A443
330
9F68
100
AcDbEntity
  8
QUOTE
370
    -2
100
AcDbBlockReference
  2
_Oblique
 10
867.6701184291699
 20
-959.7297426347594
 30
0.0
 41
2.0
 42
2.0
 43
2.0
  0
INSERT
  5
A444
330
9F68
100
AcDbEntity
  8
QUOTE
370
    -2
100
AcDbBlockReference
  2
_Oblique
 10
829.7335766237685
 20
-959.7297426347594
 30
0.0
 41
2.0
 42
2.0
 43
2.0
 50
180.0
  0
MTEXT
  5
A445
330
9F68
100
AcDbEntity
  8
QUOTE
100
AcDbMText
 10
848.7018475264692
 20
-955.2297426347594
 30
0.0
 40
5.0
 41
0.0
 71
     5
 72
     1
  1
\A1;40
 73
     1
 44
1.0
1001
ACAD
1000
MTEXTBEGIN
1070
    73
1070
     1
1070
    44
1040
1.0
1070
    74
1070
     0
1000
MTEXTEND
  0
POINT
  5
A446
330
9F68
100
AcDbEntity
  8
DEFPOINTS
 62
     0
100
AcDbPoint
 10
867.6701184291699
 20
-977.4325133606433
 30
0.0
  0
POINT
  5
A447
330
9F68
100
AcDbEntity
  8
DEFPOINTS
 62
     0
100
AcDbPoint
 10
829.7335766237685
 20
-958.1828104385929
 30
0.0
  0
POINT
  5
A448
330
9F68
100
AcDbEntity
  8
DEFPOINTS
 62
     0
100
AcDbPoint
 10
829.7335766237685
 20
-959.7297426347594
 30
0.0
  0
ENDBLK
  5
9F74
330
9F68
100
AcDbEntity
  8
0
100
AcDbBlockEnd
  0
BLOCK
  5
9FB6
330
9FB4
100
AcDbEntity
  8
0
100
AcDbBlockBegin
  2
_Oblique
 70
     0
 10
0.0
 20
0.0
 30
0.0
  3
_Oblique
  1

  0
LINE
  5
9FB5
330
9FB4
100
AcDbEntity
  8
QUOTE
 62
     0
370
    -2
100
AcDbLine
 10
-0.5
 20
-0.5
 30
0.0
 11
0.5
 21
0.5
 31
0.0
  0
ENDBLK
  5
9FB7
330
9FB4
100
AcDbEntity
  8
0
100
AcDbBlockEnd
  0
BLOCK
  5
A018
330
A00E
100
AcDbEntity
  8
0
100
AcDbBlockBegin
  2
*D9
 70
     1
 10
0.0
 20
0.0
 30
0.0
  3
*D9
  1

  0
LINE
  5
A464
330
A00E
100
AcDbEntity
  8
QUOTE
370
    -2
100
AcDbLine
 10
936.6212965025487
 20
-934.7542674384492
 30
0.0
 11
936.6212965025487
 21
-937.6806858222808
 31
0.0
  0
LINE
  5
A465
330
A00E
100
AcDbEntity
  8
QUOTE
370
    -2
100
AcDbLine
 10
956.6111761420629
 20
-934.7542674384492
 30
0.0
 11
956.6111761420629
 21
-937.6806858222808
 31
0.0
  0
LINE
  5
A466
330
A00E
100
AcDbEntity
  8
QUOTE
370
    -2
100
AcDbLine
 10
936.6212965025487
 20
-937.6806858222808
 30
0.0
 11
956.6111761420629
 21
-937.6806858222808
 31
0.0
  0
INSERT
  5
A467
330
A00E
100
AcDbEntity
  8
QUOTE
370
    -2
100
AcDbBlockReference
  2
_Oblique
 10
936.6212965025487
 20
-937.6806858222808
 30
0.0
 41
2.0
 42
2.0
 43
2.0
 50
180.0
  0
INSERT
  5
A468
330
A00E
100
AcDbEntity
  8
QUOTE
370
    -2
100
AcDbBlockReference
  2
_Oblique
 10
956.6111761420629
 20
-937.6806858222808
 30
0.0
 41
2.0
 42
2.0
 43
2.0
  0
MTEXT
  5
A469
330
A00E
100
AcDbEntity
  8
QUOTE
100
AcDbMText
 10
946.6162363223057
 20
-933.1806858222808
 30
0.0
 40
5.0
 41
0.0
 71
     5
 72
     1
  1
\A1;D=20
 73
     1
 44
1.0
1001
ACAD
1000
MTEXTBEGIN
1070
    73
1070
     1
1070
    44
1040
1.0
1070
    74
1070
     0
1000
MTEXTEND
  0
POINT
  5
A46A
330
A00E
100
AcDbEntity
  8
DEFPOINTS
 62
     0
100
AcDbPoint
 10
936.6212965025487
 20
-937.7542674384491
 30
0.0
  0
POINT
  5
A46B
330
A00E
100
AcDbEntity
  8
DEFPOINTS
 62
     0
100
AcDbPoint
 10
956.6111761420629
 20
-937.7542674384491
 30
0.0
  0
POINT
  5
A46C
330
A00E
100
AcDbEntity
  8
DEFPOINTS
 62
     0
100
AcDbPoint
 10
956.6111761420629
 20
-937.6806858222808
 30
0.0
  0
ENDBLK
  5
A019
330
A00E
100
AcDbEntity
  8
0
100
AcDbBlockEnd
  0
BLOCK
  5
A038
330
A02E
100
AcDbEntity
  8
0
100
AcDbBlockBegin
  2
*D10
 70
     1
 10
0.0
 20
0.0
 30
0.0
  3
*D10
  1

  0
LINE
  5
A46D
330
A02E
100
AcDbEntity
  8
QUOTE
370
    -2
100
AcDbLine
 10
964.6086460519413
 20
-920.3555252662345
 30
0.0
 11
984.4045780750281
 21
-920.3555252662345
 31
0.0
  0
LINE
  5
A46E
330
A02E
100
AcDbEntity
  8
QUOTE
370
    -2
100
AcDbLine
 10
964.6086460519413
 20
-832.400054852374
 30
0.0
 11
984.4045780750281
 21
-832.400054852374
 31
0.0
  0
LINE
  5
A46F
330
A02E
100
AcDbEntity
  8
QUOTE
370
    -2
100
AcDbLine
 10
984.4045780750281
 20
-920.3555252662345
 30
0.0
 11
984.4045780750281
 21
-832.400054852374
 31
0.0
  0
INSERT
  5
A470
330
A02E
100
AcDbEntity
  8
QUOTE
370
    -2
100
AcDbBlockReference
  2
_Oblique
 10
984.4045780750281
 20
-920.3555252662345
 30
0.0
 41
2.0
 42
2.0
 43
2.0
 50
270.0
  0
INSERT
  5
A471
330
A02E
100
AcDbEntity
  8
QUOTE
370
    -2
100
AcDbBlockReference
  2
_Oblique
 10
984.4045780750281
 20
-832.400054852374
 30
0.0
 41
2.0
 42
2.0
 43
2.0
 50
90.0
  0
MTEXT
  5
A472
330
A02E
100
AcDbEntity
  8
QUOTE
100
AcDbMText
 10
979.9045780750283
 20
-876.3777900593041
 30
0.0
 40
5.0
 41
0.0
 71
     5
 72
     1
  1
\A1;88
 11
0.0000000000000001
 21
1.0
 31
0.0
 73
     1
 44
1.0
1001
ACAD
1000
MTEXTBEGIN
1070
    73
1070
     1
1070
    44
1040
1.0
1070
    74
1070
     0
1000
MTEXTEND
  0
POINT
  5
A473
330
A02E
100
AcDbEntity
  8
DEFPOINTS
 62
     0
100
AcDbPoint
 10
961.6086460519412
 20
-920.3555252662345
 30
0.0
  0
POINT
  5
A474
330
A02E
100
AcDbEntity
  8
DEFPOINTS
 62
     0
100
AcDbPoint
 10
961.6086460519412
 20
-832.400054852374
 30
0.0
  0
POINT
  5
A475
330
A02E
100
AcDbEntity
  8
DEFPOINTS
 62
     0
100
AcDbPoint
 10
984.4045780750281
 20
-832.400054852374
 30
0.0
  0
ENDBLK
  5
A039
330
A02E
100
AcDbEntity
  8
0
100
AcDbBlockEnd
  0
BLOCK
  5
A045
330
A03B
100
AcDbEntity
  8
0
100
AcDbBlockBegin
  2
*D11
 70
     1
 10
0.0
 20
0.0
 30
0.0
  3
*D11
  1

  0
LINE
  5
A476
330
A03B
100
AcDbEntity
  8
QUOTE
370
    -2
100
AcDbLine
 10
901.7074660937142
 20
-826.9102534538767
 30
0.0
 11
901.7074660937142
 21
-817.289544917696
 31
0.0
  0
LINE
  5
A477
330
A03B
100
AcDbEntity
  8
QUOTE
370
    -2
100
AcDbLine
 10
946.67011842917
 20
-819.5076740496379
 30
0.0
 11
946.67011842917
 21
-817.289544917696
 31
0.0
  0
LINE
  5
A478
330
A03B
100
AcDbEntity
  8
QUOTE
370
    -2
100
AcDbLine
 10
901.7074660937142
 20
-817.289544917696
 30
0.0
 11
946.67011842917
 21
-817.289544917696
 31
0.0
  0
INSERT
  5
A479
330
A03B
100
AcDbEntity
  8
QUOTE
370
    -2
100
AcDbBlockReference
  2
_Oblique
 10
901.7074660937142
 20
-817.289544917696
 30
0.0
 41
2.0
 42
2.0
 43
2.0
 50
180.0
  0
INSERT
  5
A47A
330
A03B
100
AcDbEntity
  8
QUOTE
370
    -2
100
AcDbBlockReference
  2
_Oblique
 10
946.67011842917
 20
-817.289544917696
 30
0.0
 41
2.0
 42
2.0
 43
2.0
  0
MTEXT
  5
A47B
330
A03B
100
AcDbEntity
  8
QUOTE
100
AcDbMText
 10
924.1887922614422
 20
-812.7895449176961
 30
0.0
 40
5.0
 41
0.0
 71
     5
 72
     1
  1
\A1;45
 73
     1
 44
1.0
1001
ACAD
1000
MTEXTBEGIN
1070
    73
1070
     1
1070
    44
1040
1.0
1070
    74
1070
     0
1000
MTEXTEND
  0
POINT
  5
A47C
330
A03B
100
AcDbEntity
  8
DEFPOINTS
 62
     0
100
AcDbPoint
 10
901.7074660937142
 20
-829.9102534538766
 30
0.0
  0
POINT
  5
A47D
330
A03B
100
AcDbEntity
  8
DEFPOINTS
 62
     0
100
AcDbPoint
 10
946.67011842917
 20
-822.5076740496378
 30
0.0
  0
POINT
  5
A47E
330
A03B
100
AcDbEntity
  8
DEFPOINTS
 62
     0
100
AcDbPoint
 10
946.67011842917
 20
-817.289544917696
 30
0.0
  0
ENDBLK
  5
A046
330
A03B
100
AcDbEntity
  8
0
100
AcDbBlockEnd
  0
BLOCK
  5
A07E
330
A074
100
AcDbEntity
  8
0
100
AcDbBlockBegin
  2
*D12
 70
     1
 10
0.0
 20
0.0
 30
0.0
  3
*D12
  1

  0
LINE
  5
A45B
330
A074
100
AcDbEntity
  8
QUOTE
370
    -2
100
AcDbLine
 10
926.1244429907927
 20
-969.1444073042505
 30
0.0
 11
926.1244429907927
 21
-972.1444073042505
 31
0.0
  0
LINE
  5
A45C
330
A074
100
AcDbEntity
  8
QUOTE
370
    -2
100
AcDbLine
 10
967.2190037849675
 20
-969.1444073042505
 30
0.0
 11
967.2190037849675
 21
-972.1444073042505
 31
0.0
  0
LINE
  5
A45D
330
A074
100
AcDbEntity
  8
QUOTE
370
    -2
100
AcDbLine
 10
926.1244429907927
 20
-972.1444073042505
 30
0.0
 11
967.2190037849675
 21
-972.1444073042505
 31
0.0
  0
INSERT
  5
A45E
330
A074
100
AcDbEntity
  8
QUOTE
370
    -2
100
AcDbBlockReference
  2
_Oblique
 10
926.1244429907927
 20
-972.1444073042505
 30
0.0
 41
2.0
 42
2.0
 43
2.0
 50
180.0
  0
INSERT
  5
A45F
330
A074
100
AcDbEntity
  8
QUOTE
370
    -2
100
AcDbBlockReference
  2
_Oblique
 10
967.2190037849675
 20
-972.1444073042505
 30
0.0
 41
2.0
 42
2.0
 43
2.0
  0
MTEXT
  5
A460
330
A074
100
AcDbEntity
  8
QUOTE
100
AcDbMText
 10
946.67011842917
 20
-967.6444073042505
 30
0.0
 40
5.0
 41
0.0
 71
     5
 72
     1
  1
\A1;41
 73
     1
 44
1.0
1001
ACAD
1000
MTEXTBEGIN
1070
    73
1070
     1
1070
    44
1040
1.0
1070
    74
1070
     0
1000
MTEXTEND
  0
POINT
  5
A461
330
A074
100
AcDbEntity
  8
DEFPOINTS
 62
     0
100
AcDbPoint
 10
926.1244429907927
 20
-972.1444073042505
 30
0.0
  0
POINT
  5
A462
330
A074
100
AcDbEntity
  8
DEFPOINTS
 62
     0
100
AcDbPoint
 10
967.2190037849675
 20
-972.1444073042505
 30
0.0
  0
POINT
  5
A463
330
A074
100
AcDbEntity
  8
DEFPOINTS
 62
     0
100
AcDbPoint
 10
967.2190037849675
 20
-972.1444073042505
 30
0.0
  0
ENDBLK
  5
A07F
330
A074
100
AcDbEntity
  8
0
100
AcDbBlockEnd
  0
BLOCK
  5
A133
330
A129
100
AcDbEntity
  8
0
100
AcDbBlockBegin
  2
*D13
 70
     1
 10
0.0
 20
0.0
 30
0.0
  3
*D13
  1

  0
LINE
  5
A42E
330
A129
100
AcDbEntity
  8
QUOTE
370
    -2
100
AcDbLine
 10
901.7074660937142
 20
-739.1966569276375
 30
0.0
 11
901.7074660937142
 21
-732.7221782551316
 31
0.0
  0
LINE
  5
A42F
330
A129
100
AcDbEntity
  8
QUOTE
370
    -2
100
AcDbLine
 10
849.7335766237686
 20
-739.1966569276375
 30
0.0
 11
849.7335766237686
 21
-732.7221782551316
 31
0.0
  0
LINE
  5
A430
330
A129
100
AcDbEntity
  8
QUOTE
370
    -2
100
AcDbLine
 10
901.7074660937142
 20
-732.7221782551316
 30
0.0
 11
849.7335766237686
 21
-732.7221782551316
 31
0.0
  0
INSERT
  5
A431
330
A129
100
AcDbEntity
  8
QUOTE
370
    -2
100
AcDbBlockReference
  2
_Oblique
 10
901.7074660937142
 20
-732.7221782551316
 30
0.0
 41
2.0
 42
2.0
 43
2.0
  0
INSERT
  5
A432
330
A129
100
AcDbEntity
  8
QUOTE
370
    -2
100
AcDbBlockReference
  2
_Oblique
 10
849.7335766237686
 20
-732.7221782551316
 30
0.0
 41
2.0
 42
2.0
 43
2.0
 50
180.0
  0
MTEXT
  5
A433
330
A129
100
AcDbEntity
  8
QUOTE
100
AcDbMText
 10
875.7205213587415
 20
-728.2221782551316
 30
0.0
 40
5.0
 41
0.0
 71
     5
 72
     1
  1
\A1;52
 73
     1
 44
1.0
1001
ACAD
1000
MTEXTBEGIN
1070
    73
1070
     1
1070
    44
1040
1.0
1070
    74
1070
     0
1000
MTEXTEND
  0
POINT
  5
A434
330
A129
100
AcDbEntity
  8
DEFPOINTS
 62
     0
100
AcDbPoint
 10
901.7074660937142
 20
-742.1966569276374
 30
0.0
  0
POINT
  5
A435
330
A129
100
AcDbEntity
  8
DEFPOINTS
 62
     0
100
AcDbPoint
 10
849.7335766237686
 20
-742.1966569276374
 30
0.0
  0
POINT
  5
A436
330
A129
100
AcDbEntity
  8
DEFPOINTS
 62
     0
100
AcDbPoint
 10
849.7335766237686
 20
-732.7221782551316
 30
0.0
  0
ENDBLK
  5
A134
330
A129
100
AcDbEntity
  8
0
100
AcDbBlockEnd
  0
BLOCK
  5
A502
330
A4FB
100
AcDbEntity
  8
0
100
AcDbBlockBegin
  2
A$C75EC7B59
 70
     0
 10
0.0
 20
0.0
 30
0.0
  3
A$C75EC7B59
  1

  0
HATCH
  5
A4FC
330
A4FB
100
AcDbEntity
  8
AREA166
 62
   250
100
AcDbHatch
 10
0.0
 20
0.0
 30
0.0
210
0.0
220
0.0
230
1.0
  2
HOUND
 70
     0
 71
     0
 91
        1
 92
        5
 93
        9
 72
     1
 10
55.4916340891823
 20
86.33818718036593
 11
9.800000000000295
 21
153.6347096119265
 72
     1
 10
9.800000000000295
 20
153.6347096119265
 11
9.80000000000011
 21
202.8108982278999
 72
     4
 94
        3
 73
     0
 74
     0
 95
        9
 96
        5
 40
0.0
 40
0.0
 40
0.0
 40
0.0
 40
5.482628619249046
 40
10.8696461476783
 40
10.8696461476783
 40
10.8696461476783
 40
10.8696461476783
 10
9.800000000000096
 20
202.8108982278999
 10
8.335447150298946
 20
201.5741260522893
 10
5.431881662581147
 20
199.1221496650901
 10
1.666252869520477
 20
199.6073777215
 10
-0.1999999999999034
 20
199.8478576791409
 72
     1
 10
-0.1999999999999176
 20
199.8478576791409
 11
-0.199999999999946
 21
150.2373935336793
 72
     1
 10
-0.199999999999946
 20
150.2373935336793
 11
45.4916340891823
 21
82.9408711021184
 72
     1
 10
45.4916340891823
 20
82.94087110211842
 11
45.4916340891823
 21
-55.0
 72
     1
 10
45.4916340891823
 20
-55.0
 11
50.4916340891823
 21
-55.0
 72
     2
 10
50.4916340891823
 20
-50.0
 40
5.0
 50
270.0
 51
360.0
 73
     1
 72
     1
 10
55.4916340891823
 20
-50.0
 11
55.4916340891823
 21
86.33818718036593
 97
        0
 75
     0
 76
     1
 52
0.0
 41
2.0
 77
     0
 78
     2
 53
0.0
 43
74.28264187699051
 44
113.9192530225915
 45
12.7
 46
3.174999999999999
 79
     2
 49
50.8
 49
-25.4
 53
90.0
 43
74.28264187699051
 44
113.9192530225915
 45
-3.175
 46
-12.7
 79
     2
 49
50.8
 49
-25.4
 47
0.6065360849455869
 98
        1
 10
49.37433654119832
 20
59.18044112236032
  0
SPLINE
  5
A4FD
330
A4FB
100
AcDbEntity
  8
FERRO
100
AcDbSpline
210
0.0
220
0.0
230
1.0
 70
  1064
 71
     3
 72
     9
 73
     5
 74
     3
 42
0.000000001
 43
0.0000000001
 44
0.0000000001
 40
0.0
 40
0.0
 40
0.0
 40
0.0
 40
5.387017528429254
 40
10.8696461476783
 40
10.8696461476783
 40
10.8696461476783
 40
10.8696461476783
 10
-0.1999999999999034
 20
199.8478576791409
 30
0.0
 10
1.666252869520476
 20
199.6073777215
 30
0.0
 10
5.431881662581156
 20
199.1221496650901
 30
0.0
 10
8.335447150298946
 20
201.5741260522893
 30
0.0
 10
9.800000000000096
 20
202.8108982278999
 30
0.0
 11
-0.1999999999999034
 21
199.8478576791409
 31
0.0
 11
5.18701752842935
 21
199.8478576791409
 31
0.0
 11
9.800000000000096
 21
202.8108982278999
 31
0.0
  0
LINE
  5
A4FE
330
A4FB
100
AcDbEntity
  8
AREA166
 62
   250
100
AcDbLine
 10
9.800000000000125
 20
202.8108982278999
 30
0.0
 11
9.800000000000295
 21
153.6347096119265
 31
0.0
  0
LINE
  5
A4FF
330
A4FB
100
AcDbEntity
  8
AREA166
 62
   250
100
AcDbLine
 10
-0.1999999999999318
 20
199.8478576791409
 30
0.0
 11
-0.1999999999999318
 21
150.2373935336793
 31
0.0
  0
LWPOLYLINE
  5
A500
330
A4FB
100
AcDbEntity
  8
AREA166
 62
   250
100
AcDbPolyline
 90
        3
 70
     0
 43
0.0
 10
45.4916340891823
 20
-55.0
 10
45.4916340891823
 20
82.9408711021184
 10
-0.1999999999999318
 20
150.2373935336793
  0
LWPOLYLINE
  5
A501
330
A4FB
100
AcDbEntity
  8
AREA166
 62
   250
100
AcDbPolyline
 90
        5
 70
     0
 43
0.0
 10
45.4916340891823
 20
-55.0
 10
50.4916340891823
 20
-55.0
 42
0.4142135623730951
 10
55.4916340891823
 20
-50.0
 10
55.4916340891823
 20
86.33818718036593
 10
9.800000000000295
 20
153.6347096119265
  0
ENDBLK
  5
A503
330
A4FB
100
AcDbEntity
  8
0
100
AcDbBlockEnd
  0
ENDSEC
  0
SECTION
  2
ENTITIES
  0
LWPOLYLINE
  5
4A6
330
18
100
AcDbEntity
  8
AREA
 62
     2
100
AcDbPolyline
 90
        2
 70
     0
 43
0.0
 10
901.5246258451272
 20
-940.5496558384069
 10
901.5246258451272
 20
-940.5496558384069
 42
0.110044207893941
  0
INSERT
  5
58A
330
18
100
AcDbEntity
  8
AREA
 62
     1
100
AcDbBlockReference
  2
WMF3
 10
118.8888423094627
 20
247.2301865419039
 30
0.0
  0
INSERT
  5
58B
330
18
100
AcDbEntity
  8
AREA
 62
     1
100
AcDbBlockReference
  2
WMF4
 10
116.3969945894702
 20
245.5709684997675
 30
0.0
  0
INSERT
  5
CB4
330
18
100
AcDbEntity
  8
AREA
 62
     1
100
AcDbBlockReference
  2
WMF3
 10
119.0154567964939
 20
249.2754968857944
 30
0.0
  0
INSERT
  5
CB5
330
18
100
AcDbEntity
  8
AREA
 62
     1
100
AcDbBlockReference
  2
WMF4
 10
116.5236090765014
 20
247.6162788436579
 30
0.0
  0
INSERT
  5
D59
330
18
100
AcDbEntity
  8
AREA
 62
     1
100
AcDbBlockReference
  2
WMF3
 10
119.0154567964939
 20
249.2754968857944
 30
0.0
  0
INSERT
  5
D5A
330
18
100
AcDbEntity
  8
AREA
 62
     1
100
AcDbBlockReference
  2
WMF4
 10
116.5236090765014
 20
247.6162788436579
 30
0.0
  0
INSERT
  5
46E9
330
18
100
AcDbEntity
  8
ALLUMINIO
 62
     1
100
AcDbBlockReference
  2
WMF3
 10
1358.329111410511
 20
161.8851418267927
 30
0.0
 41
2.0
 42
2.0
 43
2.0
  0
INSERT
  5
46EA
330
18
100
AcDbEntity
  8
ALLUMINIO
 62
     1
100
AcDbBlockReference
  2
WMF4
 10
1353.345415970526
 20
158.5667057425198
 30
0.0
 41
2.0
 42
2.0
 43
2.0
  0
LINE
  5
644B
330
18
100
AcDbEntity
  8
FERRO
 62
   250
100
AcDbLine
 10
869.6701184291699
 20
-972.1444073042505
 30
0.0
 11
1025.67011842917
 21
-972.1444073042505
 31
0.0
  0
ARC
  5
644C
330
18
100
AcDbEntity
  8
FERRO
 62
   250
100
AcDbCircle
 10
924.1979007923909
 20
-1071.257624431687
 30
0.0
 40
113.1225391281564
100
AcDbArc
 50
89.02417259653329
 51
118.8176783447277
  0
LINE
  5
644F
330
18
100
AcDbEntity
  8
FERRO
 62
   250
100
AcDbLine
 10
877.5195093226928
 20
-946.9499709824823
 30
0.0
 11
903.4066058630729
 21
-946.9499709824823
 31
0.0
  0
LINE
  5
6450
330
18
100
AcDbEntity
  8
FERRO
 62
   250
100
AcDbLine
 10
879.7183960830395
 20
-945.7505782041113
 30
0.0
 11
902.2072130847019
 21
-945.7505782041113
 31
0.0
  0
LINE
  5
6451
330
18
100
AcDbEntity
  8
FERRO
 62
   250
100
AcDbLine
 10
852.5321597733007
 20
-886.780433267546
 30
0.0
 11
898.5088829441822
 21
-886.780433267546
 31
0.0
  0
LINE
  5
6452
330
18
100
AcDbEntity
  8
FERRO
 62
   250
100
AcDbLine
 10
850.5331718093493
 20
-884.7814453035946
 30
0.0
 11
900.9078709081336
 21
-884.7814453035946
 31
0.0
  0
LINE
  5
6453
330
18
100
AcDbEntity
  8
FERRO
 62
   250
100
AcDbLine
 10
852.5321597733007
 20
-932.7571564384275
 30
0.0
 11
898.5088829441822
 21
-932.7571564384275
 31
0.0
  0
LINE
  5
6454
330
18
100
AcDbEntity
  8
FERRO
 62
   250
100
AcDbLine
 10
850.5331718093493
 20
-934.7561444023789
 30
0.0
 11
900.5078709081336
 21
-934.7561444023789
 31
0.0
  0
INSERT
  5
6455
330
18
100
AcDbEntity
  8
FERRO
 62
   250
100
AcDbBlockReference
  2
*X2
 10
657.9613660691779
 20
-1260.272627350002
 30
0.0
 41
1.998987963951373
 42
1.998987963951373
 43
1.998987963951373
1001
ACAD
1000
HATCH
1002
{
1070
    16
1000
ANSI37
1040
0.08
1040
0.0
1002
}
  0
LINE
  5
6456
330
18
100
AcDbEntity
  8
0
 62
     7
100
AcDbLine
 10
867.6701184291699
 20
-977.4325133606437
 30
0.0
 11
970.1728038590484
 21
-977.4325133606435
 31
0.0
  0
LINE
  5
6457
330
18
100
AcDbEntity
  8
FERRO
 62
   250
100
AcDbLine
 10
852.5321597733007
 20
-886.780433267546
 30
0.0
 11
852.5321597733007
 21
-932.7571564384275
 31
0.0
  0
LINE
  5
6458
330
18
100
AcDbEntity
  8
FERRO
 62
   250
100
AcDbLine
 10
850.5331718093495
 20
-742.1966569276374
 30
0.0
 11
850.5331718093493
 21
-934.7561444023789
 31
0.0
  0
LINE
  5
6459
330
18
100
AcDbEntity
  8
FERRO
 62
   250
100
AcDbLine
 10
849.7335766237688
 20
-944.7510842221358
 30
0.0
 11
849.7335766237688
 21
-742.3240741658701
 31
0.0
  0
LINE
  5
645A
330
18
100
AcDbEntity
  8
0
 62
     7
100
AcDbLine
 10
867.7295284795745
 20
-987.4274531804005
 30
0.0
 11
769.5875610038229
 21
-987.4274531804003
 31
0.0
  0
LINE
  5
645D
330
18
100
AcDbEntity
  8
0
 62
     7
100
AcDbLine
 10
867.7295284795743
 20
-977.4325133606433
 30
0.0
 11
867.7295284795743
 21
-988.8553017260086
 31
0.0
  0
LINE
  5
6460
330
18
100
AcDbEntity
  8
FERRO
 62
   250
100
AcDbLine
 10
849.233829632781
 20
-945.7505782041113
 30
0.0
 11
871.3226466344435
 21
-945.7505782041113
 31
0.0
  0
LINE
  5
6461
330
18
100
AcDbEntity
  8
FERRO
 62
   250
100
AcDbLine
 10
848.0344368544102
 20
-946.9499709824821
 30
0.0
 11
873.5215333947902
 21
-946.9499709824821
 31
0.0
  0
LINE
  5
6462
330
18
100
AcDbEntity
  8
FERRO
 62
   250
100
AcDbLine
 10
850.5331718093493
 20
-934.7561444023789
 30
0.0
 11
850.5331718093495
 21
-944.7510842221358
 31
0.0
  0
LINE
  5
6463
330
18
100
AcDbEntity
  8
FERRO
 62
   250
100
AcDbLine
 10
849.2338296327806
 20
-921.9626214330903
 30
0.0
 11
849.233829632781
 21
-945.7505782041113
 31
0.0
  0
LINE
  5
6464
330
18
100
AcDbEntity
  8
FERRO
 62
   250
100
AcDbLine
 10
848.0344368544102
 20
-921.9626214330903
 30
0.0
 11
848.0344368544102
 21
-946.9499709824821
 31
0.0
  0
LINE
  5
6465
330
18
100
AcDbEntity
  8
FERRO
 62
   250
100
AcDbLine
 10
849.7335766237688
 20
-944.7510842221358
 30
0.0
 11
850.5331718093495
 21
-944.7510842221358
 31
0.0
  0
LINE
  5
6466
330
18
100
AcDbEntity
  8
FERRO
 62
   250
100
AcDbLine
 10
849.2338296327806
 20
-921.9626214330901
 30
0.0
 11
848.0344368544102
 21
-921.9626214330901
 31
0.0
  0
ARC
  5
6467
330
18
100
AcDbEntity
  8
FERRO
 62
   250
100
AcDbCircle
 10
744.7786094723966
 20
-938.4918205431199
 30
0.0
 40
130.5158119816761
100
AcDbArc
 50
342.6408747065187
 51
358.2455135201167
  0
LINE
  5
6468
330
18
100
AcDbEntity
  8
FERRO
 62
   250
100
AcDbLine
 10
870.3231526524678
 20
-938.9540191266767
 30
0.0
 11
871.3226466344435
 21
-945.7505782041113
 31
0.0
  0
LINE
  5
6469
330
18
100
AcDbEntity
  8
FERRO
 62
   250
100
AcDbLine
 10
870.3231526524678
 20
-938.9540191266766
 30
0.0
 11
880.7178900650152
 21
-938.9540191266767
 31
0.0
  0
LINE
  5
646A
330
18
100
AcDbEntity
  8
FERRO
 62
   250
100
AcDbLine
 10
869.6701184291699
 20
-972.1444073042505
 30
0.0
 11
869.6701184291699
 21
-977.6431422591898
 31
0.0
  0
ARC
  5
646B
330
18
100
AcDbEntity
  8
FERRO
 62
   250
100
AcDbCircle
 10
958.5645510200933
 20
-950.201257924418
 30
0.0
 40
83.42760024576108
100
AcDbArc
 50
173.7866634959916
 51
195.4744025171597
  0
ARC
  5
646C
330
18
100
AcDbEntity
  8
FERRO
 62
   250
100
AcDbCircle
 10
971.17273699233
 20
-947.5970678190513
 30
0.0
 40
95.41923273363101
100
AcDbArc
 50
176.9305992441573
 51
194.8943018815455
  0
ARC
  5
646D
330
18
100
AcDbEntity
  8
FERRO
 62
   250
100
AcDbCircle
 10
969.9156794531567
 20
-947.5970678190513
 30
0.0
 40
94.41973875165533
100
AcDbArc
 50
176.9305992441573
 51
195.1083444654343
  0
ARC
  5
646E
330
18
100
AcDbEntity
  8
FERRO
 62
   250
100
AcDbCircle
 10
970.6103699689265
 20
-947.5970678190513
 30
0.0
 40
95.01943514084073
100
AcDbArc
 50
176.9305992441573
 51
194.9933799153781
  0
ARC
  5
646F
330
18
100
AcDbEntity
  8
FERRO
 62
   250
100
AcDbCircle
 10
969.7833579155791
 20
-947.5970678190513
 30
0.0
 40
94.01994115886505
100
AcDbArc
 50
176.9305992441573
 51
195.107157345194
  0
ARC
  5
6470
330
18
100
AcDbEntity
  8
FERRO
 62
   250
100
AcDbCircle
 10
780.5020490065214
 20
-952.1634383064707
 30
0.0
 40
95.01694868082008
100
AcDbArc
 50
346.1469163354031
 51
5.605345799615109
  0
ARC
  5
6471
330
18
100
AcDbEntity
  8
FERRO
 62
   250
100
AcDbCircle
 10
956.6797057666258
 20
-953.6214553443755
 30
0.0
 40
82.05696923376041
100
AcDbArc
 50
172.2946708357505
 51
193.6514091682873
  0
ARC
  5
6472
330
18
100
AcDbEntity
  8
FERRO
 62
   250
100
AcDbCircle
 10
754.2924634417039
 20
-945.5195914009738
 30
0.0
 40
120.9880342513425
100
AcDbArc
 50
345.639726452189
 51
1.622930988059549
  0
LINE
  5
6473
330
18
100
AcDbEntity
  8
FERRO
 62
   250
100
AcDbLine
 10
871.7118265634436
 20
-940.1534119050475
 30
0.0
 11
879.3292161540392
 21
-940.1534119050475
 31
0.0
  0
LINE
  5
6474
330
18
100
AcDbEntity
  8
FERRO
 62
   250
100
AcDbLine
 10
878.5061034630004
 20
-945.7505782041113
 30
0.0
 11
879.3292161540392
 21
-940.1534119050475
 31
0.0
  0
LINE
  5
6475
330
18
100
AcDbEntity
  8
FERRO
 62
   250
100
AcDbLine
 10
873.0217864038023
 20
-945.2508312131236
 30
0.0
 11
875.0207743677536
 21
-945.2508312131236
 31
0.0
  0
LINE
  5
6476
330
18
100
AcDbEntity
  8
FERRO
 62
   250
100
AcDbLine
 10
873.0217864038023
 20
-940.2533613032451
 30
0.0
 11
878.0192563136807
 21
-940.2533613032451
 31
0.0
  0
LINE
  5
6477
330
18
100
AcDbEntity
  8
FERRO
 62
   250
100
AcDbLine
 10
872.5349392544824
 20
-945.7505782041113
 30
0.0
 11
873.5215333947902
 21
-945.7505782041113
 31
0.0
  0
LINE
  5
6478
330
18
100
AcDbEntity
  8
FERRO
 62
   250
100
AcDbLine
 10
873.0217864038023
 20
-945.2508312131236
 30
0.0
 11
873.0217864038023
 21
-940.2533613032451
 31
0.0
  0
LINE
  5
6479
330
18
100
AcDbEntity
  8
FERRO
 62
   250
100
AcDbLine
 10
871.7118265634436
 20
-940.1534119050475
 30
0.0
 11
872.5349392544824
 21
-945.7505782041113
 31
0.0
  0
LINE
  5
647A
330
18
100
AcDbEntity
  8
FERRO
 62
   250
100
AcDbLine
 10
873.5215333947902
 20
-946.9499709824821
 30
0.0
 11
873.5215333947902
 21
-945.7505782041113
 31
0.0
  0
LINE
  5
647B
330
18
100
AcDbEntity
  8
FERRO
 62
   250
100
AcDbLine
 10
877.5195093226928
 20
-946.9499709824823
 30
0.0
 11
877.5195093226928
 21
-945.7505782041113
 31
0.0
  0
LINE
  5
647C
330
18
100
AcDbEntity
  8
FERRO
 62
   250
100
AcDbLine
 10
877.5195093226928
 20
-945.7505782041113
 30
0.0
 11
878.5061034630004
 21
-945.7505782041113
 31
0.0
  0
LINE
  5
647D
330
18
100
AcDbEntity
  8
FERRO
 62
   250
100
AcDbLine
 10
876.0202683497293
 20
-945.2508312131236
 30
0.0
 11
878.0192563136807
 21
-945.2508312131236
 31
0.0
  0
LINE
  5
647E
330
18
100
AcDbEntity
  8
FERRO
 62
   250
100
AcDbLine
 10
873.8213815893828
 20
-944.451236027543
 30
0.0
 11
875.0207743677536
 21
-944.451236027543
 31
0.0
  0
LINE
  5
647F
330
18
100
AcDbEntity
  8
FERRO
 62
   250
100
AcDbLine
 10
876.0202683497293
 20
-944.451236027543
 30
0.0
 11
877.2196611281001
 21
-944.4512360275432
 31
0.0
  0
LINE
  5
6480
330
18
100
AcDbEntity
  8
FERRO
 62
   250
100
AcDbLine
 10
875.0207743677536
 20
-945.2508312131236
 30
0.0
 11
875.0207743677536
 21
-944.451236027543
 31
0.0
  0
LINE
  5
6481
330
18
100
AcDbEntity
  8
FERRO
 62
   250
100
AcDbLine
 10
876.0202683497293
 20
-945.2508312131236
 30
0.0
 11
876.0202683497293
 21
-944.451236027543
 31
0.0
  0
LINE
  5
6482
330
18
100
AcDbEntity
  8
FERRO
 62
   250
100
AcDbLine
 10
873.8213815893828
 20
-941.0529564888257
 30
0.0
 11
877.2196611281001
 21
-941.0529564888257
 31
0.0
  0
LINE
  5
6483
330
18
100
AcDbEntity
  8
FERRO
 62
   250
100
AcDbLine
 10
878.0192563136807
 20
-945.2508312131236
 30
0.0
 11
878.0192563136807
 21
-940.2533613032451
 31
0.0
  0
LINE
  5
6484
330
18
100
AcDbEntity
  8
FERRO
 62
   250
100
AcDbLine
 10
873.8213815893828
 20
-944.451236027543
 30
0.0
 11
873.8213815893828
 21
-941.0529564888257
 31
0.0
  0
LINE
  5
6485
330
18
100
AcDbEntity
  8
FERRO
 62
   250
100
AcDbLine
 10
877.2196611281001
 20
-944.4512360275432
 30
0.0
 11
877.2196611281001
 21
-941.0529564888257
 31
0.0
  0
ARC
  5
6486
330
18
100
AcDbEntity
  8
FERRO
 62
   250
100
AcDbCircle
 10
780.6910138323299
 20
-959.1530355854107
 30
0.0
 40
95.71831159987587
100
AcDbArc
 50
0.2484036404458499
 51
10.82765923256243
  0
LINE
  5
6487
330
18
100
AcDbEntity
  8
FERRO
 62
   250
100
AcDbLine
 10
879.7183960830395
 20
-945.7505782041113
 30
0.0
 11
880.7178900650152
 21
-938.9540191266767
 31
0.0
  0
LINE
  5
6489
330
18
100
AcDbEntity
  8
FERRO
  6
ACAD_ISO10W100
 62
   250
 48
0.2
100
AcDbLine
 10
956.6111761420629
 20
-920.3555252662345
 30
0.0
 11
956.6111761420623
 21
-832.400054852374
 31
0.0
  0
LINE
  5
648A
330
18
100
AcDbEntity
  8
FERRO
  6
ACAD_ISO10W100
 62
   250
 48
0.2
100
AcDbLine
 10
936.6212965025487
 20
-920.3555252662345
 30
0.0
 11
936.6212965025487
 21
-832.400054852374
 31
0.0
  0
LINE
  5
648B
330
18
100
AcDbEntity
  8
FERRO
 62
   250
100
AcDbLine
 10
961.6086460519412
 20
-860.3858863476935
 30
0.0
 11
961.6086460519412
 21
-920.3555252662345
 31
0.0
  0
LINE
  5
648C
330
18
100
AcDbEntity
  8
FERRO
 62
   250
100
AcDbLine
 10
961.6086460519412
 20
-860.3858863476935
 30
0.0
 11
961.6086460519412
 21
-920.3555252662345
 31
0.0
  0
LINE
  5
648E
330
18
100
AcDbEntity
  8
FERRO
 62
   250
100
AcDbLine
 10
898.5088829441822
 20
-886.780433267546
 30
0.0
 11
898.5088829441822
 21
-932.7571564384275
 31
0.0
  0
LINE
  5
648F
330
18
100
AcDbEntity
  8
FERRO
 62
   250
100
AcDbLine
 10
901.7074660937142
 20
-742.1966569276374
 30
0.0
 11
901.7074660937142
 21
-944.7510842221358
 31
0.0
  0
LINE
  5
6490
330
18
100
AcDbEntity
  8
FERRO
 62
   250
100
AcDbLine
 10
900.9078709081334
 20
-742.2071600271166
 30
0.0
 11
900.9078709081336
 21
-934.7561444023789
 31
0.0
  0
LINE
  5
6491
330
18
100
AcDbEntity
  8
0
 62
     7
100
AcDbLine
 10
1013.131067504522
 20
-977.4325133606435
 30
0.0
 11
1039.42375425258
 21
-977.4325133606435
 31
0.0
  0
ARC
  5
6492
330
18
100
AcDbEntity
  8
FERRO
 62
   250
100
AcDbCircle
 10
967.3087634747316
 20
-1086.867197845436
 30
0.0
 40
128.7157375857289
100
AcDbArc
 50
63.03554349218536
 51
90.03995511277144
  0
LINE
  5
6493
330
18
100
AcDbEntity
  8
FERRO
 62
   250
100
AcDbLine
 10
936.6212965025487
 20
-920.3555252662345
 30
0.0
 11
956.6111761420629
 21
-920.3555252662345
 31
0.0
  0
HATCH
  5
6494
330
18
100
AcDbEntity
  8
FERRO
 62
   250
100
AcDbHatch
 10
0.0
 20
0.0
 30
0.0
210
0.0
220
0.0
230
1.0
  2
TRANS
 70
     0
 71
     1
 91
        1
 92
        1
 93
        4
 72
     1
 10
926.6802387896559
 20
-955.1530096106636
 11
966.6599980686836
 21
-955.1530096106636
 72
     1
 10
966.6599980686836
 20
-955.1530096106636
 11
966.6599980686836
 21
-967.146937394372
 72
     1
 10
966.6599980686836
 20
-967.146937394372
 11
926.6802387896559
 21
-967.146937394372
 72
     1
 10
926.6802387896559
 20
-967.146937394372
 11
926.6802387896559
 21
-955.1530096106636
 97
        4
330
6496
330
64A7
330
6495
330
64A0
 75
     0
 76
     1
 52
0.0
 41
0.3997975927902746
 77
     0
 78
     2
 53
0.0
 43
235.7665939309738
 44
-1321.351207042953
 45
0.0
 46
2.538714714218243
 79
     0
 53
0.0
 43
235.7665939309738
 44
-1320.081849685844
 45
0.0
 46
2.538714714218243
 79
     2
 49
1.269357357109121
 49
-1.269357357109121
 98
        1
 10
79.74076295899454
 20
-1321.351207042953
  0
LINE
  5
6495
102
{ACAD_REACTORS
330
6494
102
}
330
18
100
AcDbEntity
  8
FERRO
 62
   250
100
AcDbLine
 10
926.6802387896559
 20
-967.146937394372
 30
0.0
 11
966.6599980686836
 21
-967.146937394372
 31
0.0
  0
LINE
  5
6496
102
{ACAD_REACTORS
330
6494
102
}
330
18
100
AcDbEntity
  8
FERRO
 62
   250
100
AcDbLine
 10
926.6802387896559
 20
-955.1530096106636
 30
0.0
 11
966.6599980686836
 21
-955.1530096106636
 31
0.0
  0
LINE
  5
6497
330
18
100
AcDbEntity
  8
FERRO
 62
   250
100
AcDbLine
 10
901.7074660937142
 20
-920.3555252662345
 30
0.0
 11
961.6086460519412
 21
-920.3555252662345
 31
0.0
  0
LINE
  5
649A
330
18
100
AcDbEntity
  8
FERRO
 62
   250
100
AcDbLine
 10
903.4066058630727
 20
-921.9626214330903
 30
0.0
 11
903.4066058630727
 21
-946.9499709824823
 31
0.0
  0
LINE
  5
649B
330
18
100
AcDbEntity
  8
FERRO
 62
   250
100
AcDbLine
 10
900.9078709081336
 20
-934.7561444023789
 30
0.0
 11
900.9078709081336
 21
-944.7510842221358
 31
0.0
  0
LINE
  5
649C
330
18
100
AcDbEntity
  8
FERRO
 62
   250
100
AcDbLine
 10
902.2072130847018
 20
-921.9626214330901
 30
0.0
 11
902.2072130847019
 21
-945.7505782041113
 31
0.0
  0
LINE
  5
649D
330
18
100
AcDbEntity
  8
FERRO
 62
   250
100
AcDbLine
 10
900.9078709081336
 20
-944.7510842221358
 30
0.0
 11
901.7074660937142
 21
-944.7510842221358
 31
0.0
  0
LINE
  5
649E
330
18
100
AcDbEntity
  8
FERRO
 62
   250
100
AcDbLine
 10
902.2072130847018
 20
-921.9626214330901
 30
0.0
 11
903.4066058630727
 21
-921.9626214330901
 31
0.0
  0
LINE
  5
649F
330
18
100
AcDbEntity
  8
FERRO
 62
   250
100
AcDbLine
 10
936.6212965025487
 20
-920.3555252662345
 30
0.0
 11
936.6212965025487
 21
-955.1530096106636
 31
0.0
  0
LINE
  5
64A0
102
{ACAD_REACTORS
330
6494
102
}
330
18
100
AcDbEntity
  8
FERRO
 62
   250
100
AcDbLine
 10
926.6802387896559
 20
-967.146937394372
 30
0.0
 11
926.6802387896559
 21
-955.1530096106636
 31
0.0
  0
LINE
  5
64A1
330
18
100
AcDbEntity
  8
FERRO
 62
   250
100
AcDbLine
 10
926.1244429907927
 20
-958.1514915565907
 30
0.0
 11
926.1244429907927
 21
-972.1444073042505
 31
0.0
  0
LINE
  5
64A2
330
18
100
AcDbEntity
  8
FERRO
  6
TRATTO-PUNTOX2
 62
   250
100
AcDbLine
 10
937.6476794003863
 20
-972.1444073042505
 30
0.0
 11
942.117171146396
 21
-977.141877214129
 31
0.0
  0
LINE
  5
64A3
330
18
100
AcDbEntity
  8
ASSI
100
AcDbLine
 10
946.67011842917
 20
-822.5076740496378
 30
0.0
 11
946.67011842917
 21
-984.5652696298678
 31
0.0
  0
LINE
  5
64A4
330
18
100
AcDbEntity
  8
FERRO
 62
   167
100
AcDbLine
 10
977.7319029639228
 20
-977.4325133606435
 30
0.0
 11
983.1823484929799
 21
-977.4325133606435
 31
0.0
  0
LINE
  5
64A5
330
18
100
AcDbEntity
  8
FERRO
 62
   250
100
AcDbLine
 10
956.6111761420629
 20
-920.3555252662345
 30
0.0
 11
956.6111761420629
 21
-955.1530096106636
 31
0.0
  0
LINE
  5
64A6
330
18
100
AcDbEntity
  8
FERRO
  6
TRATTO-PUNTOX2
 62
   250
100
AcDbLine
 10
950.4961810186031
 20
-977.141877214129
 30
0.0
 11
954.9656704742531
 21
-972.1444073042505
 31
0.0
  0
LINE
  5
64A7
102
{ACAD_REACTORS
330
6494
102
}
330
18
100
AcDbEntity
  8
FERRO
 62
   250
100
AcDbLine
 10
966.6599980686836
 20
-967.146937394372
 30
0.0
 11
966.6599980686836
 21
-955.1530096106636
 31
0.0
  0
LINE
  5
64A8
330
18
100
AcDbEntity
  8
FERRO
 62
   250
100
AcDbLine
 10
967.2190037849675
 20
-958.1514915565907
 30
0.0
 11
967.2190037849675
 21
-972.1444073042505
 31
0.0
  0
LINE
  5
64A9
330
18
100
AcDbEntity
  8
FERRO
 62
   167
100
AcDbLine
 10
970.1728038590484
 20
-977.4325133606435
 30
0.0
 11
977.7319029639228
 21
-977.4325133606435
 31
0.0
  0
LINE
  5
64AA
330
18
100
AcDbEntity
  8
FERRO
 62
   167
100
AcDbLine
 10
983.1823484929799
 20
-977.4325133606435
 30
0.0
 11
1013.131067504522
 21
-977.4325133606435
 31
0.0
  0
LINE
  5
64AB
330
18
100
AcDbEntity
  8
FERRO
 62
   250
100
AcDbLine
 10
1025.67011842917
 20
-972.1444073042505
 30
0.0
 11
1025.67011842917
 21
-977.141877214129
 31
0.0
  0
LINE
  5
64AC
330
18
100
AcDbEntity
  8
FERRO
 62
   250
100
AcDbLine
 10
901.7074660937142
 20
-832.400054852374
 30
0.0
 11
961.6086460519412
 21
-832.400054852374
 31
0.0
  0
LINE
  5
64AE
330
18
100
AcDbEntity
  8
FERRO
 62
   250
100
AcDbLine
 10
961.6086460519412
 20
-860.3858863476935
 30
0.0
 11
961.6086460519412
 21
-832.400054852374
 31
0.0
  0
INSERT
  5
655B
330
18
100
AcDbEntity
  8
ALLUMINIO
 62
     1
100
AcDbBlockReference
  2
WMF3
 10
582.5970495602237
 20
-279.27482726071
 30
0.0
 41
3.999999999999999
 42
3.999999999999999
 43
3.999999999999999
  0
INSERT
  5
655C
330
18
100
AcDbEntity
  8
ALLUMINIO
 62
     1
100
AcDbBlockReference
  2
WMF4
 10
572.6296586802536
 20
-285.9116994292558
 30
0.0
 41
3.999999999999999
 42
3.999999999999999
 43
3.999999999999999
  0
HATCH
  5
6593
330
18
100
AcDbEntity
  8
AREA166
 62
   250
100
AcDbHatch
 10
0.0
 20
0.0
 30
0.0
210
0.0
220
0.0
230
1.0
  2
AR-CONC
 70
     0
 71
     0
 91
        1
 92
        7
 72
     0
 73
     1
 93
       11
 10
1042.738347853852
 20
-977.4325133606437
 10
1016.445661105793
 20
-977.4325133606435
 10
986.4969420942514
 20
-977.4325133606435
 10
981.0464965651943
 20
-977.4325133606435
 10
973.48739746032
 20
-977.4325133606435
 10
861.4441220808458
 20
-977.4325133606437
 10
861.444122080846
 20
-987.4274531804005
 10
831.4593026215753
 20
-987.4274531804003
 10
774.0821116976911
 20
-987.4274531804003
 10
768.5305241684805
 20
-1052.88701985135
 10
1046.424798727705
 20
-1052.88701985135
 97
        0
 75
     0
 76
     1
 52
0.0
 41
0.4
 77
     0
 78
    13
 53
50.0
 43
3.714593601271531
 44
-36.76644345387672
 45
72.8738675984016
 46
-6.375634215561234
 79
     2
 49
7.62
 49
-83.82000000000001
 53
355.0
 43
3.714593601271531
 44
-36.76644345387672
 45
-14.09713039026679
 46
76.42265715287199
 79
     2
 49
6.096
 49
-67.056
 53
100.451
 43
9.787393601271531
 44
-37.29774345387672
 45
58.7770006663837
 46
70.04667512811675
 79
     2
 49
6.476
 49
-71.236
 53
46.1842
 43
3.714593601271531
 44
-16.44644345387671
 45
108.4316163568519
 46
-16.81693117309086
 79
     2
 49
11.43
 49
-125.73
 53
96.63559999999998
 43
12.75055360127153
 44
-17.84784345387671
 45
94.96169378649486
 46
98.97022235601969
 79
     2
 49
9.713999999999996
 49
-106.854
 53
351.184
 43
3.714593601271531
 44
-16.44644345387671
 45
94.96184232557357
 46
98.97004714423907
 79
     2
 49
9.144
 49
-100.584
 53
21.0
 43
13.87459360127153
 44
-21.52644345387672
 45
60.64595193415332
 46
-40.906207406705
 79
     2
 49
7.62
 49
-83.82000000000001
 53
326.0
 43
13.87459360127153
 44
-21.52644345387672
 45
24.72081133905883
 46
73.6751864489277
 79
     2
 49
6.096
 49
-67.056
 53
71.45140000000001
 43
18.92839360127153
 44
-24.93528345387672
 45
85.3665963080498
 46
32.76914308642298
 79
     2
 49
6.476
 49
-71.236
 53
37.5
 43
3.714593601271531
 44
-36.76644345387672
 45
1.235441300236726
 46
33.82201554926125
 79
     6
 49
0.0
 49
-66.2432
 49
0.0
 49
-68.072
 49
0.0
 49
-67.31
 53
7.499999999999999
 43
3.714593601271531
 44
-36.76644345387672
 45
26.7278650041223
 46
40.0722299272478
 79
     6
 49
0.0
 49
-38.8112
 49
0.0
 49
-64.7192
 49
0.0
 49
-25.654
 53
327.5
 43
-18.94220639872847
 44
-36.76644345387672
 45
54.23623806674856
 46
-2.291497597069383
 79
     6
 49
0.0
 49
-25.4
 49
0.0
 49
-79.24800000000001
 49
0.0
 49
-105.156
 53
317.5
 43
-29.10220639872847
 44
-36.76644345387672
 45
59.25167255440722
 46
10.17059641333321
 79
     6
 49
0.0
 49
-33.02
 49
0.0
 49
-52.6288
 49
0.0
 49
-74.676
 47
1.959781920774415
 98
        1
 10
918.4349867656006
 20
-993.1750286257818
  0
SPLINE
  5
6594
330
18
100
AcDbEntity
  8
FERRO
 62
   250
100
AcDbSpline
210
0.0
220
0.0
230
1.0
 70
  1064
 71
     3
 72
    13
 73
     9
 74
     7
 42
0.000000001
 43
0.0000000001
 44
0.0000000001
 40
0.0
 40
0.0
 40
0.0
 40
0.0
 40
0.8096836502009615
 40
12.24961526991069
 40
26.36661792696336
 40
41.17430624456332
 40
52.18936680131474
 40
53.38896198689546
 40
53.38896198689546
 40
53.38896198689546
 40
53.38896198689546
 10
849.7335766237688
 20
-742.3240741658701
 30
0.0
 10
850.0000540100623
 20
-742.2826006501341
 30
0.0
 10
854.0315612035428
 20
-741.6551523726106
 30
0.0
 10
862.7894735071038
 20
-738.8282588996214
 30
0.0
 10
875.9882077227519
 20
-746.9324537552245
 30
0.0
 10
888.705359784104
 20
-736.0151263889329
 30
0.0
 10
897.227902301001
 20
-742.3022864587306
 30
0.0
 10
901.3068724871001
 20
-742.206103051587
 30
0.0
 10
901.7074660937142
 20
-742.1966569276374
 30
0.0
 11
849.7335766237688
 21
-742.3240741658701
 31
0.0
 11
850.5331718093495
 21
-742.1966569276374
 31
0.0
 11
861.8737780995399
 21
-740.692434725126
 31
0.0
 11
875.703251144135
 21
-743.5271197743072
 31
0.0
 11
889.8873234796356
 21
-739.2750937522245
 31
0.0
 11
900.5078709081335
 21
-742.1966569276374
 31
0.0
 11
901.7074660937142
 21
-742.1966569276374
 31
0.0
  0
INSERT
  5
670C
330
18
100
AcDbEntity
  8
ALLUMINIO
 62
     1
100
AcDbBlockReference
  2
WMF3
 10
589.4326850976631
 20
-88.60908119522447
 30
0.0
 41
2.0
 42
2.0
 43
2.0
  0
INSERT
  5
670D
330
18
100
AcDbEntity
  8
ALLUMINIO
 62
     1
100
AcDbBlockReference
  2
WMF4
 10
584.4489896576781
 20
-91.92751727949735
 30
0.0
 41
2.0
 42
2.0
 43
2.0
  0
INSERT
  5
8AB0
330
18
100
AcDbEntity
  8
ALLUMINIO
 62
     1
100
AcDbBlockReference
  2
WMF3
 10
1502.020270793584
 20
-711.2331799408297
 30
0.0
  0
INSERT
  5
8AB1
330
18
100
AcDbEntity
  8
ALLUMINIO
 62
     1
100
AcDbBlockReference
  2
WMF4
 10
1499.528423073591
 20
-712.8923979829663
 30
0.0
  0
INSERT
  5
8B44
330
18
100
AcDbEntity
  8
ALLUMINIO
 62
     1
100
AcDbBlockReference
  2
WMF3
 10
1964.398053197002
 20
-1286.183688527569
 30
0.0
  0
INSERT
  5
8B45
330
18
100
AcDbEntity
  8
ALLUMINIO
 62
     1
100
AcDbBlockReference
  2
WMF4
 10
1961.90620547701
 20
-1287.842906569706
 30
0.0
  0
INSERT
  5
8C16
330
18
100
AcDbEntity
  8
ALLUMINIO
 62
     1
100
AcDbBlockReference
  2
WMF3
 10
883.3426222293006
 20
-326.2071731127912
 30
0.0
  0
INSERT
  5
8C17
330
18
100
AcDbEntity
  8
ALLUMINIO
 62
     1
100
AcDbBlockReference
  2
WMF4
 10
880.8507745093081
 20
-327.8663911549277
 30
0.0
  0
INSERT
  5
8DD8
330
18
100
AcDbEntity
  8
ALLUMINIO
 62
     1
100
AcDbBlockReference
  2
WMF3
 10
668.4959233042757
 20
-188.290246797548
 30
0.0
 41
2.245639534883713
 42
2.245639534883713
 43
2.245639534883713
  0
INSERT
  5
8DD9
330
18
100
AcDbEntity
  8
ALLUMINIO
 62
     1
100
AcDbBlockReference
  2
WMF4
 10
662.9001315493505
 20
-192.016252429962
 30
0.0
 41
2.245639534883713
 42
2.245639534883713
 43
2.245639534883713
  0
INSERT
  5
8F1B
330
18
100
AcDbEntity
  8
AREA
 62
     1
100
AcDbBlockReference
  2
WMF3
 10
1173.742395918546
 20
394.8670251580704
 30
0.0
  0
INSERT
  5
8F1C
330
18
100
AcDbEntity
  8
AREA
 62
     1
100
AcDbBlockReference
  2
WMF4
 10
1171.250548198553
 20
393.2078071159339
 30
0.0
  0
INSERT
  5
8F1E
330
18
100
AcDbEntity
  8
AREA
 62
     1
100
AcDbBlockReference
  2
WMF3
 10
1173.869010405577
 20
396.9123355019608
 30
0.0
  0
INSERT
  5
8F1F
330
18
100
AcDbEntity
  8
AREA
 62
     1
100
AcDbBlockReference
  2
WMF4
 10
1171.377162685585
 20
395.2531174598243
 30
0.0
  0
INSERT
  5
8F20
330
18
100
AcDbEntity
  8
AREA
 62
     1
100
AcDbBlockReference
  2
WMF3
 10
1173.869010405577
 20
396.9123355019608
 30
0.0
  0
INSERT
  5
8F21
330
18
100
AcDbEntity
  8
AREA
 62
     1
100
AcDbBlockReference
  2
WMF4
 10
1171.377162685585
 20
395.2531174598243
 30
0.0
  0
HATCH
  5
9024
330
18
100
AcDbEntity
  8
AREA166
100
AcDbHatch
 10
0.0
 20
0.0
 30
0.0
210
0.0
220
0.0
230
1.0
  2
SOLID
 70
     1
 71
     0
 91
        1
 92
        7
 72
     0
 73
     1
 93
        6
 10
871.7295284795493
 20
-977.4325133606435
 10
867.7295284795743
 20
-977.4325133606435
 10
867.7295284795741
 20
-1013.432513360418
 10
831.7295284797991
 20
-1013.432513360418
 10
831.7295284797996
 20
-1017.432513360393
 10
871.7295284795497
 20
-1017.432513360393
 97
        0
 75
     0
 76
     1
 47
0.2779925888001524
 98
        1
 10
869.9380551616718
 20
-995.679160350614
  0
LINE
  5
9025
330
18
100
AcDbEntity
  8
FERRO
 62
     7
100
AcDbLine
 10
867.7295284795743
 20
-977.4325133606433
 30
0.0
 11
867.7295284795743
 21
-1013.432513360418
 31
0.0
  0
LINE
  5
9026
330
18
100
AcDbEntity
  8
FERRO
 62
     7
100
AcDbLine
 10
871.7295284795493
 20
-977.4325133606433
 30
0.0
 11
871.7295284795493
 21
-1017.432513360393
 31
0.0
  0
LINE
  5
9027
330
18
100
AcDbEntity
  8
FERRO
 62
     7
100
AcDbLine
 10
831.7295284797992
 20
-1013.432513360418
 30
0.0
 11
867.7295284795743
 21
-1013.432513360418
 31
0.0
  0
LINE
  5
9028
330
18
100
AcDbEntity
  8
FERRO
 62
     7
100
AcDbLine
 10
831.7295284797992
 20
-1017.432513360393
 30
0.0
 11
871.7295284795493
 21
-1017.432513360393
 31
0.0
  0
LINE
  5
9029
330
18
100
AcDbEntity
  8
FERRO
 62
     7
100
AcDbLine
 10
831.7295284797992
 20
-1013.432513360418
 30
0.0
 11
831.7295284797992
 21
-1017.432513360393
 31
0.0
  0
HATCH
  5
902A
330
18
100
AcDbEntity
  8
AREA166
100
AcDbHatch
 10
0.0
 20
0.0
 30
0.0
210
0.0
220
0.0
230
1.0
  2
SOLID
 70
     1
 71
     0
 91
        1
 92
        7
 72
     0
 73
     1
 93
        8
 10
871.7295284795495
 20
-1017.432513360393
 10
870.4970008996925
 20
-1017.432513360393
 10
879.048933021086
 20
-1023.158314063824
 10
872.3655090140166
 20
-1029.835886826645
 10
872.8501698461089
 20
-1030.320972344324
 10
879.6298323562242
 20
-1023.547245333921
 10
889.8734431009588
 20
-1030.405680688097
 10
890.2549388900281
 20
-1029.835886826645
 97
        0
 75
     0
 76
     1
 47
0.0579151237667672
 98
        1
 10
878.1449997596874
 20
-1021.97593459058
  0
LINE
  5
902B
330
18
100
AcDbEntity
  8
FERRO
 62
     7
100
AcDbLine
 10
871.7295284795493
 20
-1017.432513360393
 30
0.0
 11
890.2549388900283
 21
-1029.835886826645
 31
0.0
  0
LINE
  5
902C
330
18
100
AcDbEntity
  8
FERRO
 62
     7
100
AcDbLine
 10
879.6298323562243
 20
-1023.547245333921
 30
0.0
 11
889.8734431009588
 21
-1030.405680688097
 31
0.0
  0
LINE
  5
902E
330
18
100
AcDbEntity
  8
FERRO
 62
     7
100
AcDbLine
 10
879.048933021086
 20
-1023.158314063824
 30
0.0
 11
872.3655090140166
 21
-1029.835886826645
 31
0.0
  0
LINE
  5
902F
330
18
100
AcDbEntity
  8
FERRO
 62
     7
100
AcDbLine
 10
879.6298323562243
 20
-1023.547245333921
 30
0.0
 11
872.8501698461089
 21
-1030.320972344324
 31
0.0
  0
LINE
  5
9030
330
18
100
AcDbEntity
  8
FERRO
 62
     7
100
AcDbLine
 10
870.4958875123546
 20
-1017.431767910837
 30
0.0
 11
879.048933021086
 21
-1023.158314063824
 31
0.0
  0
LINE
  5
9032
330
18
100
AcDbEntity
  8
FERRO
 62
     7
100
AcDbLine
 10
867.7295284795743
 20
-977.4325133606433
 30
0.0
 11
867.7295284795743
 21
-988.8553017260086
 31
0.0
  0
LWPOLYLINE
  5
9078
330
18
100
AcDbEntity
  8
AREA
 62
     2
100
AcDbPolyline
 90
        2
 70
     0
 43
0.0
 10
958.4540508754539
 20
-819.6624540334754
 10
958.4540508754539
 20
-819.6624540334754
 42
0.110044207893941
  0
INSERT
  5
9079
330
18
100
AcDbEntity
  8
AREA
 62
     1
100
AcDbBlockReference
  2
WMF3
 10
1038.937020049797
 20
-791.2034078923266
 30
0.0
  0
INSERT
  5
907A
330
18
100
AcDbEntity
  8
AREA
 62
     1
100
AcDbBlockReference
  2
WMF4
 10
1036.445172329804
 20
-792.862625934463
 30
0.0
  0
INSERT
  5
907C
330
18
100
AcDbEntity
  8
AREA
 62
     1
100
AcDbBlockReference
  2
WMF3
 10
1039.063634536828
 20
-789.1580975484361
 30
0.0
  0
INSERT
  5
907D
330
18
100
AcDbEntity
  8
AREA
 62
     1
100
AcDbBlockReference
  2
WMF4
 10
1036.571786816835
 20
-790.8173155905727
 30
0.0
  0
INSERT
  5
907E
330
18
100
AcDbEntity
  8
AREA
 62
     1
100
AcDbBlockReference
  2
WMF3
 10
1039.063634536828
 20
-789.1580975484361
 30
0.0
  0
INSERT
  5
907F
330
18
100
AcDbEntity
  8
AREA
 62
     1
100
AcDbBlockReference
  2
WMF4
 10
1036.571786816835
 20
-790.8173155905727
 30
0.0
  0
HATCH
  5
948A
330
18
100
AcDbEntity
  8
AREA166
 62
   166
100
AcDbHatch
 10
0.0
 20
0.0
 30
0.0
210
0.0
220
0.0
230
1.0
  2
DOTS
 70
     0
 71
     0
 91
        3
 92
        7
 72
     0
 73
     1
 93
        5
 10
936.6212965025487
 20
-832.400054852374
 10
901.6390071333999
 20
-832.400054852374
 10
901.6390071333999
 20
-860.3858863476935
 10
901.6390071333999
 20
-920.3555252662345
 10
936.6212965025487
 20
-920.3555252662347
 97
        0
 92
        7
 72
     0
 73
     1
 93
        4
 10
936.6212965025487
 20
-920.3555252662345
 10
956.6111761420629
 20
-920.3555252662345
 10
956.6111761420625
 20
-832.400054852374
 10
936.6212965025487
 20
-832.4000548523741
 97
        0
 92
        7
 72
     0
 73
     1
 93
        5
 10
961.6086460519412
 20
-860.3858863476935
 10
961.6086460519412
 20
-832.400054852374
 10
956.6111761420623
 20
-832.400054852374
 10
956.6111761420629
 20
-920.3555252662347
 10
961.6086460519412
 20
-920.3555252662345
 97
        0
 75
     0
 76
     1
 52
0.0
 41
3.0
 77
     0
 78
     1
 53
0.0
 43
-2.600000000000022
 44
-40.76644345387672
 45
2.381249999999999
 46
4.762499999999999
 79
     2
 49
0.0
 49
-4.762499999999999
 47
0.3990353040722532
 98
        3
 10
929.3935347373375
 20
-873.1504624714945
 10
943.7696019241087
 20
-875.544675415734
 10
959.3436809934068
 20
-872.7514282072418
  0
LINE
  5
9A90
330
18
100
AcDbEntity
  8
0
100
AcDbLine
 10
829.7335766237686
 20
-741.3687047604582
 30
0.0
 11
829.7335766237683
 21
-987.4274531804003
 31
0.0
  0
INSERT
  5
9D7B
330
18
100
AcDbEntity
  8
AREA
 62
     1
100
AcDbBlockReference
  2
WMF3
 10
1279.587749115499
 20
-689.7130060460535
 30
0.0
  0
INSERT
  5
9D7C
330
18
100
AcDbEntity
  8
AREA
 62
     1
100
AcDbBlockReference
  2
WMF4
 10
1277.095901395506
 20
-691.37222408819
 30
0.0
  0
INSERT
  5
9D7D
330
18
100
AcDbEntity
  8
AREA
 62
     1
100
AcDbBlockReference
  2
WMF3
 10
1279.71436360253
 20
-687.6676957021632
 30
0.0
  0
INSERT
  5
9D7E
330
18
100
AcDbEntity
  8
AREA
 62
     1
100
AcDbBlockReference
  2
WMF4
 10
1277.222515882538
 20
-689.3269137442996
 30
0.0
  0
INSERT
  5
9D7F
330
18
100
AcDbEntity
  8
AREA
 62
     1
100
AcDbBlockReference
  2
WMF3
 10
1279.71436360253
 20
-687.6676957021632
 30
0.0
  0
INSERT
  5
9D80
330
18
100
AcDbEntity
  8
AREA
 62
     1
100
AcDbBlockReference
  2
WMF4
 10
1277.222515882538
 20
-689.3269137442996
 30
0.0
  0
INSERT
  5
9E13
330
18
100
AcDbEntity
  8
AREA
 62
     1
100
AcDbBlockReference
  2
WMF3
 10
1652.21167354608
 20
-607.9024978737857
 30
0.0
  0
INSERT
  5
9E14
330
18
100
AcDbEntity
  8
AREA
 62
     1
100
AcDbBlockReference
  2
WMF4
 10
1649.719825826087
 20
-609.5617159159221
 30
0.0
  0
DIMENSION
  5
9E5D
330
18
100
AcDbEntity
  8
QUOTE
100
AcDbDimension
  2
*D4
 10
849.7335766237686
 20
-718.1261724397487
 30
0.0
 11
839.7335766237686
 21
-718.1261724397487
 31
0.0
 70
   160
  1
20 dal massimo ingombro interno
 71
     5
 42
19.99999999999988
  3
STANDARD_WS
100
AcDbAlignedDimension
 13
829.7335766237686
 23
-741.3687047604581
 33
0.0
 14
849.7335766237686
 24
-742.3240741658701
 34
0.0
100
AcDbRotatedDimension
1001
ACAD
1000
DSTYLE
1002
{
1070
    40
1040
2.0
1070
    41
1040
1.0
1070
    42
1040
1.5
1070
    43
1040
10.0
1070
    44
1040
0.0
1070
    79
1070
     2
1070
   141
1040
2.0
1070
   147
1040
1.0
1070
   176
1070
   256
1070
   177
1070
   256
1070
   178
1070
   256
1070
   179
1070
     1
1070
   271
1070
     1
1070
   272
1070
     1
1070
   341
1005
9FB4
1070
   342
1005
9FB4
1002
}
  0
LEADER
  5
9E90
330
18
100
AcDbEntity
  8
QUOTE
100
AcDbLeader
  3
STANDARD_WS
 73
     0
 74
     0
 75
     1
 40
16.0
 41
107.0
 76
     3
 10
850.6378851696954
 20
-1017.432513360393
 30
0.0
 10
848.8278075704133
 20
-1081.897703724411
 30
0.0
 10
850.8278075704133
 20
-1081.897703724411
 30
0.0
340
9E91
1001
ACAD
1000
DSTYLE
1002
{
1070
    40
1040
2.0
1070
    41
1040
1.0
1070
    42
1040
1.5
1070
    43
1040
10.0
1070
    44
1040
0.0
1070
    79
1070
     2
1070
   141
1040
2.0
1070
   147
1040
1.0
1070
   176
1070
   256
1070
   177
1070
   256
1070
   178
1070
   256
1070
   179
1070
     1
1070
   271
1070
     1
1070
   272
1070
     1
1070
   341
1005
9FB4
1070
   342
1005
9FB4
1002
}
  0
MTEXT
  5
9E91
102
{ACAD_REACTORS
330
9E90
102
}
330
18
100
AcDbEntity
  8
QUOTE
100
AcDbMText
 10
852.8278075704132
 20
-1071.897703724411
 30
0.0
 40
6.0
 41
0.0
 71
     4
 72
     1
  1
angolare di rinforzo\P     40x40x3
 73
     1
 44
1.0
1001
ACAD
1000
MTEXTBEGIN
1070
    73
1070
     1
1070
    44
1040
1.0
1070
    74
1070
     0
1000
MTEXTEND
  0
LEADER
  5
9E92
330
18
100
AcDbEntity
  8
QUOTE
100
AcDbLeader
  3
STANDARD_WS
 73
     0
 74
     0
 75
     1
 40
13.33333333333333
 41
35.83333333333334
 76
     3
 10
851.8651301265864
 20
-906.8679000452602
 30
0.0
 10
854.0144226263333
 20
-913.534566711927
 30
0.0
 10
856.0144226263332
 20
-913.534566711927
 30
0.0
340
9E93
1001
ACAD
1000
DSTYLE
1002
{
1070
    40
1040
2.0
1070
    41
1040
1.0
1070
    42
1040
1.5
1070
    43
1040
10.0
1070
    44
1040
0.0
1070
    79
1070
     2
1070
   141
1040
2.0
1070
   147
1040
1.0
1070
   176
1070
   256
1070
   177
1070
   256
1070
   178
1070
   256
1070
   179
1070
     1
1070
   271
1070
     1
1070
   272
1070
     1
1070
   341
1005
9FB4
1070
   342
1005
9FB4
1002
}
  0
MTEXT
  5
9E93
102
{ACAD_REACTORS
330
9E92
102
}
330
18
100
AcDbEntity
  8
QUOTE
100
AcDbMText
 10
858.0144226263332
 20
-904.8679000452603
 30
0.0
 40
5.0
 41
0.0
 71
     4
 72
     1
  1
\A1;tubolare\P50x50x2
 73
     1
 44
1.0
1001
ACAD
1000
MTEXTBEGIN
1070
    73
1070
     1
1070
    44
1040
1.0
1070
    74
1070
     0
1000
MTEXTEND
  0
DIMENSION
  5
9EA2
330
18
100
AcDbEntity
  8
QUOTE
100
AcDbDimension
  2
*D5
 10
855.1986397781119
 20
-977.4325133606437
 30
0.0
 11
850.6986397781121
 21
-982.4299832705216
 31
0.0
 70
    32
  1
10
 71
     5
 42
9.994939819756723
  3
STANDARD_WS
100
AcDbAlignedDimension
 13
859.1065312022227
 23
-987.4274531804003
 33
0.0
 14
867.7295284795743
 24
-977.4325133606437
 34
0.0
 50
90.0
100
AcDbRotatedDimension
1001
ACAD
1000
DSTYLE
1002
{
1070
    40
1040
2.0
1070
    41
1040
1.0
1070
    42
1040
1.5
1070
    43
1040
10.0
1070
    44
1040
0.0
1070
    79
1070
     2
1070
   141
1040
2.0
1070
   147
1040
1.0
1070
   176
1070
   256
1070
   177
1070
   256
1070
   178
1070
   256
1070
   179
1070
     1
1070
   271
1070
     1
1070
   272
1070
     1
1070
   341
1005
9FB4
1070
   342
1005
9FB4
1002
}
  0
DIMENSION
  5
9F00
330
18
100
AcDbEntity
  8
QUOTE
100
AcDbDimension
  2
*D6
 10
1049.048548566353
 20
-946.9499709824823
 30
0.0
 11
1044.548548566353
 21
-962.1912421715627
 31
0.0
 70
    32
  1
30
 71
     5
 42
30.48254237816116
  3
STANDARD_WS
100
AcDbAlignedDimension
 13
1028.67011842917
 23
-977.4325133606435
 33
0.0
 14
903.4066058630727
 24
-946.9499709824823
 34
0.0
 50
90.0
100
AcDbRotatedDimension
1001
ACAD
1000
DSTYLE
1002
{
1070
    40
1040
2.0
1070
    41
1040
1.0
1070
    42
1040
1.5
1070
    43
1040
10.0
1070
    44
1040
0.0
1070
    79
1070
     2
1070
   141
1040
2.0
1070
   147
1040
1.0
1070
   176
1070
   256
1070
   177
1070
   256
1070
   178
1070
   256
1070
   179
1070
     1
1070
   271
1070
     1
1070
   272
1070
     1
1070
   341
1005
9FB4
1070
   342
1005
9FB4
1002
}
  0
LEADER
  5
9F4A
330
18
100
AcDbEntity
  8
QUOTE
100
AcDbLeader
  3
STANDARD_WS
 73
     0
 74
     0
 75
     1
 40
15.0
 41
123.3333333333333
 76
     3
 10
896.2043925388211
 20
-810.8367638314101
 30
0.0
 10
916.6202262217984
 20
-797.2025881124573
 30
0.0
 10
918.6202262217985
 20
-797.2025881124573
 30
0.0
340
9F4B
213
0.0
223
-1.212566832805578
233
0.0
1001
ACAD
1000
DSTYLE
1002
{
1070
    40
1040
2.0
1070
    41
1040
1.0
1070
    42
1040
1.5
1070
    43
1040
10.0
1070
    44
1040
0.0
1070
    79
1070
     2
1070
   141
1040
2.0
1070
   147
1040
1.0
1070
   176
1070
   256
1070
   177
1070
   256
1070
   178
1070
   256
1070
   179
1070
     1
1070
   271
1070
     1
1070
   272
1070
     1
1070
   341
1005
9FB4
1070
   342
1005
9FB4
1002
}
  0
MTEXT
  5
9F4B
102
{ACAD_REACTORS
330
9F4A
102
}
330
18
100
AcDbEntity
  8
QUOTE
100
AcDbMText
 10
920.6202262217985
 20
-786.4900212796517
 30
0.0
 40
5.0
 41
0.0
 71
     4
 72
     1
  1
\A1;MATERIALE INTERNO COIBENTE\PSp.50mm
 73
     1
 44
1.0
1001
ACAD
1000
MTEXTBEGIN
1070
    73
1070
     1
1070
    44
1040
1.0
1070
    74
1070
     0
1000
MTEXTEND
  0
DIMENSION
  5
9F67
330
18
100
AcDbEntity
  8
QUOTE
100
AcDbDimension
  2
*D7
 10
829.7335766237685
 20
-959.7297426347594
 30
0.0
 11
848.7018475264692
 21
-959.7297426347594
 31
0.0
 70
   160
  1
40
 71
     5
 42
37.93654180540148
  3
STANDARD_WS
100
AcDbAlignedDimension
 13
867.6701184291699
 23
-977.4325133606433
 33
0.0
 14
829.7335766237685
 24
-958.1828104385929
 34
0.0
100
AcDbRotatedDimension
1001
ACAD
1000
DSTYLE
1002
{
1070
    40
1040
2.0
1070
    41
1040
1.0
1070
    42
1040
1.5
1070
    43
1040
10.0
1070
    44
1040
0.0
1070
    79
1070
     2
1070
   141
1040
2.0
1070
   147
1040
1.0
1070
   176
1070
   256
1070
   177
1070
   256
1070
   178
1070
   256
1070
   179
1070
     1
1070
   271
1070
     1
1070
   272
1070
     1
1070
   341
1005
9FB4
1070
   342
1005
9FB4
1002
}
  0
DIMENSION
  5
A00D
330
18
100
AcDbEntity
  8
QUOTE
100
AcDbDimension
  2
*D9
 10
956.6111761420629
 20
-937.6806858222808
 30
0.0
 11
946.6162363223057
 21
-937.6806858222808
 31
0.0
 70
   160
  1
D=20
 71
     5
 42
19.98987963951413
  3
STANDARD_WS
100
AcDbAlignedDimension
 13
936.6212965025487
 23
-937.7542674384491
 33
0.0
 14
956.6111761420629
 24
-937.7542674384491
 34
0.0
100
AcDbRotatedDimension
1001
ACAD
1000
DSTYLE
1002
{
1070
    40
1040
2.0
1070
    41
1040
1.0
1070
    42
1040
1.5
1070
    43
1040
10.0
1070
    44
1040
0.0
1070
    79
1070
     2
1070
   141
1040
2.0
1070
   147
1040
1.0
1070
   176
1070
   256
1070
   177
1070
   256
1070
   178
1070
   256
1070
   179
1070
     1
1070
   271
1070
     1
1070
   272
1070
     1
1070
   341
1005
9FB4
1070
   342
1005
9FB4
1002
}
  0
DIMENSION
  5
A02D
330
18
100
AcDbEntity
  8
QUOTE
100
AcDbDimension
  2
*D10
 10
984.4045780750281
 20
-832.400054852374
 30
0.0
 11
979.9045780750283
 21
-876.3777900593041
 31
0.0
 70
    32
 71
     5
 42
87.95547041386056
  3
STANDARD_WS
100
AcDbAlignedDimension
 13
961.6086460519412
 23
-920.3555252662345
 33
0.0
 14
961.6086460519412
 24
-832.400054852374
 34
0.0
 50
90.0
100
AcDbRotatedDimension
1001
ACAD
1000
DSTYLE
1002
{
1070
    40
1040
2.0
1070
    41
1040
1.0
1070
    42
1040
1.5
1070
    43
1040
10.0
1070
    44
1040
0.0
1070
    79
1070
     2
1070
   141
1040
2.0
1070
   147
1040
1.0
1070
   176
1070
   256
1070
   177
1070
   256
1070
   178
1070
   256
1070
   179
1070
     1
1070
   271
1070
     1
1070
   272
1070
     1
1070
   341
1005
9FB4
1070
   342
1005
9FB4
1002
}
  0
DIMENSION
  5
A03A
330
18
100
AcDbEntity
  8
QUOTE
100
AcDbDimension
  2
*D11
 10
946.67011842917
 20
-817.289544917696
 30
0.0
 11
924.1887922614422
 21
-812.7895449176961
 31
0.0
 70
    32
 71
     5
 42
44.96265233545568
  3
STANDARD_WS
100
AcDbAlignedDimension
 13
901.7074660937142
 23
-829.9102534538766
 33
0.0
 14
946.67011842917
 24
-822.5076740496378
 34
0.0
100
AcDbRotatedDimension
1001
ACAD
1000
DSTYLE
1002
{
1070
    40
1040
2.0
1070
    41
1040
1.0
1070
    42
1040
1.5
1070
    43
1040
10.0
1070
    44
1040
0.0
1070
    79
1070
     2
1070
   141
1040
2.0
1070
   147
1040
1.0
1070
   176
1070
   256
1070
   177
1070
   256
1070
   178
1070
   256
1070
   179
1070
     1
1070
   271
1070
     1
1070
   272
1070
     1
1070
   341
1005
9FB4
1070
   342
1005
9FB4
1002
}
  0
DIMENSION
  5
A073
330
18
100
AcDbEntity
  8
QUOTE
100
AcDbDimension
  2
*D12
 10
967.2190037849675
 20
-972.1444073042505
 30
0.0
 11
946.67011842917
 21
-972.1444073042505
 31
0.0
 70
   160
  1
41
 71
     5
 42
41.09456079417486
  3
STANDARD_WS
100
AcDbAlignedDimension
 13
926.1244429907927
 23
-972.1444073042505
 33
0.0
 14
967.2190037849675
 24
-972.1444073042505
 34
0.0
100
AcDbRotatedDimension
1001
ACAD
1000
DSTYLE
1002
{
1070
    40
1040
2.0
1070
    41
1040
1.0
1070
    42
1040
1.5
1070
    43
1040
10.0
1070
    44
1040
0.0
1070
    79
1070
     2
1070
   141
1040
2.0
1070
   147
1040
1.0
1070
   176
1070
   256
1070
   177
1070
   256
1070
   178
1070
   256
1070
   179
1070
     1
1070
   271
1070
     1
1070
   272
1070
     1
1070
   341
1005
9FB4
1070
   342
1005
9FB4
1002
}
  0
DIMENSION
  5
A128
330
18
100
AcDbEntity
  8
QUOTE
100
AcDbDimension
  2
*D13
 10
849.7335766237686
 20
-732.7221782551316
 30
0.0
 11
875.7205213587415
 21
-728.2221782551316
 31
0.0
 70
    32
 71
     5
 42
51.97388946994568
  3
STANDARD_WS
100
AcDbAlignedDimension
 13
901.7074660937142
 23
-742.1966569276374
 33
0.0
 14
849.7335766237686
 24
-742.1966569276374
 34
0.0
100
AcDbRotatedDimension
1001
ACAD
1000
DSTYLE
1002
{
1070
    40
1040
2.0
1070
    41
1040
1.0
1070
    42
1040
1.5
1070
    43
1040
10.0
1070
    44
1040
0.0
1070
    79
1070
     2
1070
   141
1040
2.0
1070
   147
1040
1.0
1070
   176
1070
   256
1070
   177
1070
   256
1070
   178
1070
   256
1070
   179
1070
     1
1070
   271
1070
     1
1070
   272
1070
     1
1070
   341
1005
9FB4
1070
   342
1005
9FB4
1002
}
  0
MTEXT
  5
A313
330
18
100
AcDbEntity
  8
QUOTE
 62
   140
100
AcDbMText
 10
721.6288208120714
 20
-918.7166105232636
 30
0.0
 40
12.0
 41
0.0
 71
     1
 72
     1
  1
{\C12;LATO ESTERNO}
 11
0.0000000000000001
 21
1.0
 31
0.0
 73
     1
 44
1.0
1001
ACAD
1000
MTEXTBEGIN
1070
    73
1070
     1
1070
    44
1040
1.0
1070
    74
1070
     0
1000
MTEXTEND
  0
MTEXT
  5
A315
330
18
100
AcDbEntity
  8
QUOTE
 62
   140
100
AcDbMText
 10
1066.973665959769
 20
-918.7166105232636
 30
0.0
 40
12.0
 41
0.0
 71
     1
 72
     1
  1
{\C12;LATO INTERNO}
 11
0.0000000000000001
 21
1.0
 31
0.0
 73
     1
 44
1.0
1001
ACAD
1000
MTEXTBEGIN
1070
    73
1070
     1
1070
    44
1040
1.0
1070
    74
1070
     0
1000
MTEXTEND
  0
MTEXT
  5
A326
330
18
100
AcDbEntity
  8
QUOTE
100
AcDbMText
 10
799.4008873209859
 20
-868.2568830066204
 30
0.0
 40
5.0
 41
0.0
 71
     1
 72
     1
  1
MURATURA
 11
0.0000000000000001
 21
1.0
 31
0.0
 73
     1
 44
1.0
1001
ACAD
1000
MTEXTBEGIN
1070
    73
1070
     1
1070
    44
1040
1.0
1070
    74
1070
     0
1000
MTEXTEND
  0
HATCH
  5
A414
330
18
100
AcDbEntity
  8
AREA166
100
AcDbHatch
 10
0.0
 20
0.0
 30
0.0
210
0.0
220
0.0
230
1.0
  2
HONEY
 70
     0
 71
     0
 91
        1
 92
        5
 93
        4
 72
     4
 94
        3
 73
     0
 74
     0
 95
       12
 96
        8
 40
0.8096836502009239
 40
0.8096836502009239
 40
0.8096836502009239
 40
0.8096836502009239
 40
1.210493715585144
 40
12.22555427233655
 40
27.03324258993652
 40
41.15024524698918
 40
52.59017686669892
 40
52.59017686669896
 40
52.59017686669896
 40
52.59017686669896
 10
900.9078709081336
 20
-742.2071600271168
 10
900.7743479271425
 20
-742.206117916722
 10
896.9759744840196
 20
-742.1164369298775
 10
888.705359784104
 20
-736.0151263889327
 10
875.9882077227519
 20
-746.9324537552245
 10
862.7894735071038
 20
-738.8282588996217
 10
854.3005050029231
 20
-741.5683422465534
 10
850.5331718093492
 20
-742.1966569276373
 72
     1
 10
850.5331718093495
 20
-742.1966569276373
 11
850.5331718093495
 21
-884.7814453035947
 72
     1
 10
850.5331718093495
 20
-884.7814453035947
 11
900.9078709081336
 21
-884.7814453035944
 72
     1
 10
900.9078709081336
 20
-884.7814453035944
 11
900.9078709081334
 21
-742.2071600271167
 97
        0
 75
     0
 76
     1
 52
0.0
 41
1.399999999999999
 77
     0
 78
     3
 53
0.0
 43
0.0
 44
0.0
 45
6.667499999999999
 46
3.849481999999999
 79
     2
 49
4.444999999999999
 49
-8.889999999999998
 53
120.0
 43
0.0
 44
0.0
 45
-6.667499203410927
 46
3.849483379732746
 79
     2
 49
4.444999999999999
 49
-8.889999999999998
 53
60.0
 43
0.0
 44
0.0
 45
0.0000007965890726
 46
7.698965379732743
 79
     2
 49
-8.889999999999998
 49
4.444999999999999
 47
0.4467517352306957
 98
        1
 10
877.6117136368725
 20
-826.2587832986055
  0
HATCH
  5
A4DF
330
18
100
AcDbEntity
  8
AREA166
100
AcDbHatch
 10
0.0
 20
0.0
 30
0.0
210
0.0
220
0.0
230
1.0
  2
ANSI35
 70
     0
 71
     0
 91
        2
 92
        7
 72
     0
 73
     1
 93
        4
 10
829.7335766237686
 20
-741.3687047604582
 10
781.9988638886591
 20
-743.5316778842119
 10
769.5875610038229
 20
-987.4274531804005
 10
829.7335766237685
 20
-987.4274531804005
 97
        0
 92
       24
 93
        4
 72
     1
 10
798.1508873209859
 20
-869.5068830066205
 11
798.1508873209859
 21
-828.673549673287
 72
     1
 10
798.1508873209859
 20
-828.673549673287
 11
805.6508873209859
 21
-828.673549673287
 72
     1
 10
805.6508873209859
 20
-828.673549673287
 11
805.6508873209859
 21
-869.5068830066205
 72
     1
 10
805.6508873209859
 20
-869.5068830066205
 11
798.1508873209859
 21
-869.5068830066205
 97
        0
 75
     0
 76
     1
 52
0.0
 41
3.0
 77
     0
 78
     2
 53
45.0
 43
0.0
 44
0.0
 45
-13.47038418160372
 46
13.47038418160373
 79
     0
 53
45.0
 43
13.47039
 44
0.0
 45
-13.47038418160372
 46
13.47038418160373
 79
     4
 49
23.8125
 49
-4.762499999999999
 49
0.0
 49
-4.762499999999999
 47
0.6077955033363324
 98
        1
 10
791.9718888467175
 20
-896.6694948934783
  0
SPLINE
  5
A50F
330
18
100
AcDbEntity
  8
FERRO
100
AcDbSpline
210
0.0
220
0.0
230
1.0
 70
  1064
 71
     3
 72
     9
 73
     5
 74
     3
 42
0.000000001
 43
0.0000000001
 44
0.0000000001
 40
0.0
 40
0.0
 40
0.0
 40
0.0
 40
5.404493786388876
 40
10.88712240563799
 40
10.88712240563799
 40
10.88712240563799
 40
10.88712240563799
 10
903.4066058630729
 20
-741.0756427987013
 30
0.0
 10
905.2717574846974
 20
-741.1366086465001
 30
0.0
 10
909.0290259380052
 20
-741.2594217486671
 30
0.0
 10
911.9404476457772
 20
-738.8777227320413
 30
0.0
 10
913.4066058630729
 20
-737.6783267204534
 30
0.0
 11
903.4066058630729
 21
-741.0756427987013
 31
0.0
 11
908.7936233915021
 21
-740.6413672692124
 31
0.0
 11
913.4066058630729
 21
-737.6783267204534
 31
0.0
  0
LWPOLYLINE
  5
A512
330
18
100
AcDbEntity
  8
AREA166
 62
   250
100
AcDbPolyline
 90
        2
 70
     0
 43
0.0
 10
903.4066058630729
 20
-960.0621617816164
 10
903.4066058630729
 20
-920.3555252662345
  0
LWPOLYLINE
  5
A513
330
18
100
AcDbEntity
  8
AREA166
 62
   250
100
AcDbPolyline
 90
        2
 70
     0
 43
0.0
 10
913.4066058630729
 20
-958.6509780357054
 10
913.4066058630729
 20
-920.3555252662345
  0
LWPOLYLINE
  5
A514
330
18
100
AcDbEntity
  8
AREA166
 62
   250
100
AcDbPolyline
 90
        3
 70
     0
 43
0.0
 10
913.4066058630729
 20
-832.400054852374
 10
913.4066058630729
 20
-737.6783267204538
 10
913.4066058630729
 20
-737.6783267204538
  0
LWPOLYLINE
  5
A515
330
18
100
AcDbEntity
  8
AREA166
 62
   250
100
AcDbPolyline
 90
        3
 70
     0
 43
0.0
 10
903.4066058630729
 20
-832.400054852374
 10
903.4066058630729
 20
-741.0756427987013
 10
903.4066058630729
 20
-741.0756427987013
  0
HATCH
  5
A52A
330
18
100
AcDbEntity
  8
AREA166
100
AcDbHatch
 10
0.0
 20
0.0
 30
0.0
210
0.0
220
0.0
230
1.0
  2
HOUND
 70
     0
 71
     0
 91
        2
 92
        7
 72
     1
 73
     1
 93
        4
 10
913.4066058630729
 20
-920.3555252662345
 42
0.0
 10
903.4066058630729
 20
-920.3555252662345
 42
0.0
 10
903.4066058630729
 20
-960.0621617816164
 42
-0.0223300257136083
 10
913.4066058630729
 20
-958.6509780357054
 42
0.0
 97
        0
 92
        5
 93
        4
 72
     4
 94
        3
 73
     0
 74
     0
 95
        9
 96
        5
 40
0.0
 40
0.0
 40
0.0
 40
0.0
 40
5.482628619249119
 40
10.88712240563799
 40
10.88712240563799
 40
10.88712240563799
 40
10.88712240563799
 10
913.4066058630729
 20
-737.6783267204534
 10
911.940447645777
 20
-738.8777227320414
 10
909.0290259380054
 20
-741.2594217486671
 10
905.2717574846973
 20
-741.1366086465002
 10
903.4066058630729
 20
-741.0756427987013
 72
     1
 10
903.4066058630729
 20
-741.0756427987013
 11
903.4066058630731
 21
-832.400054852374
 72
     1
 10
903.4066058630731
 20
-832.400054852374
 11
913.4066058630729
 21
-832.4000548523738
 72
     1
 10
913.4066058630729
 20
-832.4000548523738
 11
913.4066058630731
 21
-737.6783267204536
 97
        0
 75
     0
 76
     1
 52
0.0
 41
2.0
 77
     0
 78
     2
 53
0.0
 43
0.0
 44
0.0
 45
12.7
 46
3.174999999999999
 79
     2
 49
50.8
 49
-25.4
 53
90.0
 43
0.0
 44
0.0
 45
-3.175
 46
-12.7
 79
     2
 49
50.8
 49
-25.4
 47
0.6140623869132882
 98
        2
 10
909.6031194432278
 20
-939.5972814567777
 10
909.6031194432278
 20
-787.3098091495469
  0
LEADER
  5
A547
330
18
100
AcDbEntity
  8
QUOTE
100
AcDbLeader
  3
STANDARD_WS
 73
     0
 74
     0
 75
     1
 40
23.49795722182168
 41
64.16666666666666
 76
     3
 10
912.6222991991793
 20
-761.1089666401856
 30
0.0
 10
942.8650394444993
 20
-742.8583122952902
 30
0.0
 10
944.8650394444992
 20
-742.8583122952902
 30
0.0
340
A548
1001
ACAD
1000
DSTYLE
1002
{
1070
    40
1040
2.0
1070
    41
1040
1.0
1070
    42
1040
1.5
1070
    43
1040
10.0
1070
    44
1040
0.0
1070
   141
1040
2.0
1070
   147
1040
1.0
1070
   176
1070
   256
1070
   177
1070
   256
1070
   178
1070
   256
1070
   341
1005
9FB4
1070
   342
1005
9FB4
1002
}
  0
MTEXT
  5
A548
102
{ACAD_REACTORS
330
A547
102
}
330
18
100
AcDbEntity
  8
QUOTE
100
AcDbMText
 10
946.8650394444992
 20
-729.1093336843793
 30
0.0
 40
5.0
 41
0.0
 71
     4
 72
     1
  1
asta cariglione\P{\fTimes New Roman|b0|i0|c0|p18;     (solo in caso di \P   portone manuale) }
 73
     1
 44
1.0
1001
ACAD
1000
MTEXTBEGIN
1070
    73
1070
     1
1070
    44
1040
1.0
1070
    74
1070
     0
1000
MTEXTEND
  0
LINE
  5
A55B
330
18
100
AcDbEntity
  8
0
100
AcDbLine
 10
899.7335766237688
 20
-741.3687047604582
 30
0.0
 11
899.7335766237679
 21
-695.9816233726798
 31
0.0
  0
SPLINE
  5
A565
330
18
100
AcDbEntity
  8
FERRO
100
AcDbSpline
210
0.0
220
0.0
230
1.0
 70
     8
 71
     3
 72
     8
 73
     4
 74
     0
 42
0.000000001
 43
0.0000000001
 40
81.5283216292488
 40
81.5283216292488
 40
81.5283216292488
 40
81.5283216292488
 40
101.5052561393206
 40
101.5052561393206
 40
101.5052561393206
 40
101.5052561393206
 10
899.7335766237679
 20
-695.9816233726798
 30
0.0
 10
878.606502603006
 20
-693.9779406681866
 30
0.0
 10
856.9389197218557
 20
-702.4147284929327
 30
0.0
 10
829.7335766237688
 20
-695.9816233726798
 30
0.0
  0
LINE
  5
A566
330
18
100
AcDbEntity
  8
0
  6
TRATTEGGIATA2
100
AcDbLine
 10
831.7335766237693
 20
-977.4325133606437
 30
0.0
 11
831.733576623769
 21
-696.4302395262449
 31
0.0
  0
LINE
  5
A567
330
18
100
AcDbEntity
  8
0
100
AcDbLine
 10
829.7335766237686
 20
-977.4325133606437
 30
0.0
 11
829.7335766237688
 21
-695.9816233726798
 31
0.0
  0
LINE
  5
A568
330
18
100
AcDbEntity
  8
0
100
AcDbLine
 10
899.7335766237688
 20
-960.8121369649113
 30
0.0
 11
899.7335766237688
 21
-946.9499709824823
 31
0.0
  0
LINE
  5
A569
330
18
100
AcDbEntity
  8
0
  6
TRATTEGGIATA2
100
AcDbLine
 10
897.7335766237686
 20
-958.5357001407711
 30
0.0
 11
897.7335766237688
 21
-950.353864951559
 31
0.0
  0
LINE
  5
A56F
330
18
100
AcDbEntity
  8
FERRO
 62
     6
370
     5
100
AcDbLine
 10
866.7335766237686
 20
-977.4325133606435
 30
0.0
 11
829.7335766237686
 21
-977.4325133606437
 31
0.0
  0
MTEXT
  5
A575
330
18
100
AcDbEntity
  8
QUOTE
100
AcDbMText
 10
836.988819539003
 20
-762.6580696285412
 30
0.0
 40
5.0
 41
0.0
 71
     3
 72
     1
  1
piantone laterale
 11
0.0000000000000001
 21
1.0
 31
0.0
 73
     1
 44
1.0
1001
ACAD
1000
MTEXTBEGIN
1070
    73
1070
     1
1070
    44
1040
1.0
1070
    74
1070
     0
1000
MTEXTEND
  0
VIEWPORT
  5
32
102
{ACAD_XDICTIONARY
360
A5EC
102
}
330
15
100
AcDbEntity
 67
     1
  8
0
100
AcDbViewport
 10
7.258166969147005
 20
4.25
 30
0.0
 40
14.51633393829401
 41
8.5
 68
     2
 69
     1
 12
7.258166969147005
 22
4.25
 13
0.0
 23
0.0
 14
10.0
 24
10.0
 15
10.0
 25
10.0
 16
0.0
 26
0.0
 36
1.0
 17
0.0
 27
0.0
 37
0.0
 42
50.0
 43
0.0
 44
0.0
 45
8.5
 50
0.0
 51
0.0
 72
   100
 90
    32800
  1

281
     0
 71
     1
 74
     0
110
0.0
120
0.0
130
0.0
111
1.0
121
0.0
131
0.0
112
0.0
122
1.0
132
0.0
 79
     0
146
0.0
  0
VIEWPORT
  5
35
102
{ACAD_XDICTIONARY
360
A5EE
102
}
330
15
100
AcDbEntity
 67
     1
  8
QUOTE
100
AcDbViewport
 10
5.5
 20
4.25
 30
0.0
 40
11.0
 41
8.5
 68
     1
 69
     2
 12
148.5
 22
105.0
 13
0.0
 23
0.0
 14
7.0
 24
7.0
 15
7.0
 25
7.0
 16
0.0
 26
0.0
 36
1.0
 17
0.0
 27
0.0
 37
0.0
 42
50.0
 43
0.0
 44
0.0
 45
234.0126404494382
 50
0.0
 51
0.0
 72
   100
 90
    32800
  1

281
     0
 71
     1
 74
     0
110
0.0
120
0.0
130
0.0
111
1.0
121
0.0
131
0.0
112
0.0
122
1.0
132
0.0
 79
     0
146
0.0
  0
ENDSEC
  0
SECTION
  2
OBJECTS
  0
DICTIONARY
  5
C
330
0
100
AcDbDictionary
281
     1
  3
ACAD_CIP_PREVIOUS_PRODUCT_INFO
350
A5CC
  3
ACAD_COLOR
350
A5AA
  3
ACAD_DETAILVIEWSTYLE
350
A5C3
  3
ACAD_GROUP
350
D
  3
ACAD_LAYOUT
350
9F50
  3
ACAD_MATERIAL
350
A578
  3
ACAD_MLEADERSTYLE
350
A5BF
  3
ACAD_MLINESTYLE
350
1B
  3
ACAD_PLOTSETTINGS
350
9F51
  3
ACAD_PLOTSTYLENAME
350
9F4E
  3
ACAD_SCALELIST
350
A5AD
  3
ACAD_SECTIONVIEWSTYLE
350
A5C1
  3
ACAD_TABLESTYLE
350
A5AB
  3
ACAD_VISUALSTYLE
350
A591
  3
AcadDim
350
A52D
  3
ACDB_RECOMPOSE_DATA
350
A5EA
  3
ACDBVARIABLEDICTIONARY
350
36
  3
CONTENTDICTIONARY
350
23
  3
DWGPROPS
350
A5EB
  0
DICTIONARY
  5
A5CD
330
E
100
AcDbDictionary
280
     1
281
     1
  3
ADSK_XREC_LAYER_RECONCILED
360
A5CE
  0
DICTIONARY
  5
A5CF
330
33
100
AcDbDictionary
280
     1
281
     1
  3
ADSK_XREC_LAYER_RECONCILED
360
A5D0
  0
DICTIONARY
  5
A5D1
330
43
100
AcDbDictionary
280
     1
281
     1
  3
ADSK_XREC_LAYER_RECONCILED
360
A5D2
  0
DICTIONARY
  5
A5D3
330
59
100
AcDbDictionary
280
     1
281
     1
  3
ADSK_XREC_LAYER_RECONCILED
360
A5D4
  0
DICTIONARY
  5
A5D5
330
5AF
100
AcDbDictionary
280
     1
281
     1
  3
ADSK_XREC_LAYER_RECONCILED
360
A5D6
  0
DICTIONARY
  5
A5D7
330
185F
100
AcDbDictionary
280
     1
281
     1
  3
ADSK_XREC_LAYER_RECONCILED
360
A5D8
  0
DICTIONARY
  5
A5D9
330
2DBD
100
AcDbDictionary
280
     1
281
     1
  3
ADSK_XREC_LAYER_RECONCILED
360
A5DA
  0
DICTIONARY
  5
A5DB
330
2DBE
100
AcDbDictionary
280
     1
281
     1
  3
ADSK_XREC_LAYER_RECONCILED
360
A5DC
  0
DICTIONARY
  5
A5DD
330
9F5E
100
AcDbDictionary
280
     1
281
     1
  3
ADSK_XREC_LAYER_RECONCILED
360
A5DE
  0
DICTIONARY
  5
A5EC
330
32
100
AcDbDictionary
280
     1
281
     1
  3
ACAD_XREC_ROUNDTRIP
360
A5ED
  0
DICTIONARY
  5
A5EE
330
35
100
AcDbDictionary
280
     1
281
     1
  3
ACAD_XREC_ROUNDTRIP
360
A5EF
  0
XRECORD
  5
A5CC
102
{ACAD_REACTORS
330
C
102
}
330
C
100
AcDbXrecord
280
     1
300
ACDLT
300
2013
300
ACDLT_F_S
  0
DICTIONARY
  5
A5AA
102
{ACAD_REACTORS
330
C
102
}
330
C
100
AcDbDictionary
281
     1
  0
DICTIONARY
  5
A5C3
102
{ACAD_REACTORS
330
C
102
}
330
C
100
AcDbDictionary
281
     1
  3
Metric50
350
A5C4
  0
DICTIONARY
  5
D
102
{ACAD_REACTORS
330
C
102
}
330
C
100
AcDbDictionary
281
     1
  0
DICTIONARY
  5
9F50
102
{ACAD_REACTORS
330
C
102
}
330
C
100
AcDbDictionary
281
     1
  3
Layout1
350
9F53
  3
Model
350
9F52
  0
DICTIONARY
  5
A578
102
{ACAD_REACTORS
330
C
102
}
330
C
100
AcDbDictionary
281
     1
  3
ByBlock
350
A581
  3
ByLayer
350
A579
  3
Global
350
A589
  0
DICTIONARY
  5
A5BF
102
{ACAD_REACTORS
330
C
102
}
330
C
100
AcDbDictionary
281
     1
  3
Standard
350
A5C0
  0
DICTIONARY
  5
1B
102
{ACAD_REACTORS
330
C
102
}
330
C
100
AcDbDictionary
281
     1
  3
STANDARD
350
1C
  0
DICTIONARY
  5
9F51
102
{ACAD_REACTORS
330
C
102
}
330
C
100
AcDbDictionary
281
     1
  0
ACDBDICTIONARYWDFLT
  5
9F4E
102
{ACAD_REACTORS
330
C
102
}
330
C
100
AcDbDictionary
281
     1
  3
Normal
350
9F4F
100
AcDbDictionaryWithDefault
340
9F4F
  0
DICTIONARY
  5
A5AD
102
{ACAD_REACTORS
330
C
102
}
330
C
100
AcDbDictionary
281
     1
  3
A0
350
A5AE
  3
A1
350
A5AF
  3
A2
350
A5B0
  3
A3
350
A5B1
  3
A4
350
A5B2
  3
A5
350
A5B3
  3
A6
350
A5B4
  3
A7
350
A5B5
  3
A8
350
A5B6
  3
A9
350
A5B7
  3
B0
350
A5B8
  3
B1
350
A5B9
  3
B2
350
A5BA
  3
B3
350
A5BB
  3
B4
350
A5BC
  3
B5
350
A5BD
  3
B6
350
A5BE
  0
DICTIONARY
  5
A5C1
102
{ACAD_REACTORS
330
C
102
}
330
C
100
AcDbDictionary
281
     1
  3
Metric50
350
A5C2
  0
DICTIONARY
  5
A5AB
102
{ACAD_REACTORS
330
C
102
}
330
C
100
AcDbDictionary
281
     1
  3
Standard
350
A5AC
  0
DICTIONARY
  5
A591
102
{ACAD_REACTORS
330
C
102
}
330
C
100
AcDbDictionary
281
     1
  3
2dWireframe
350
A597
  3
Basic
350
A596
  3
Brighten
350
A59D
  3
ColorChange
350
A5A1
  3
Conceptual
350
A59A
  3
Dim
350
A59C
  3
EdgeColorOff
350
A5A9
  3
Facepattern
350
A5A0
  3
Flat
350
A592
  3
FlatWithEdges
350
A593
  3
Gouraud
350
A594
  3
GouraudWithEdges
350
A595
  3
Hidden
350
A599
  3
JitterOff
350
A5A7
  3
Linepattern
350
A59F
  3
OverhangOff
350
A5A8
  3
Realistic
350
A59B
  3
Shaded
350
A5A6
  3
Shaded with edges
350
A5A5
  3
Shades of Gray
350
A5A2
  3
Sketchy
350
A5A3
  3
Thicken
350
A59E
  3
Wireframe
350
A598
  3
X-Ray
350
A5A4
  0
XRECORD
  5
A52D
102
{ACAD_REACTORS
330
C
102
}
330
C
100
AcDbXrecord
280
     1
 90
   990106
  3

 60
     0
 61
     0
 62
     1
 63
     3
 64
     0
 65
     0
 66
     0
 67
     3
 68
     1
 69
     0
 70
     0
 71
     0
 72
     0
 40
0.0
170
     0
  0
XRECORD
  5
A5EA
102
{ACAD_REACTORS
330
C
102
}
330
C
100
AcDbXrecord
280
     1
 90
        1
330
A5AC
  0
DICTIONARY
  5
36
102
{ACAD_REACTORS
330
C
102
}
330
C
100
AcDbDictionary
281
     1
  3
CANNOSCALE
350
A5E3
  3
CMLEADERSTYLE
350
A5E0
  3
CTABLESTYLE
350
A5DF
  3
CVIEWDETAILSTYLE
350
A5E1
  3
CVIEWSECTIONSTYLE
350
A5E2
  3
DIMADEC
350
37
  3
DIMASSOC
350
A5E5
  3
INDEXCTL
350
A5E4
  3
SORTENTS
350
10E
  3
XCLIPFRAME
350
A5E6
  0
DICTIONARY
  5
23
102
{ACAD_REACTORS
330
C
102
}
330
C
100
AcDbDictionary
281
     1
  0
XRECORD
  5
A5EB
102
{ACAD_REACTORS
330
C
102
}
330
C
100
AcDbXrecord
280
     1
  1
DWGPROPS COOKIE
  2

  3

  4

  6

  7

  8
demom
  9

300
=
301
=
302
=
303
=
304
=
305
=
306
=
307
=
308
=
309
=
 40
0.2468007291666667
 41
2451513.764827315
 42
2457730.48453794
  1

 90
        0
  0
XRECORD
  5
A5CE
102
{ACAD_REACTORS
330
A5CD
102
}
330
A5CD
100
AcDbXrecord
280
     1
290
     1
  0
XRECORD
  5
A5D0
102
{ACAD_REACTORS
330
A5CF
102
}
330
A5CF
100
AcDbXrecord
280
     1
290
     1
  0
XRECORD
  5
A5D2
102
{ACAD_REACTORS
330
A5D1
102
}
330
A5D1
100
AcDbXrecord
280
     1
290
     1
  0
XRECORD
  5
A5D4
102
{ACAD_REACTORS
330
A5D3
102
}
330
A5D3
100
AcDbXrecord
280
     1
290
     1
  0
XRECORD
  5
A5D6
102
{ACAD_REACTORS
330
A5D5
102
}
330
A5D5
100
AcDbXrecord
280
     1
290
     1
  0
XRECORD
  5
A5D8
102
{ACAD_REACTORS
330
A5D7
102
}
330
A5D7
100
AcDbXrecord
280
     1
290
     1
  0
XRECORD
  5
A5DA
102
{ACAD_REACTORS
330
A5D9
102
}
330
A5D9
100
AcDbXrecord
280
     1
290
     1
  0
XRECORD
  5
A5DC
102
{ACAD_REACTORS
330
A5DB
102
}
330
A5DB
100
AcDbXrecord
280
     1
290
     1
  0
XRECORD
  5
A5DE
102
{ACAD_REACTORS
330
A5DD
102
}
330
A5DD
100
AcDbXrecord
280
     1
290
     1
  0
XRECORD
  5
A5ED
102
{ACAD_REACTORS
330
A5EC
102
}
330
A5EC
100
AcDbXrecord
280
     1
102
SHADEPLOT
 70
     0
  0
XRECORD
  5
A5EF
102
{ACAD_REACTORS
330
A5EE
102
}
330
A5EE
100
AcDbXrecord
280
     1
102
SHADEPLOT
 70
     0
  0
ACDBDETAILVIEWSTYLE
  5
A5C4
102
{ACAD_REACTORS
330
A5C3
102
}
330
A5C3
100
AcDbModelDocViewStyle
 70
     0
  3
Metric50
290
     0
100
AcDbDetailViewStyle
 70
     0
 71
     0
 90
        3
 71
     1
340
F
 40
5.0
340
0
 40
5.0
300

 40
0.0
280
     1
 71
     2
340
14
 90
       25
 71
     3
340
F
 40
5.0
 90
        0
 40
15.0
 90
        1
300
%<\AcVar ViewDetailId>% (%<\AcVar ViewScale \f "%sn">%)
 71
     4
340
14
 90
       25
340
14
 90
       25
280
     0
  0
LAYOUT
  5
9F53
102
{ACAD_XDICTIONARY
360
A5F2
102
}
102
{ACAD_REACTORS
330
9F50
102
}
330
9F50
100
AcDbPlotSettings
  1

  2
EPSON Stylus COLOR 1520
  4

  6

 40
0.0
 41
0.0
 42
0.0
 43
0.0
 44
0.0
 45
0.0
 46
0.0
 47
0.0
 48
0.0
 49
0.0
140
0.0
141
0.0
142
1.0
143
1.0
 70
   688
 72
     0
 73
     0
 74
     5
  7
aclt.ctb
 75
    16
147
1.0
148
0.0
149
0.0
100
AcDbLayout
  1
Layout1
 70
     1
 71
     1
 10
0.0
 20
0.0
 11
11.0
 21
8.5
 12
0.0
 22
0.0
 32
0.0
 14
0.0
 24
0.0
 34
0.0
 15
11.0
 25
8.5
 35
0.0
146
0.0
 13
0.0
 23
0.0
 33
0.0
 16
1.0
 26
0.0
 36
0.0
 17
0.0
 27
1.0
 37
0.0
 76
     0
330
15
331
35
  0
LAYOUT
  5
9F52
102
{ACAD_XDICTIONARY
360
A5F0
102
}
102
{ACAD_REACTORS
330
9F50
102
}
330
9F50
100
AcDbPlotSettings
  1

  2
HP LaserJet 4100 PCL 6
  4
A4
  6

 40
4.233333110809326
 41
4.910679340362548
 42
4.910659790039062
 43
4.23333740234375
 44
209.9733276367187
 45
296.9259948730469
 46
0.27
 47
14.72
 48
701.6064307373719
 49
-1189.461883555691
140
1102.178902991164
141
-672.7637351047889
142
1.0
143
2.0
 70
 11940
 72
     1
 73
     0
 74
     4
  7
aclt.ctb
 75
     0
147
0.5
148
-701.6064307373719
149
1189.461883555691
100
AcDbLayout
  1
Model
 70
     1
 71
     0
 10
0.0
 20
0.0
 11
12.0
 21
9.0
 12
0.0
 22
0.0
 32
0.0
 14
0.0
 24
0.0
 34
0.0
 15
0.0
 25
0.0
 35
0.0
146
0.0
 13
0.0
 23
0.0
 33
0.0
 16
1.0
 26
0.0
 36
0.0
 17
0.0
 27
1.0
 37
0.0
 76
     0
330
18
331
A576
  0
MATERIAL
  5
A581
102
{ACAD_XDICTIONARY
360
A582
102
}
102
{ACAD_REACTORS
330
A578
102
}
330
A578
100
AcDbMaterial
  1
ByBlock
 72
     0
 43
0.0208333333333333
 43
0.0
 43
0.0
 43
0.0
 43
0.0
 43
0.0208333333333333
 43
0.0
 43
0.0
 43
0.0
 43
0.0
 43
1.0
 43
0.0
 43
0.0
 43
0.0
 43
0.0
 43
1.0
 77
     0
 47
0.0208333333333333
 47
0.0
 47
0.0
 47
0.0
 47
0.0
 47
0.0208333333333333
 47
0.0
 47
0.0
 47
0.0
 47
0.0
 47
1.0
 47
0.0
 47
0.0
 47
0.0
 47
0.0
 47
1.0
171
     0
 49
0.0208333333333333
 49
0.0
 49
0.0
 49
0.0
 49
0.0
 49
0.0208333333333333
 49
0.0
 49
0.0
 49
0.0
 49
0.0
 49
1.0
 49
0.0
 49
0.0
 49
0.0
 49
0.0
 49
1.0
175
     0
142
0.0208333333333333
142
0.0
142
0.0
142
0.0
142
0.0
142
0.0208333333333333
142
0.0
142
0.0
142
0.0
142
0.0
142
1.0
142
0.0
142
0.0
142
0.0
142
0.0
142
1.0
179
     0
144
0.0208333333333333
144
0.0
144
0.0
144
0.0
144
0.0
144
0.0208333333333333
144
0.0
144
0.0
144
0.0
144
0.0
144
1.0
144
0.0
144
0.0
144
0.0
144
0.0
144
1.0
147
0.0208333333333333
147
0.0
147
0.0
147
0.0
147
0.0
147
0.0208333333333333
147
0.0
147
0.0
147
0.0
147
0.0
147
1.0
147
0.0
147
0.0
147
0.0
147
0.0
147
1.0
  0
MATERIAL
  5
A579
102
{ACAD_XDICTIONARY
360
A57A
102
}
102
{ACAD_REACTORS
330
A578
102
}
330
A578
100
AcDbMaterial
  1
ByLayer
 72
     0
 43
0.0208333333333333
 43
0.0
 43
0.0
 43
0.0
 43
0.0
 43
0.0208333333333333
 43
0.0
 43
0.0
 43
0.0
 43
0.0
 43
1.0
 43
0.0
 43
0.0
 43
0.0
 43
0.0
 43
1.0
 77
     0
 47
0.0208333333333333
 47
0.0
 47
0.0
 47
0.0
 47
0.0
 47
0.0208333333333333
 47
0.0
 47
0.0
 47
0.0
 47
0.0
 47
1.0
 47
0.0
 47
0.0
 47
0.0
 47
0.0
 47
1.0
171
     0
 49
0.0208333333333333
 49
0.0
 49
0.0
 49
0.0
 49
0.0
 49
0.0208333333333333
 49
0.0
 49
0.0
 49
0.0
 49
0.0
 49
1.0
 49
0.0
 49
0.0
 49
0.0
 49
0.0
 49
1.0
175
     0
142
0.0208333333333333
142
0.0
142
0.0
142
0.0
142
0.0
142
0.0208333333333333
142
0.0
142
0.0
142
0.0
142
0.0
142
1.0
142
0.0
142
0.0
142
0.0
142
0.0
142
1.0
179
     0
144
0.0208333333333333
144
0.0
144
0.0
144
0.0
144
0.0
144
0.0208333333333333
144
0.0
144
0.0
144
0.0
144
0.0
144
1.0
144
0.0
144
0.0
144
0.0
144
0.0
144
1.0
147
0.0208333333333333
147
0.0
147
0.0
147
0.0
147
0.0
147
0.0208333333333333
147
0.0
147
0.0
147
0.0
147
0.0
147
1.0
147
0.0
147
0.0
147
0.0
147
0.0
147
1.0
  0
MATERIAL
  5
A589
102
{ACAD_XDICTIONARY
360
A58A
102
}
102
{ACAD_REACTORS
330
A578
102
}
330
A578
100
AcDbMaterial
  1
Global
 72
     0
 43
0.0208333333333333
 43
0.0
 43
0.0
 43
0.0
 43
0.0
 43
0.0208333333333333
 43
0.0
 43
0.0
 43
0.0
 43
0.0
 43
1.0
 43
0.0
 43
0.0
 43
0.0
 43
0.0
 43
1.0
 77
     0
 47
0.0208333333333333
 47
0.0
 47
0.0
 47
0.0
 47
0.0
 47
0.0208333333333333
 47
0.0
 47
0.0
 47
0.0
 47
0.0
 47
1.0
 47
0.0
 47
0.0
 47
0.0
 47
0.0
 47
1.0
171
     0
 49
0.0208333333333333
 49
0.0
 49
0.0
 49
0.0
 49
0.0
 49
0.0208333333333333
 49
0.0
 49
0.0
 49
0.0
 49
0.0
 49
1.0
 49
0.0
 49
0.0
 49
0.0
 49
0.0
 49
1.0
175
     0
142
0.0208333333333333
142
0.0
142
0.0
142
0.0
142
0.0
142
0.0208333333333333
142
0.0
142
0.0
142
0.0
142
0.0
142
1.0
142
0.0
142
0.0
142
0.0
142
0.0
142
1.0
179
     0
144
0.0208333333333333
144
0.0
144
0.0
144
0.0
144
0.0
144
0.0208333333333333
144
0.0
144
0.0
144
0.0
144
0.0
144
1.0
144
0.0
144
0.0
144
0.0
144
0.0
144
1.0
147
0.0208333333333333
147
0.0
147
0.0
147
0.0
147
0.0
147
0.0208333333333333
147
0.0
147
0.0
147
0.0
147
0.0
147
1.0
147
0.0
147
0.0
147
0.0
147
0.0
147
1.0
  0
MLEADERSTYLE
  5
A5C0
102
{ACAD_XDICTIONARY
360
A629
102
}
102
{ACAD_REACTORS
330
A5BF
102
}
330
A5BF
100
AcDbMLeaderStyle
170
     2
171
     1
172
     0
 90
        2
 40
0.0
 41
0.0
173
     1
 91
-1056964608
340
12
 92
       -2
290
     1
 42
2.0
291
     1
 43
0.36
  3
Standard
 44
4.0
300

342
F
174
     1
178
     6
175
     1
176
     0
 93
-1056964608
 45
4.0
292
     0
297
     0
 46
4.0
 94
-1056964608
 47
1.0
 49
1.0
140
1.0
293
     1
141
0.0
294
     1
177
     0
142
1.0
295
     0
296
     0
143
0.125
1001
ACAD_MLEADERVER
1070
     2
  0
MLINESTYLE
  5
1C
102
{ACAD_REACTORS
330
1B
102
}
330
1B
100
AcDbMlineStyle
  2
STANDARD
 70
     0
  3

 62
   256
 51
90.0
 52
90.0
 71
     2
 49
0.5
 62
   256
  6
BYLAYER
 49
-0.5
 62
   256
  6
BYLAYER
  0
ACDBPLACEHOLDER
  5
9F4F
102
{ACAD_REACTORS
330
9F4E
102
}
330
9F4E
  0
SCALE
  5
A5AE
102
{ACAD_REACTORS
330
A5AD
102
}
330
A5AD
100
AcDbScale
 70
     0
300
1:1
140
1.0
141
1.0
290
     1
  0
SCALE
  5
A5AF
102
{ACAD_REACTORS
330
A5AD
102
}
330
A5AD
100
AcDbScale
 70
     0
300
1:2
140
1.0
141
2.0
290
     0
  0
SCALE
  5
A5B0
102
{ACAD_REACTORS
330
A5AD
102
}
330
A5AD
100
AcDbScale
 70
     0
300
1:4
140
1.0
141
4.0
290
     0
  0
SCALE
  5
A5B1
102
{ACAD_REACTORS
330
A5AD
102
}
330
A5AD
100
AcDbScale
 70
     0
300
1:5
140
1.0
141
5.0
290
     0
  0
SCALE
  5
A5B2
102
{ACAD_REACTORS
330
A5AD
102
}
330
A5AD
100
AcDbScale
 70
     0
300
1:8
140
1.0
141
8.0
290
     0
  0
SCALE
  5
A5B3
102
{ACAD_REACTORS
330
A5AD
102
}
330
A5AD
100
AcDbScale
 70
     0
300
1:10
140
1.0
141
10.0
290
     0
  0
SCALE
  5
A5B4
102
{ACAD_REACTORS
330
A5AD
102
}
330
A5AD
100
AcDbScale
 70
     0
300
1:16
140
1.0
141
16.0
290
     0
  0
SCALE
  5
A5B5
102
{ACAD_REACTORS
330
A5AD
102
}
330
A5AD
100
AcDbScale
 70
     0
300
1:20
140
1.0
141
20.0
290
     0
  0
SCALE
  5
A5B6
102
{ACAD_REACTORS
330
A5AD
102
}
330
A5AD
100
AcDbScale
 70
     0
300
1:30
140
1.0
141
30.0
290
     0
  0
SCALE
  5
A5B7
102
{ACAD_REACTORS
330
A5AD
102
}
330
A5AD
100
AcDbScale
 70
     0
300
1:40
140
1.0
141
40.0
290
     0
  0
SCALE
  5
A5B8
102
{ACAD_REACTORS
330
A5AD
102
}
330
A5AD
100
AcDbScale
 70
     0
300
1:50
140
1.0
141
50.0
290
     0
  0
SCALE
  5
A5B9
102
{ACAD_REACTORS
330
A5AD
102
}
330
A5AD
100
AcDbScale
 70
     0
300
1:100
140
1.0
141
100.0
290
     0
  0
SCALE
  5
A5BA
102
{ACAD_REACTORS
330
A5AD
102
}
330
A5AD
100
AcDbScale
 70
     0
300
2:1
140
2.0
141
1.0
290
     0
  0
SCALE
  5
A5BB
102
{ACAD_REACTORS
330
A5AD
102
}
330
A5AD
100
AcDbScale
 70
     0
300
4:1
140
4.0
141
1.0
290
     0
  0
SCALE
  5
A5BC
102
{ACAD_REACTORS
330
A5AD
102
}
330
A5AD
100
AcDbScale
 70
     0
300
8:1
140
8.0
141
1.0
290
     0
  0
SCALE
  5
A5BD
102
{ACAD_REACTORS
330
A5AD
102
}
330
A5AD
100
AcDbScale
 70
     0
300
10:1
140
10.0
141
1.0
290
     0
  0
SCALE
  5
A5BE
102
{ACAD_REACTORS
330
A5AD
102
}
330
A5AD
100
AcDbScale
 70
     0
300
100:1
140
100.0
141
1.0
290
     0
  0
ACDBSECTIONVIEWSTYLE
  5
A5C2
102
{ACAD_REACTORS
330
A5C1
102
}
330
A5C1
100
AcDbModelDocViewStyle
 70
     0
  3
Metric50
290
     0
100
AcDbSectionViewStyle
 70
     0
 71
     0
 90
      102
 71
     1
340
F
 40
5.0
340
0
340
0
 40
5.0
300
I, O, Q, S, X, Z
 40
10.0
 90
        0
 40
2.5
 90
        0
 71
     2
340
14
 90
       25
340
14
 90
       50
 40
5.0
 40
2.5
 40
5.0
 71
     3
340
F
 40
5.0
 90
        0
 40
15.0
 90
        1
300
%<\AcVar ViewSectionStartId>%-%<\AcVar ViewSectionEndId>% (%<\AcVar ViewScale \f "%sn">%)
 71
     4
300
ANSI31
 40
1.0
 90
        0
290
     0
290
     0
 90
        6
 40
0.0
 40
1.570796326794896
 40
0.2617993877991494
 40
1.308996938995747
 40
-0.2617993877991494
 40
1.832595714594046
  0
TABLESTYLE
  5
A5AC
102
{ACAD_XDICTIONARY
360
A5E8
102
}
102
{ACAD_REACTORS
330
A5AB
102
}
330
A5AB
100
AcDbTableStyle
  3
Standard
 70
     0
 71
     0
 40
1.5
 41
1.5
280
     0
281
     0
  7
STANDARD
140
4.5
170
     2
 62
     0
 63
     7
283
     0
274
    -2
284
     1
 64
     0
275
    -2
285
     1
 65
     0
276
    -2
286
     1
 66
     0
277
    -2
287
     1
 67
     0
278
    -2
288
     1
 68
     0
279
    -2
289
     1
 69
     0
  7
STANDARD
140
6.0
170
     5
 62
     0
 63
     7
283
     0
274
    -2
284
     1
 64
     0
275
    -2
285
     1
 65
     0
276
    -2
286
     1
 66
     0
277
    -2
287
     1
 67
     0
278
    -2
288
     1
 68
     0
279
    -2
289
     1
 69
     0
  7
STANDARD
140
4.5
170
     5
 62
     0
 63
     7
283
     0
274
    -2
284
     1
 64
     0
275
    -2
285
     1
 65
     0
276
    -2
286
     1
 66
     0
277
    -2
287
     1
 67
     0
278
    -2
288
     1
 68
     0
279
    -2
289
     1
 69
     0
  0
VISUALSTYLE
  5
A597
102
{ACAD_XDICTIONARY
360
A601
102
}
102
{ACAD_REACTORS
330
A591
102
}
330
A591
100
AcDbVisualStyle
  2
2dWireframe
 70
     4
 71
     0
 72
     2
 73
     0
 90
        0
 40
-0.6
 41
-30.0
 62
     5
 63
     7
 74
     1
 91
        4
 64
     7
 65
   257
 75
     1
175
     1
 42
1.0
 92
        0
 66
   257
 43
1.0
 76
     1
 77
     6
 78
     2
 67
     7
 79
     5
170
     0
171
     0
290
     0
174
     0
 93
        1
 44
0.0
173
     0
291
     0
 45
0.0
1001
ACAD
1000
AcDbSavedByObjectVersion
1070
     0
  0
VISUALSTYLE
  5
A596
102
{ACAD_XDICTIONARY
360
A5FF
102
}
102
{ACAD_REACTORS
330
A591
102
}
330
A591
100
AcDbVisualStyle
  2
Basic
 70
     7
 71
     1
 72
     0
 73
     1
 90
        0
 40
-0.6
 41
-30.0
 62
     5
 63
     7
 74
     0
 91
        4
 64
     7
 65
   257
 75
     1
175
     1
 42
1.0
 92
        8
 66
     7
 43
1.0
 76
     1
 77
     6
 78
     2
 67
     7
 79
     5
170
     0
171
     0
290
     0
174
     0
 93
        1
 44
0.0
173
     0
291
     1
 45
0.0
1001
ACAD
1000
AcDbSavedByObjectVersion
1070
     0
  0
VISUALSTYLE
  5
A59D
102
{ACAD_XDICTIONARY
360
A60D
102
}
102
{ACAD_REACTORS
330
A591
102
}
330
A591
100
AcDbVisualStyle
  2
Brighten
 70
    12
 71
     2
 72
     2
 73
     0
 90
        0
 40
-0.6
 41
-30.0
 62
     5
 63
     7
 74
     1
 91
        4
 64
     7
 65
   257
 75
     1
175
     1
 42
1.0
 92
        8
 66
     7
 43
1.0
 76
     1
 77
     6
 78
     2
 67
     7
 79
     5
170
     0
171
     0
290
     0
174
     0
 93
        1
 44
50.0
173
     0
291
     1
 45
0.0
1001
ACAD
1000
AcDbSavedByObjectVersion
1070
     0
  0
VISUALSTYLE
  5
A5A1
102
{ACAD_XDICTIONARY
360
A615
102
}
102
{ACAD_REACTORS
330
A591
102
}
330
A591
100
AcDbVisualStyle
  2
ColorChange
 70
    16
 71
     2
 72
     2
 73
     3
 90
        0
 40
-0.6
 41
-30.0
 62
     5
 63
     8
 74
     1
 91
        4
 64
     7
 65
   257
 75
     1
175
     1
 42
1.0
 92
        8
 66
     8
 43
1.0
 76
     1
 77
     6
 78
     2
 67
     7
 79
     5
170
     0
171
     0
290
     0
174
     0
 93
        1
 44
0.0
173
     0
291
     1
 45
0.0
1001
ACAD
1000
AcDbSavedByObjectVersion
1070
     0
  0
VISUALSTYLE
  5
A59A
102
{ACAD_XDICTIONARY
360
A607
102
}
102
{ACAD_REACTORS
330
A591
102
}
330
A591
100
AcDbVisualStyle
  2
Conceptual
 70
     9
 71
     3
 72
     2
 73
     0
 90
        0
 40
-0.6
 41
-30.0
 62
     5
 63
     7
 74
     2
 91
        2
 64
     7
 65
   257
 75
     1
175
     1
 42
179.0
 92
        8
 66
     7
 43
1.0
 76
     1
 77
     6
 78
     2
 67
     7
 79
     3
170
     0
171
     0
290
     0
174
     0
 93
        1
 44
0.0
173
     0
291
     0
 45
0.0
1001
ACAD
1000
AcDbSavedByObjectVersion
1070
     0
  0
VISUALSTYLE
  5
A59C
102
{ACAD_XDICTIONARY
360
A60B
102
}
102
{ACAD_REACTORS
330
A591
102
}
330
A591
100
AcDbVisualStyle
  2
Dim
 70
    11
 71
     2
 72
     2
 73
     0
 90
        0
 40
-0.6
 41
-30.0
 62
     5
 63
     7
 74
     1
 91
        4
 64
     7
 65
   257
 75
     1
175
     1
 42
1.0
 92
        8
 66
     7
 43
1.0
 76
     1
 77
     6
 78
     2
 67
     7
 79
     5
170
     0
171
     0
290
     0
174
     0
 93
        1
 44
-50.0
173
     0
291
     1
 45
0.0
1001
ACAD
1000
AcDbSavedByObjectVersion
1070
     0
  0
VISUALSTYLE
  5
A5A9
102
{ACAD_XDICTIONARY
360
A625
102
}
102
{ACAD_REACTORS
330
A591
102
}
330
A591
100
AcDbVisualStyle
  2
EdgeColorOff
 70
    22
 71
     2
 72
     2
 73
     0
 90
        0
 40
-0.6
 41
-30.0
 62
     5
 63
     7
 74
     1
 91
        4
 64
     7
 65
   257
 75
     1
175
     1
 42
1.0
 92
        8
 66
     7
 43
1.0
 76
     1
 77
     6
 78
     2
 67
     7
 79
     5
170
     0
171
     0
290
     0
174
     0
 93
        1
 44
0.0
173
     0
291
     1
 45
0.0
1001
ACAD
1000
AcDbSavedByObjectVersion
1070
     0
  0
VISUALSTYLE
  5
A5A0
102
{ACAD_XDICTIONARY
360
A613
102
}
102
{ACAD_REACTORS
330
A591
102
}
330
A591
100
AcDbVisualStyle
  2
Facepattern
 70
    15
 71
     2
 72
     2
 73
     0
 90
        0
 40
-0.6
 41
-30.0
 62
     5
 63
     7
 74
     1
 91
        4
 64
     7
 65
   257
 75
     1
175
     1
 42
1.0
 92
        8
 66
     7
 43
1.0
 76
     1
 77
     6
 78
     2
 67
     7
 79
     5
170
     0
171
     0
290
     0
174
     0
 93
        1
 44
0.0
173
     0
291
     1
 45
0.0
1001
ACAD
1000
AcDbSavedByObjectVersion
1070
     0
  0
VISUALSTYLE
  5
A592
102
{ACAD_XDICTIONARY
360
A5F7
102
}
102
{ACAD_REACTORS
330
A591
102
}
330
A591
100
AcDbVisualStyle
  2
Flat
 70
     0
 71
     2
 72
     1
 73
     1
 90
        2
 40
-0.6
 41
30.0
 62
     5
 63
     7
 74
     0
 91
        0
 64
     7
 65
   257
 75
     1
175
     1
 42
1.0
 92
        8
 66
     7
 43
1.0
 76
     1
 77
     6
 78
     2
 67
     7
 79
     5
170
     0
171
     0
290
     0
174
     0
 93
       13
 44
0.0
173
     0
291
     1
 45
0.0
1001
ACAD
1000
AcDbSavedByObjectVersion
1070
     0
  0
VISUALSTYLE
  5
A593
102
{ACAD_XDICTIONARY
360
A5F9
102
}
102
{ACAD_REACTORS
330
A591
102
}
330
A591
100
AcDbVisualStyle
  2
FlatWithEdges
 70
     1
 71
     2
 72
     1
 73
     1
 90
        2
 40
-0.6
 41
30.0
 62
     5
 63
     7
 74
     1
 91
        0
 64
     7
 65
   257
 75
     1
175
     1
 42
1.0
 92
        0
 66
   257
 43
1.0
 76
     1
 77
     6
 78
     2
 67
     7
 79
     5
170
     0
171
     0
290
     0
174
     0
 93
       13
 44
0.0
173
     0
291
     1
 45
0.0
1001
ACAD
1000
AcDbSavedByObjectVersion
1070
     0
  0
VISUALSTYLE
  5
A594
102
{ACAD_XDICTIONARY
360
A5FB
102
}
102
{ACAD_REACTORS
330
A591
102
}
330
A591
100
AcDbVisualStyle
  2
Gouraud
 70
     2
 71
     2
 72
     2
 73
     1
 90
        2
 40
-0.6
 41
30.0
 62
     5
 63
     7
 74
     0
 91
        0
 64
     7
 65
   257
 75
     1
175
     1
 42
1.0
 92
        0
 66
     7
 43
1.0
 76
     1
 77
     6
 78
     2
 67
     7
 79
     5
170
     0
171
     0
290
     0
174
     0
 93
       13
 44
0.0
173
     0
291
     1
 45
0.0
1001
ACAD
1000
AcDbSavedByObjectVersion
1070
     0
  0
VISUALSTYLE
  5
A595
102
{ACAD_XDICTIONARY
360
A5FD
102
}
102
{ACAD_REACTORS
330
A591
102
}
330
A591
100
AcDbVisualStyle
  2
GouraudWithEdges
 70
     3
 71
     2
 72
     2
 73
     1
 90
        2
 40
-0.6
 41
30.0
 62
     5
 63
     7
 74
     1
 91
        0
 64
     7
 65
   257
 75
     1
175
     1
 42
1.0
 92
        0
 66
   257
 43
1.0
 76
     1
 77
     6
 78
     2
 67
     7
 79
     5
170
     0
171
     0
290
     0
174
     0
 93
       13
 44
0.0
173
     0
291
     1
 45
0.0
1001
ACAD
1000
AcDbSavedByObjectVersion
1070
     0
  0
VISUALSTYLE
  5
A599
102
{ACAD_XDICTIONARY
360
A605
102
}
102
{ACAD_REACTORS
330
A591
102
}
330
A591
100
AcDbVisualStyle
  2
Hidden
 70
     6
 71
     1
 72
     2
 73
     2
 90
        0
 40
-0.6
 41
-30.0
 62
     5
 63
     7
 74
     2
 91
        2
 64
     7
 65
   257
 75
     2
175
     1
 42
40.0
 92
        0
 66
   257
 43
1.0
 76
     1
 77
     6
 78
     2
 67
     7
 79
     3
170
     0
171
     0
290
     0
174
     0
 93
        1
 44
0.0
173
     0
291
     0
 45
0.0
1001
ACAD
1000
AcDbSavedByObjectVersion
1070
     0
  0
VISUALSTYLE
  5
A5A7
102
{ACAD_XDICTIONARY
360
A621
102
}
102
{ACAD_REACTORS
330
A591
102
}
330
A591
100
AcDbVisualStyle
  2
JitterOff
 70
    20
 71
     2
 72
     2
 73
     0
 90
        0
 40
-0.6
 41
-30.0
 62
     5
 63
     7
 74
     1
 91
        4
 64
     7
 65
   257
 75
     1
175
     1
 42
1.0
 92
       10
 66
     7
 43
1.0
 76
     1
 77
     6
 78
     2
 67
     7
 79
     5
170
     0
171
     0
290
     0
174
     0
 93
        1
 44
0.0
173
     0
291
     1
 45
0.0
1001
ACAD
1000
AcDbSavedByObjectVersion
1070
     0
  0
VISUALSTYLE
  5
A59F
102
{ACAD_XDICTIONARY
360
A611
102
}
102
{ACAD_REACTORS
330
A591
102
}
330
A591
100
AcDbVisualStyle
  2
Linepattern
 70
    14
 71
     2
 72
     2
 73
     0
 90
        0
 40
-0.6
 41
-30.0
 62
     5
 63
     7
 74
     1
 91
        4
 64
     7
 65
   257
 75
     7
175
     7
 42
1.0
 92
        8
 66
     7
 43
1.0
 76
     1
 77
     6
 78
     2
 67
     7
 79
     5
170
     0
171
     0
290
     0
174
     0
 93
        1
 44
0.0
173
     0
291
     1
 45
0.0
1001
ACAD
1000
AcDbSavedByObjectVersion
1070
     0
  0
VISUALSTYLE
  5
A5A8
102
{ACAD_XDICTIONARY
360
A623
102
}
102
{ACAD_REACTORS
330
A591
102
}
330
A591
100
AcDbVisualStyle
  2
OverhangOff
 70
    21
 71
     2
 72
     2
 73
     0
 90
        0
 40
-0.6
 41
-30.0
 62
     5
 63
     7
 74
     1
 91
        4
 64
     7
 65
   257
 75
     1
175
     1
 42
1.0
 92
        9
 66
     7
 43
1.0
 76
     1
 77
     6
 78
     2
 67
     7
 79
     5
170
     0
171
     0
290
     0
174
     0
 93
        1
 44
0.0
173
     0
291
     1
 45
0.0
1001
ACAD
1000
AcDbSavedByObjectVersion
1070
     0
  0
VISUALSTYLE
  5
A59B
102
{ACAD_XDICTIONARY
360
A609
102
}
102
{ACAD_REACTORS
330
A591
102
}
330
A591
100
AcDbVisualStyle
  2
Realistic
 70
     8
 71
     2
 72
     3
 73
     0
 90
        2
 40
-0.6
 41
30.0
 62
     5
 63
     7
 74
     0
 91
        0
 64
     7
 65
   257
 75
     1
175
     1
 42
1.0
 92
        8
 66
   257
 43
1.0
 76
     1
 77
     6
 78
     2
 67
     7
 79
     3
170
     0
171
     0
290
     0
174
     0
 93
       13
 44
0.0
173
     0
291
     0
 45
0.0
1001
ACAD
1000
AcDbSavedByObjectVersion
1070
     0
  0
VISUALSTYLE
  5
A5A6
102
{ACAD_XDICTIONARY
360
A61F
102
}
102
{ACAD_REACTORS
330
A591
102
}
330
A591
100
AcDbVisualStyle
  2
Shaded
 70
    27
 71
     2
 72
     2
 73
     1
 90
        2
 40
-0.6
 41
30.0
 62
     5
 63
     7
 74
     0
 91
        4
 64
     7
 65
   257
 75
     1
175
     1
 42
1.0
 92
        8
 66
   257
 43
1.0
 76
     1
 77
     6
 78
     2
 67
     8
 79
     3
170
     0
171
     0
290
     0
174
     0
 93
        5
 44
0.0
173
     0
291
     0
 45
0.0
1001
ACAD
1000
AcDbSavedByObjectVersion
1070
     0
  0
VISUALSTYLE
  5
A5A5
102
{ACAD_XDICTIONARY
360
A61D
102
}
102
{ACAD_REACTORS
330
A591
102
}
330
A591
100
AcDbVisualStyle
  2
Shaded with edges
 70
    26
 71
     2
 72
     2
 73
     1
 90
        2
 40
-0.6
 41
30.0
 62
     5
 63
     7
 74
     1
 91
       10
 64
     7
 65
   257
 75
     2
175
     1
 42
1.0
 92
        8
 66
   257
 43
1.0
 76
     1
 77
     6
 78
     2
 67
     7
 79
     3
170
     0
171
     0
290
     0
174
     0
 93
        5
 44
0.0
173
     0
291
     0
 45
0.0
1001
ACAD
1000
AcDbSavedByObjectVersion
1070
     0
  0
VISUALSTYLE
  5
A5A2
102
{ACAD_XDICTIONARY
360
A617
102
}
102
{ACAD_REACTORS
330
A591
102
}
330
A591
100
AcDbVisualStyle
  2
Shades of Gray
 70
    23
 71
     2
 72
     2
 73
     3
 90
        0
 40
-0.6
 41
-30.0
 62
     5
 63
     7
 74
     2
 91
        2
 64
     7
 65
     7
 75
     1
175
     1
 42
40.0
 92
        8
 66
     7
 43
1.0
 76
     1
 77
     6
 78
     2
 67
     7
 79
     3
170
     0
171
     0
290
     0
174
     0
 93
        1
 44
0.0
173
     0
291
     0
 45
0.0
1001
ACAD
1000
AcDbSavedByObjectVersion
1070
     0
  0
VISUALSTYLE
  5
A5A3
102
{ACAD_XDICTIONARY
360
A619
102
}
102
{ACAD_REACTORS
330
A591
102
}
330
A591
100
AcDbVisualStyle
  2
Sketchy
 70
    24
 71
     1
 72
     2
 73
     2
 90
        0
 40
-0.6
 41
-30.0
 62
     5
 63
     7
 74
     2
 91
        2
 64
     7
 65
     7
 75
     1
175
     1
 42
40.0
 92
       11
 66
     7
 43
1.0
 76
     1
 77
     6
 78
     2
 67
     7
 79
     6
170
     0
171
     0
290
     0
174
     0
 93
        1
 44
0.0
173
     0
291
     0
 45
0.0
1001
ACAD
1000
AcDbSavedByObjectVersion
1070
     0
  0
VISUALSTYLE
  5
A59E
102
{ACAD_XDICTIONARY
360
A60F
102
}
102
{ACAD_REACTORS
330
A591
102
}
330
A591
100
AcDbVisualStyle
  2
Thicken
 70
    13
 71
     2
 72
     2
 73
     0
 90
        0
 40
-0.6
 41
-30.0
 62
     5
 63
     7
 74
     1
 91
        4
 64
     7
 65
   257
 75
     1
175
     1
 42
1.0
 92
       12
 66
     7
 43
1.0
 76
     1
 77
     6
 78
     2
 67
     7
 79
     5
170
     0
171
     0
290
     0
174
     0
 93
        1
 44
0.0
173
     0
291
     1
 45
0.0
1001
ACAD
1000
AcDbSavedByObjectVersion
1070
     0
  0
VISUALSTYLE
  5
A598
102
{ACAD_XDICTIONARY
360
A603
102
}
102
{ACAD_REACTORS
330
A591
102
}
330
A591
100
AcDbVisualStyle
  2
Wireframe
 70
     5
 71
     0
 72
     2
 73
     0
 90
        0
 40
-0.6
 41
-30.0
 62
     5
 63
     7
 74
     1
 91
        4
 64
     7
 65
   257
 75
     1
175
     1
 42
1.0
 92
        0
 66
   257
 43
1.0
 76
     1
 77
     6
 78
     2
 67
     7
 79
     3
170
     0
171
     0
290
     0
174
     0
 93
        1
 44
0.0
173
     0
291
     0
 45
0.0
1001
ACAD
1000
AcDbSavedByObjectVersion
1070
     0
  0
VISUALSTYLE
  5
A5A4
102
{ACAD_XDICTIONARY
360
A61B
102
}
102
{ACAD_REACTORS
330
A591
102
}
330
A591
100
AcDbVisualStyle
  2
X-Ray
 70
    25
 71
     2
 72
     2
 73
     1
 90
        1
 40
0.5
 41
-30.0
 62
     5
 63
     7
 74
     1
 91
        0
 64
     7
 65
   257
 75
     1
175
     1
 42
1.0
 92
        8
 66
     7
 43
1.0
 76
     1
 77
     6
 78
     2
 67
     7
 79
     3
170
     0
171
     0
290
     0
174
     0
 93
       13
 44
0.0
173
     0
291
     0
 45
0.0
1001
ACAD
1000
AcDbSavedByObjectVersion
1070
     0
  0
DICTIONARYVAR
  5
A5E3
102
{ACAD_REACTORS
330
36
102
}
330
36
100
DictionaryVariables
280
     0
  1
1:1
  0
DICTIONARYVAR
  5
A5E0
102
{ACAD_REACTORS
330
36
102
}
330
36
100
DictionaryVariables
280
     0
  1
STANDARD
  0
DICTIONARYVAR
  5
A5DF
102
{ACAD_REACTORS
330
36
102
}
330
36
100
DictionaryVariables
280
     0
  1
STANDARD
  0
DICTIONARYVAR
  5
A5E1
102
{ACAD_REACTORS
330
36
102
}
330
36
100
DictionaryVariables
280
     0
  1
Metric50
  0
DICTIONARYVAR
  5
A5E2
102
{ACAD_REACTORS
330
36
102
}
330
36
100
DictionaryVariables
280
     0
  1
Metric50
  0
DICTIONARYVAR
  5
37
102
{ACAD_REACTORS
330
36
102
}
330
36
100
DictionaryVariables
280
     0
  1
0
  0
DICTIONARYVAR
  5
A5E5
102
{ACAD_REACTORS
330
36
102
}
330
36
100
DictionaryVariables
280
     0
  1
1
  0
DICTIONARYVAR
  5
A5E4
102
{ACAD_REACTORS
330
36
102
}
330
36
100
DictionaryVariables
280
     0
  1
0
  0
DICTIONARYVAR
  5
10E
102
{ACAD_REACTORS
330
36
102
}
330
36
100
DictionaryVariables
280
     0
  1
96
  0
DICTIONARYVAR
  5
A5E6
102
{ACAD_REACTORS
330
36
102
}
330
36
100
DictionaryVariables
280
     0
  1
2
  0
DICTIONARY
  5
A5F2
330
9F53
100
AcDbDictionary
280
     1
281
     1
  3
ACAD_XREC_ROUNDTRIP
360
A5F3
  0
DICTIONARY
  5
A5F0
330
9F52
100
AcDbDictionary
280
     1
281
     1
  3
ACAD_XREC_ROUNDTRIP
360
A5F1
  0
DICTIONARY
  5
A582
330
A581
100
AcDbDictionary
280
     1
281
     1
  3
ACAD_XREC_ROUNDTRIP
360
A5F5
  3
BUMPTILE
360
A584
  3
DIFFUSETILE
360
A583
  3
OPACITYTILE
360
A587
  3
REFLECTIONTILE
360
A586
  3
REFRACTIONTILE
360
A588
  3
SPECULARTILE
360
A585
  0
DICTIONARY
  5
A57A
330
A579
100
AcDbDictionary
280
     1
281
     1
  3
ACAD_XREC_ROUNDTRIP
360
A5F4
  3
BUMPTILE
360
A57C
  3
DIFFUSETILE
360
A57B
  3
OPACITYTILE
360
A57F
  3
REFLECTIONTILE
360
A57E
  3
REFRACTIONTILE
360
A580
  3
SPECULARTILE
360
A57D
  0
DICTIONARY
  5
A58A
330
A589
100
AcDbDictionary
280
     1
281
     1
  3
ACAD_XREC_ROUNDTRIP
360
A5F6
  3
BUMPTILE
360
A58C
  3
DIFFUSETILE
360
A58B
  3
OPACITYTILE
360
A58F
  3
REFLECTIONTILE
360
A58E
  3
REFRACTIONTILE
360
A590
  3
SPECULARTILE
360
A58D
  0
DICTIONARY
  5
A629
330
A5C0
100
AcDbDictionary
280
     1
281
     1
  3
ACAD_XREC_ROUNDTRIP
360
A62A
  0
DICTIONARY
  5
A5E8
330
A5AC
100
AcDbDictionary
280
     1
281
     1
  3
ACAD_ROUNDTRIP_2008_TABLESTYLE_CELLSTYLEMAP
360
A5E9
  3
ACAD_XREC_ROUNDTRIP
360
A627
  0
DICTIONARY
  5
A601
330
A597
100
AcDbDictionary
280
     1
281
     1
  3
ACAD_XREC_ROUNDTRIP
360
A602
  0
DICTIONARY
  5
A5FF
330
A596
100
AcDbDictionary
280
     1
281
     1
  3
ACAD_XREC_ROUNDTRIP
360
A600
  0
DICTIONARY
  5
A60D
330
A59D
100
AcDbDictionary
280
     1
281
     1
  3
ACAD_XREC_ROUNDTRIP
360
A60E
  0
DICTIONARY
  5
A615
330
A5A1
100
AcDbDictionary
280
     1
281
     1
  3
ACAD_XREC_ROUNDTRIP
360
A616
  0
DICTIONARY
  5
A607
330
A59A
100
AcDbDictionary
280
     1
281
     1
  3
ACAD_XREC_ROUNDTRIP
360
A608
  0
DICTIONARY
  5
A60B
330
A59C
100
AcDbDictionary
280
     1
281
     1
  3
ACAD_XREC_ROUNDTRIP
360
A60C
  0
DICTIONARY
  5
A625
330
A5A9
100
AcDbDictionary
280
     1
281
     1
  3
ACAD_XREC_ROUNDTRIP
360
A626
  0
DICTIONARY
  5
A613
330
A5A0
100
AcDbDictionary
280
     1
281
     1
  3
ACAD_XREC_ROUNDTRIP
360
A614
  0
DICTIONARY
  5
A5F7
330
A592
100
AcDbDictionary
280
     1
281
     1
  3
ACAD_XREC_ROUNDTRIP
360
A5F8
  0
DICTIONARY
  5
A5F9
330
A593
100
AcDbDictionary
280
     1
281
     1
  3
ACAD_XREC_ROUNDTRIP
360
A5FA
  0
DICTIONARY
  5
A5FB
330
A594
100
AcDbDictionary
280
     1
281
     1
  3
ACAD_XREC_ROUNDTRIP
360
A5FC
  0
DICTIONARY
  5
A5FD
330
A595
100
AcDbDictionary
280
     1
281
     1
  3
ACAD_XREC_ROUNDTRIP
360
A5FE
  0
DICTIONARY
  5
A605
330
A599
100
AcDbDictionary
280
     1
281
     1
  3
ACAD_XREC_ROUNDTRIP
360
A606
  0
DICTIONARY
  5
A621
330
A5A7
100
AcDbDictionary
280
     1
281
     1
  3
ACAD_XREC_ROUNDTRIP
360
A622
  0
DICTIONARY
  5
A611
330
A59F
100
AcDbDictionary
280
     1
281
     1
  3
ACAD_XREC_ROUNDTRIP
360
A612
  0
DICTIONARY
  5
A623
330
A5A8
100
AcDbDictionary
280
     1
281
     1
  3
ACAD_XREC_ROUNDTRIP
360
A624
  0
DICTIONARY
  5
A609
330
A59B
100
AcDbDictionary
280
     1
281
     1
  3
ACAD_XREC_ROUNDTRIP
360
A60A
  0
DICTIONARY
  5
A61F
330
A5A6
100
AcDbDictionary
280
     1
281
     1
  3
ACAD_XREC_ROUNDTRIP
360
A620
  0
DICTIONARY
  5
A61D
330
A5A5
100
AcDbDictionary
280
     1
281
     1
  3
ACAD_XREC_ROUNDTRIP
360
A61E
  0
DICTIONARY
  5
A617
330
A5A2
100
AcDbDictionary
280
     1
281
     1
  3
ACAD_XREC_ROUNDTRIP
360
A618
  0
DICTIONARY
  5
A619
330
A5A3
100
AcDbDictionary
280
     1
281
     1
  3
ACAD_XREC_ROUNDTRIP
360
A61A
  0
DICTIONARY
  5
A60F
330
A59E
100
AcDbDictionary
280
     1
281
     1
  3
ACAD_XREC_ROUNDTRIP
360
A610
  0
DICTIONARY
  5
A603
330
A598
100
AcDbDictionary
280
     1
281
     1
  3
ACAD_XREC_ROUNDTRIP
360
A604
  0
DICTIONARY
  5
A61B
330
A5A4
100
AcDbDictionary
280
     1
281
     1
  3
ACAD_XREC_ROUNDTRIP
360
A61C
  0
XRECORD
  5
A5F3
102
{ACAD_REACTORS
330
A5F2
102
}
330
A5F2
100
AcDbXrecord
280
     1
102
SHADEPLOT
 70
     0
102
SHADEPLOTRESLEVEL
 70
     2
102
SHADEPLOTCUSTOMDPI
 70
   300
  0
XRECORD
  5
A5F1
102
{ACAD_REACTORS
330
A5F0
102
}
330
A5F0
100
AcDbXrecord
280
     1
102
SHADEPLOT
 70
     0
102
SHADEPLOTRESLEVEL
 70
     2
102
SHADEPLOTCUSTOMDPI
 70
   300
  0
XRECORD
  5
A5F5
102
{ACAD_REACTORS
330
A582
102
}
330
A582
100
AcDbXrecord
280
     1
102
MATERIAL
148
0.0
149
0.0
149
0.0
 93
        0
 94
      127
282
     0
 72
     0
 77
     0
171
     0
175
     0
179
     0
273
     0
  0
XRECORD
  5
A584
102
{ACAD_REACTORS
330
A582
102
}
330
A582
100
AcDbXrecord
280
     1
270
     1
271
     1
  0
XRECORD
  5
A583
102
{ACAD_REACTORS
330
A582
102
}
330
A582
100
AcDbXrecord
280
     1
270
     1
271
     1
  0
XRECORD
  5
A587
102
{ACAD_REACTORS
330
A582
102
}
330
A582
100
AcDbXrecord
280
     1
270
     1
271
     1
  0
XRECORD
  5
A586
102
{ACAD_REACTORS
330
A582
102
}
330
A582
100
AcDbXrecord
280
     1
270
     1
271
     1
  0
XRECORD
  5
A588
102
{ACAD_REACTORS
330
A582
102
}
330
A582
100
AcDbXrecord
280
     1
270
     1
271
     1
  0
XRECORD
  5
A585
102
{ACAD_REACTORS
330
A582
102
}
330
A582
100
AcDbXrecord
280
     1
270
     1
271
     1
  0
XRECORD
  5
A5F4
102
{ACAD_REACTORS
330
A57A
102
}
330
A57A
100
AcDbXrecord
280
     1
102
MATERIAL
148
0.0
149
0.0
149
0.0
 93
        0
 94
      127
282
     0
 72
     0
 77
     0
171
     0
175
     0
179
     0
273
     0
  0
XRECORD
  5
A57C
102
{ACAD_REACTORS
330
A57A
102
}
330
A57A
100
AcDbXrecord
280
     1
270
     1
271
     1
  0
XRECORD
  5
A57B
102
{ACAD_REACTORS
330
A57A
102
}
330
A57A
100
AcDbXrecord
280
     1
270
     1
271
     1
  0
XRECORD
  5
A57F
102
{ACAD_REACTORS
330
A57A
102
}
330
A57A
100
AcDbXrecord
280
     1
270
     1
271
     1
  0
XRECORD
  5
A57E
102
{ACAD_REACTORS
330
A57A
102
}
330
A57A
100
AcDbXrecord
280
     1
270
     1
271
     1
  0
XRECORD
  5
A580
102
{ACAD_REACTORS
330
A57A
102
}
330
A57A
100
AcDbXrecord
280
     1
270
     1
271
     1
  0
XRECORD
  5
A57D
102
{ACAD_REACTORS
330
A57A
102
}
330
A57A
100
AcDbXrecord
280
     1
270
     1
271
     1
  0
XRECORD
  5
A5F6
102
{ACAD_REACTORS
330
A58A
102
}
330
A58A
100
AcDbXrecord
280
     1
102
MATERIAL
148
0.0
149
0.0
149
0.0
 93
        0
 94
      127
282
     0
 72
     0
 77
     0
171
     0
175
     0
179
     0
273
     0
  0
XRECORD
  5
A58C
102
{ACAD_REACTORS
330
A58A
102
}
330
A58A
100
AcDbXrecord
280
     1
270
     1
271
     1
  0
XRECORD
  5
A58B
102
{ACAD_REACTORS
330
A58A
102
}
330
A58A
100
AcDbXrecord
280
     1
270
     1
271
     1
  0
XRECORD
  5
A58F
102
{ACAD_REACTORS
330
A58A
102
}
330
A58A
100
AcDbXrecord
280
     1
270
     1
271
     1
  0
XRECORD
  5
A58E
102
{ACAD_REACTORS
330
A58A
102
}
330
A58A
100
AcDbXrecord
280
     1
270
     1
271
     1
  0
XRECORD
  5
A590
102
{ACAD_REACTORS
330
A58A
102
}
330
A58A
100
AcDbXrecord
280
     1
270
     1
271
     1
  0
XRECORD
  5
A58D
102
{ACAD_REACTORS
330
A58A
102
}
330
A58A
100
AcDbXrecord
280
     1
270
     1
271
     1
  0
XRECORD
  5
A62A
102
{ACAD_REACTORS
330
A629
102
}
330
A629
100
AcDbXrecord
280
     1
102
ACAD_ROUNDTRIP_2012_MLEADER_STYLE
298
     1
  0
CELLSTYLEMAP
  5
A5E9
102
{ACAD_REACTORS
330
A5E8
102
}
330
A5E8
100
AcDbCellStyleMap
 90
        3
300
CELLSTYLE
  1
TABLEFORMAT_BEGIN
 90
        5
170
     1
 91
        0
 92
    32768
 62
   257
 93
        1
300
CONTENTFORMAT
  1
CONTENTFORMAT_BEGIN
 90
        0
 91
        0
 92
      512
 93
        0
300

 40
0.0
140
1.0
 94
        5
 62
     0
340
F
144
6.0
309
CONTENTFORMAT_END
171
     1
301
MARGIN
  1
CELLMARGIN_BEGIN
 40
1.5
 40
1.5
 40
1.5
 40
1.5
 40
4.5
 40
4.5
309
CELLMARGIN_END
 94
        6
 95
        1
302
GRIDFORMAT
  1
GRIDFORMAT_BEGIN
 90
        0
 91
        1
 62
     0
 92
       -2
340
0
 93
        0
 40
1.125
309
GRIDFORMAT_END
 95
        2
302
GRIDFORMAT
  1
GRIDFORMAT_BEGIN
 90
        0
 91
        1
 62
     0
 92
       -2
340
0
 93
        0
 40
1.125
309
GRIDFORMAT_END
 95
        4
302
GRIDFORMAT
  1
GRIDFORMAT_BEGIN
 90
        0
 91
        1
 62
     0
 92
       -2
340
0
 93
        0
 40
1.125
309
GRIDFORMAT_END
 95
        8
302
GRIDFORMAT
  1
GRIDFORMAT_BEGIN
 90
        0
 91
        1
 62
     0
 92
       -2
340
0
 93
        0
 40
1.125
309
GRIDFORMAT_END
 95
       16
302
GRIDFORMAT
  1
GRIDFORMAT_BEGIN
 90
        0
 91
        1
 62
     0
 92
       -2
340
0
 93
        0
 40
1.125
309
GRIDFORMAT_END
 95
       32
302
GRIDFORMAT
  1
GRIDFORMAT_BEGIN
 90
        0
 91
        1
 62
     0
 92
       -2
340
0
 93
        0
 40
1.125
309
GRIDFORMAT_END
309
TABLEFORMAT_END
  1
CELLSTYLE_BEGIN
 90
        1
 91
        1
300
_TITLE
309
CELLSTYLE_END
300
CELLSTYLE
  1
TABLEFORMAT_BEGIN
 90
        5
170
     1
 91
        0
 92
        0
 62
   257
 93
        1
300
CONTENTFORMAT
  1
CONTENTFORMAT_BEGIN
 90
        0
 91
        0
 92
      512
 93
        0
300

 40
0.0
140
1.0
 94
        5
 62
     0
340
F
144
4.5
309
CONTENTFORMAT_END
171
     1
301
MARGIN
  1
CELLMARGIN_BEGIN
 40
1.5
 40
1.5
 40
1.5
 40
1.5
 40
4.5
 40
4.5
309
CELLMARGIN_END
 94
        6
 95
        1
302
GRIDFORMAT
  1
GRIDFORMAT_BEGIN
 90
        0
 91
        1
 62
     0
 92
       -2
340
0
 93
        0
 40
1.125
309
GRIDFORMAT_END
 95
        2
302
GRIDFORMAT
  1
GRIDFORMAT_BEGIN
 90
        0
 91
        1
 62
     0
 92
       -2
340
0
 93
        0
 40
1.125
309
GRIDFORMAT_END
 95
        4
302
GRIDFORMAT
  1
GRIDFORMAT_BEGIN
 90
        0
 91
        1
 62
     0
 92
       -2
340
0
 93
        0
 40
1.125
309
GRIDFORMAT_END
 95
        8
302
GRIDFORMAT
  1
GRIDFORMAT_BEGIN
 90
        0
 91
        1
 62
     0
 92
       -2
340
0
 93
        0
 40
1.125
309
GRIDFORMAT_END
 95
       16
302
GRIDFORMAT
  1
GRIDFORMAT_BEGIN
 90
        0
 91
        1
 62
     0
 92
       -2
340
0
 93
        0
 40
1.125
309
GRIDFORMAT_END
 95
       32
302
GRIDFORMAT
  1
GRIDFORMAT_BEGIN
 90
        0
 91
        1
 62
     0
 92
       -2
340
0
 93
        0
 40
1.125
309
GRIDFORMAT_END
309
TABLEFORMAT_END
  1
CELLSTYLE_BEGIN
 90
        2
 91
        1
300
_HEADER
309
CELLSTYLE_END
300
CELLSTYLE
  1
TABLEFORMAT_BEGIN
 90
        5
170
     1
 91
        0
 92
        0
 62
   257
 93
        1
300
CONTENTFORMAT
  1
CONTENTFORMAT_BEGIN
 90
        0
 91
        0
 92
      512
 93
        0
300

 40
0.0
140
1.0
 94
        2
 62
     0
340
F
144
4.5
309
CONTENTFORMAT_END
171
     1
301
MARGIN
  1
CELLMARGIN_BEGIN
 40
1.5
 40
1.5
 40
1.5
 40
1.5
 40
4.5
 40
4.5
309
CELLMARGIN_END
 94
        6
 95
        1
302
GRIDFORMAT
  1
GRIDFORMAT_BEGIN
 90
        0
 91
        1
 62
     0
 92
       -2
340
0
 93
        0
 40
1.125
309
GRIDFORMAT_END
 95
        2
302
GRIDFORMAT
  1
GRIDFORMAT_BEGIN
 90
        0
 91
        1
 62
     0
 92
       -2
340
0
 93
        0
 40
1.125
309
GRIDFORMAT_END
 95
        4
302
GRIDFORMAT
  1
GRIDFORMAT_BEGIN
 90
        0
 91
        1
 62
     0
 92
       -2
340
0
 93
        0
 40
1.125
309
GRIDFORMAT_END
 95
        8
302
GRIDFORMAT
  1
GRIDFORMAT_BEGIN
 90
        0
 91
        1
 62
     0
 92
       -2
340
0
 93
        0
 40
1.125
309
GRIDFORMAT_END
 95
       16
302
GRIDFORMAT
  1
GRIDFORMAT_BEGIN
 90
        0
 91
        1
 62
     0
 92
       -2
340
0
 93
        0
 40
1.125
309
GRIDFORMAT_END
 95
       32
302
GRIDFORMAT
  1
GRIDFORMAT_BEGIN
 90
        0
 91
        1
 62
     0
 92
       -2
340
0
 93
        0
 40
1.125
309
GRIDFORMAT_END
309
TABLEFORMAT_END
  1
CELLSTYLE_BEGIN
 90
        3
 91
        2
300
_DATA
309
CELLSTYLE_END
  0
XRECORD
  5
A627
102
{ACAD_REACTORS
330
A5E8
102
}
330
A5E8
100
AcDbXrecord
280
     1
102
ACAD_ROUNDTRIP_PRE2007_TABLESTYLE
 90
      512
 91
        0
  1

 92
      512
 93
        0
  2

 94
      512
 95
        0
  3

  0
XRECORD
  5
A602
102
{ACAD_REACTORS
330
A601
102
}
330
A601
100
AcDbXrecord
280
     1
102
RTVSPost2010Prop28
280
     1
102
RTVSPost2010PropOp28
 70
     1
102
RTVSPost2010Prop29
280
     1
102
RTVSPost2010PropOp29
 70
     1
102
RTVSPost2010Prop30
280
     0
102
RTVSPost2010PropOp30
 70
     1
102
RTVSPost2010Prop31
280
     0
102
RTVSPost2010PropOp31
 70
     1
102
RTVSPost2010Prop32
280
     0
102
RTVSPost2010PropOp32
 70
     1
102
RTVSPost2010Prop33
280
     0
102
RTVSPost2010PropOp33
 70
     1
102
RTVSPost2010Prop34
280
     0
102
RTVSPost2010PropOp34
 70
     1
102
RTVSPost2010Prop35
280
     0
102
RTVSPost2010PropOp35
 70
     1
102
RTVSPost2010Prop36
280
     0
102
RTVSPost2010PropOp36
 70
     1
102
RTVSPost2010Prop37
 90
       50
102
RTVSPost2010PropOp37
 70
     1
102
RTVSPost2010Prop38
140
0.0
102
RTVSPost2010PropOp38
 70
     1
102
RTVSPost2010Prop39
140
1.0
102
RTVSPost2010PropOp39
 70
     1
102
RTVSPost2010Prop40
 90
        0
102
RTVSPost2010PropOp40
 70
     1
102
RTVSPost2010Prop41ColorIndex
 90
       18
102
RTVSPost2010Prop41ColorRGB
 90
        0
102
RTVSPost2010PropOp41
 70
     1
102
RTVSPost2010Prop42
 90
       50
102
RTVSPost2010PropOp42
 70
     1
102
RTVSPost2010Prop43
 90
        3
102
RTVSPost2010PropOp43
 70
     1
102
RTVSPost2010Prop44ColorIndex
 90
        5
102
RTVSPost2010Prop44ColorRGB
 90
      255
102
RTVSPost2010PropOp44
 70
     1
102
RTVSPost2010Prop45
280
     0
102
RTVSPost2010PropOp45
 70
     1
102
RTVSPost2010Prop46
 90
       50
102
RTVSPost2010PropOp46
 70
     1
102
RTVSPost2010Prop47
 90
       50
102
RTVSPost2010PropOp47
 70
     1
102
RTVSPost2010Prop48
 90
       50
102
RTVSPost2010PropOp48
 70
     1
102
RTVSPost2010Prop49
280
     0
102
RTVSPost2010PropOp49
 70
     1
102
RTVSPost2010Prop50
 90
       50
102
RTVSPost2010PropOp50
 70
     1
102
RTVSPost2010Prop51ColorIndex
 90
      256
102
RTVSPost2010Prop51ColorRGB
 90
-16777216
102
RTVSPost2010PropOp51
 70
     0
102
RTVSPost2010Prop52
140
1.0
102
RTVSPost2010PropOp52
 70
     0
102
RTVSPost2010Prop53
 90
        2
102
RTVSPost2010PropOp53
 70
     1
102
RTVSPost2010Prop54
  1
strokes_ogs.tif
102
RTVSPost2010PropOp54
 70
     1
102
RTVSPost2010Prop55
280
     0
102
RTVSPost2010PropOp55
 70
     1
102
RTVSPost2010Prop56
140
1.0
102
RTVSPost2010PropOp56
 70
     1
102
RTVSPost2010Prop57
140
1.0
102
RTVSPost2010PropOp57
 70
     1
102
RTVSPropertyOp0
 70
     1
102
RTVSPropertyOp1
 70
     1
102
RTVSPropertyOp2
 70
     1
102
RTVSPropertyOp3
 70
     1
102
RTVSPropertyOp4
 70
     1
102
RTVSPropertyOp5
 70
     1
102
RTVSPropertyOp6
 70
     1
102
RTVSPropertyOp7
 70
     1
102
RTVSPropertyOp8
 70
     1
102
RTVSPropertyOp9
 70
     1
102
RTVSPropertyOp10
 70
     1
102
RTVSPropertyOp11
 70
     1
102
RTVSPropertyOp12
 70
     1
102
RTVSPropertyOp13
 70
     1
102
RTVSPropertyOp14
 70
     1
102
RTVSPropertyOp15
 70
     1
102
RTVSPropertyOp16
 70
     1
102
RTVSPropertyOp17
 70
     1
102
RTVSPropertyOp18
 70
     1
102
RTVSPropertyOp19
 70
     1
102
RTVSPropertyOp20
 70
     1
102
RTVSPropertyOp21
 70
     1
102
RTVSPropertyOp22
 70
     1
102
RTVSPropertyOp23
 70
     1
102
RTVSPropertyOp24
 70
     1
102
RTVSPropertyOp25
 70
     1
102
RTVSPropertyOp26
 70
     1
102
RTVSPropertyOp27
 70
     1
102
RTVSPropertyOp28
 70
     1
102
RTVSPropertyOp29
 70
     1
102
RTVSPropertyOp30
 70
     1
102
RTVSPropertyOp31
 70
     1
102
RTVSPropertyOp32
 70
     1
102
RTVSPropertyOp33
 70
     1
102
RTVSPropertyOp34
 70
     1
102
RTVSPropertyOp35
 70
     1
102
RTVSPropertyOp36
 70
     1
102
RTVSPropertyOp37
 70
     1
102
RTVSPropertyOp38
 70
     1
102
RTVSPropertyOp39
 70
     1
102
RTVSPropertyOp40
 70
     1
102
RTVSPropertyOp41
 70
     1
102
RTVSPropertyOp42
 70
     1
102
RTVSPropertyOp43
 70
     1
102
RTVSPropertyOp44
 70
     1
102
RTVSPropertyOp45
 70
     1
102
RTVSPropertyOp46
 70
     1
102
RTVSPropertyOp47
 70
     1
102
RTVSPropertyOp48
 70
     1
102
RTVSPropertyOp49
 70
     1
102
RTVSPropertyOp50
 70
     1
102
RTVSPropertyOp51
 70
     0
102
RTVSPropertyOp52
 70
     0
102
RTVSPropertyOp53
 70
     1
102
RTVSPropertyOp54
 70
     1
102
RTVSPropertyOp55
 70
     1
102
RTVSPropertyOp56
 70
     1
102
RTVSPropertyOp57
 70
     1
102
RTVSPropertyOp58
 70
     1
102
RTVSPropertyOp59
 70
     1
102
RTVSPropertyOp60
 70
     1
102
RTVSPropertyOp61
 70
     1
102
RTVSPropertyOp62
 70
     1
  0
XRECORD
  5
A600
102
{ACAD_REACTORS
330
A5FF
102
}
330
A5FF
100
AcDbXrecord
280
     1
102
RTVSPost2010Prop28
280
     0
102
RTVSPost2010PropOp28
 70
     1
102
RTVSPost2010Prop29
280
     1
102
RTVSPost2010PropOp29
 70
     1
102
RTVSPost2010Prop30
280
     1
102
RTVSPost2010PropOp30
 70
     1
102
RTVSPost2010Prop31
280
     0
102
RTVSPost2010PropOp31
 70
     1
102
RTVSPost2010Prop32
280
     0
102
RTVSPost2010PropOp32
 70
     1
102
RTVSPost2010Prop33
280
     0
102
RTVSPost2010PropOp33
 70
     1
102
RTVSPost2010Prop34
280
     0
102
RTVSPost2010PropOp34
 70
     1
102
RTVSPost2010Prop35
280
     0
102
RTVSPost2010PropOp35
 70
     1
102
RTVSPost2010Prop36
280
     0
102
RTVSPost2010PropOp36
 70
     1
102
RTVSPost2010Prop37
 90
       50
102
RTVSPost2010PropOp37
 70
     1
102
RTVSPost2010Prop38
140
0.0
102
RTVSPost2010PropOp38
 70
     1
102
RTVSPost2010Prop39
140
1.0
102
RTVSPost2010PropOp39
 70
     1
102
RTVSPost2010Prop40
 90
        0
102
RTVSPost2010PropOp40
 70
     1
102
RTVSPost2010Prop41ColorIndex
 90
       18
102
RTVSPost2010Prop41ColorRGB
 90
        0
102
RTVSPost2010PropOp41
 70
     1
102
RTVSPost2010Prop42
 90
       50
102
RTVSPost2010PropOp42
 70
     1
102
RTVSPost2010Prop43
 90
        3
102
RTVSPost2010PropOp43
 70
     1
102
RTVSPost2010Prop44ColorIndex
 90
        5
102
RTVSPost2010Prop44ColorRGB
 90
      255
102
RTVSPost2010PropOp44
 70
     1
102
RTVSPost2010Prop45
280
     0
102
RTVSPost2010PropOp45
 70
     1
102
RTVSPost2010Prop46
 90
       50
102
RTVSPost2010PropOp46
 70
     1
102
RTVSPost2010Prop47
 90
       50
102
RTVSPost2010PropOp47
 70
     1
102
RTVSPost2010Prop48
 90
       50
102
RTVSPost2010PropOp48
 70
     1
102
RTVSPost2010Prop49
280
     0
102
RTVSPost2010PropOp49
 70
     1
102
RTVSPost2010Prop50
 90
       50
102
RTVSPost2010PropOp50
 70
     1
102
RTVSPost2010Prop51ColorIndex
 90
      256
102
RTVSPost2010Prop51ColorRGB
 90
-16777216
102
RTVSPost2010PropOp51
 70
     0
102
RTVSPost2010Prop52
140
1.0
102
RTVSPost2010PropOp52
 70
     0
102
RTVSPost2010Prop53
 90
        2
102
RTVSPost2010PropOp53
 70
     1
102
RTVSPost2010Prop54
  1
strokes_ogs.tif
102
RTVSPost2010PropOp54
 70
     1
102
RTVSPost2010Prop55
280
     0
102
RTVSPost2010PropOp55
 70
     1
102
RTVSPost2010Prop56
140
1.0
102
RTVSPost2010PropOp56
 70
     1
102
RTVSPost2010Prop57
140
1.0
102
RTVSPost2010PropOp57
 70
     1
102
RTVSPropertyOp0
 70
     1
102
RTVSPropertyOp1
 70
     1
102
RTVSPropertyOp2
 70
     1
102
RTVSPropertyOp3
 70
     1
102
RTVSPropertyOp4
 70
     1
102
RTVSPropertyOp5
 70
     1
102
RTVSPropertyOp6
 70
     1
102
RTVSPropertyOp7
 70
     1
102
RTVSPropertyOp8
 70
     1
102
RTVSPropertyOp9
 70
     1
102
RTVSPropertyOp10
 70
     1
102
RTVSPropertyOp11
 70
     1
102
RTVSPropertyOp12
 70
     1
102
RTVSPropertyOp13
 70
     1
102
RTVSPropertyOp14
 70
     1
102
RTVSPropertyOp15
 70
     1
102
RTVSPropertyOp16
 70
     1
102
RTVSPropertyOp17
 70
     1
102
RTVSPropertyOp18
 70
     1
102
RTVSPropertyOp19
 70
     1
102
RTVSPropertyOp20
 70
     1
102
RTVSPropertyOp21
 70
     1
102
RTVSPropertyOp22
 70
     1
102
RTVSPropertyOp23
 70
     1
102
RTVSPropertyOp24
 70
     1
102
RTVSPropertyOp25
 70
     1
102
RTVSPropertyOp26
 70
     1
102
RTVSPropertyOp27
 70
     1
102
RTVSPropertyOp28
 70
     1
102
RTVSPropertyOp29
 70
     1
102
RTVSPropertyOp30
 70
     1
102
RTVSPropertyOp31
 70
     1
102
RTVSPropertyOp32
 70
     1
102
RTVSPropertyOp33
 70
     1
102
RTVSPropertyOp34
 70
     1
102
RTVSPropertyOp35
 70
     1
102
RTVSPropertyOp36
 70
     1
102
RTVSPropertyOp37
 70
     1
102
RTVSPropertyOp38
 70
     1
102
RTVSPropertyOp39
 70
     1
102
RTVSPropertyOp40
 70
     1
102
RTVSPropertyOp41
 70
     1
102
RTVSPropertyOp42
 70
     1
102
RTVSPropertyOp43
 70
     1
102
RTVSPropertyOp44
 70
     1
102
RTVSPropertyOp45
 70
     1
102
RTVSPropertyOp46
 70
     1
102
RTVSPropertyOp47
 70
     1
102
RTVSPropertyOp48
 70
     1
102
RTVSPropertyOp49
 70
     1
102
RTVSPropertyOp50
 70
     1
102
RTVSPropertyOp51
 70
     0
102
RTVSPropertyOp52
 70
     0
102
RTVSPropertyOp53
 70
     1
102
RTVSPropertyOp54
 70
     1
102
RTVSPropertyOp55
 70
     1
102
RTVSPropertyOp56
 70
     1
102
RTVSPropertyOp57
 70
     1
102
RTVSPropertyOp58
 70
     1
102
RTVSPropertyOp59
 70
     1
102
RTVSPropertyOp60
 70
     1
102
RTVSPropertyOp61
 70
     1
102
RTVSPropertyOp62
 70
     1
  0
XRECORD
  5
A60E
102
{ACAD_REACTORS
330
A60D
102
}
330
A60D
100
AcDbXrecord
280
     1
102
RTVSPost2010Prop28
280
     0
102
RTVSPost2010PropOp28
 70
     1
102
RTVSPost2010Prop29
280
     1
102
RTVSPost2010PropOp29
 70
     1
102
RTVSPost2010Prop30
280
     1
102
RTVSPost2010PropOp30
 70
     1
102
RTVSPost2010Prop31
280
     0
102
RTVSPost2010PropOp31
 70
     1
102
RTVSPost2010Prop32
280
     0
102
RTVSPost2010PropOp32
 70
     1
102
RTVSPost2010Prop33
280
     0
102
RTVSPost2010PropOp33
 70
     1
102
RTVSPost2010Prop34
280
     0
102
RTVSPost2010PropOp34
 70
     1
102
RTVSPost2010Prop35
280
     0
102
RTVSPost2010PropOp35
 70
     1
102
RTVSPost2010Prop36
280
     0
102
RTVSPost2010PropOp36
 70
     1
102
RTVSPost2010Prop37
 90
       50
102
RTVSPost2010PropOp37
 70
     1
102
RTVSPost2010Prop38
140
0.0
102
RTVSPost2010PropOp38
 70
     1
102
RTVSPost2010Prop39
140
1.0
102
RTVSPost2010PropOp39
 70
     1
102
RTVSPost2010Prop40
 90
        0
102
RTVSPost2010PropOp40
 70
     1
102
RTVSPost2010Prop41ColorIndex
 90
       18
102
RTVSPost2010Prop41ColorRGB
 90
        0
102
RTVSPost2010PropOp41
 70
     1
102
RTVSPost2010Prop42
 90
       50
102
RTVSPost2010PropOp42
 70
     1
102
RTVSPost2010Prop43
 90
        3
102
RTVSPost2010PropOp43
 70
     1
102
RTVSPost2010Prop44ColorIndex
 90
        5
102
RTVSPost2010Prop44ColorRGB
 90
      255
102
RTVSPost2010PropOp44
 70
     1
102
RTVSPost2010Prop45
280
     0
102
RTVSPost2010PropOp45
 70
     1
102
RTVSPost2010Prop46
 90
       50
102
RTVSPost2010PropOp46
 70
     1
102
RTVSPost2010Prop47
 90
       50
102
RTVSPost2010PropOp47
 70
     1
102
RTVSPost2010Prop48
 90
       50
102
RTVSPost2010PropOp48
 70
     1
102
RTVSPost2010Prop49
280
     0
102
RTVSPost2010PropOp49
 70
     1
102
RTVSPost2010Prop50
 90
       50
102
RTVSPost2010PropOp50
 70
     1
102
RTVSPost2010Prop51ColorIndex
 90
      256
102
RTVSPost2010Prop51ColorRGB
 90
-16777216
102
RTVSPost2010PropOp51
 70
     0
102
RTVSPost2010Prop52
140
1.0
102
RTVSPost2010PropOp52
 70
     0
102
RTVSPost2010Prop53
 90
        2
102
RTVSPost2010PropOp53
 70
     1
102
RTVSPost2010Prop54
  1
strokes_ogs.tif
102
RTVSPost2010PropOp54
 70
     1
102
RTVSPost2010Prop55
280
     0
102
RTVSPost2010PropOp55
 70
     1
102
RTVSPost2010Prop56
140
1.0
102
RTVSPost2010PropOp56
 70
     1
102
RTVSPost2010Prop57
140
1.0
102
RTVSPost2010PropOp57
 70
     1
102
RTVSPropertyOp0
 70
     1
102
RTVSPropertyOp1
 70
     1
102
RTVSPropertyOp2
 70
     1
102
RTVSPropertyOp3
 70
     1
102
RTVSPropertyOp4
 70
     1
102
RTVSPropertyOp5
 70
     1
102
RTVSPropertyOp6
 70
     1
102
RTVSPropertyOp7
 70
     1
102
RTVSPropertyOp8
 70
     1
102
RTVSPropertyOp9
 70
     1
102
RTVSPropertyOp10
 70
     1
102
RTVSPropertyOp11
 70
     1
102
RTVSPropertyOp12
 70
     1
102
RTVSPropertyOp13
 70
     1
102
RTVSPropertyOp14
 70
     1
102
RTVSPropertyOp15
 70
     1
102
RTVSPropertyOp16
 70
     1
102
RTVSPropertyOp17
 70
     1
102
RTVSPropertyOp18
 70
     1
102
RTVSPropertyOp19
 70
     1
102
RTVSPropertyOp20
 70
     1
102
RTVSPropertyOp21
 70
     1
102
RTVSPropertyOp22
 70
     1
102
RTVSPropertyOp23
 70
     1
102
RTVSPropertyOp24
 70
     1
102
RTVSPropertyOp25
 70
     1
102
RTVSPropertyOp26
 70
     1
102
RTVSPropertyOp27
 70
     1
102
RTVSPropertyOp28
 70
     1
102
RTVSPropertyOp29
 70
     1
102
RTVSPropertyOp30
 70
     1
102
RTVSPropertyOp31
 70
     1
102
RTVSPropertyOp32
 70
     1
102
RTVSPropertyOp33
 70
     1
102
RTVSPropertyOp34
 70
     1
102
RTVSPropertyOp35
 70
     1
102
RTVSPropertyOp36
 70
     1
102
RTVSPropertyOp37
 70
     1
102
RTVSPropertyOp38
 70
     1
102
RTVSPropertyOp39
 70
     1
102
RTVSPropertyOp40
 70
     1
102
RTVSPropertyOp41
 70
     1
102
RTVSPropertyOp42
 70
     1
102
RTVSPropertyOp43
 70
     1
102
RTVSPropertyOp44
 70
     1
102
RTVSPropertyOp45
 70
     1
102
RTVSPropertyOp46
 70
     1
102
RTVSPropertyOp47
 70
     1
102
RTVSPropertyOp48
 70
     1
102
RTVSPropertyOp49
 70
     1
102
RTVSPropertyOp50
 70
     1
102
RTVSPropertyOp51
 70
     0
102
RTVSPropertyOp52
 70
     0
102
RTVSPropertyOp53
 70
     1
102
RTVSPropertyOp54
 70
     1
102
RTVSPropertyOp55
 70
     1
102
RTVSPropertyOp56
 70
     1
102
RTVSPropertyOp57
 70
     1
102
RTVSPropertyOp58
 70
     1
102
RTVSPropertyOp59
 70
     1
102
RTVSPropertyOp60
 70
     1
102
RTVSPropertyOp61
 70
     1
102
RTVSPropertyOp62
 70
     1
  0
XRECORD
  5
A616
102
{ACAD_REACTORS
330
A615
102
}
330
A615
100
AcDbXrecord
280
     1
102
RTVSPost2010Prop28
280
     0
102
RTVSPost2010PropOp28
 70
     1
102
RTVSPost2010Prop29
280
     1
102
RTVSPost2010PropOp29
 70
     1
102
RTVSPost2010Prop30
280
     1
102
RTVSPost2010PropOp30
 70
     1
102
RTVSPost2010Prop31
280
     0
102
RTVSPost2010PropOp31
 70
     1
102
RTVSPost2010Prop32
280
     0
102
RTVSPost2010PropOp32
 70
     1
102
RTVSPost2010Prop33
280
     0
102
RTVSPost2010PropOp33
 70
     1
102
RTVSPost2010Prop34
280
     0
102
RTVSPost2010PropOp34
 70
     1
102
RTVSPost2010Prop35
280
     0
102
RTVSPost2010PropOp35
 70
     1
102
RTVSPost2010Prop36
280
     0
102
RTVSPost2010PropOp36
 70
     1
102
RTVSPost2010Prop37
 90
       50
102
RTVSPost2010PropOp37
 70
     1
102
RTVSPost2010Prop38
140
0.0
102
RTVSPost2010PropOp38
 70
     1
102
RTVSPost2010Prop39
140
1.0
102
RTVSPost2010PropOp39
 70
     1
102
RTVSPost2010Prop40
 90
        0
102
RTVSPost2010PropOp40
 70
     1
102
RTVSPost2010Prop41ColorIndex
 90
       18
102
RTVSPost2010Prop41ColorRGB
 90
        0
102
RTVSPost2010PropOp41
 70
     1
102
RTVSPost2010Prop42
 90
       50
102
RTVSPost2010PropOp42
 70
     1
102
RTVSPost2010Prop43
 90
        3
102
RTVSPost2010PropOp43
 70
     1
102
RTVSPost2010Prop44ColorIndex
 90
        5
102
RTVSPost2010Prop44ColorRGB
 90
      255
102
RTVSPost2010PropOp44
 70
     1
102
RTVSPost2010Prop45
280
     0
102
RTVSPost2010PropOp45
 70
     1
102
RTVSPost2010Prop46
 90
       50
102
RTVSPost2010PropOp46
 70
     1
102
RTVSPost2010Prop47
 90
       50
102
RTVSPost2010PropOp47
 70
     1
102
RTVSPost2010Prop48
 90
       50
102
RTVSPost2010PropOp48
 70
     1
102
RTVSPost2010Prop49
280
     0
102
RTVSPost2010PropOp49
 70
     1
102
RTVSPost2010Prop50
 90
       50
102
RTVSPost2010PropOp50
 70
     1
102
RTVSPost2010Prop51ColorIndex
 90
      256
102
RTVSPost2010Prop51ColorRGB
 90
-16777216
102
RTVSPost2010PropOp51
 70
     0
102
RTVSPost2010Prop52
140
1.0
102
RTVSPost2010PropOp52
 70
     0
102
RTVSPost2010Prop53
 90
        2
102
RTVSPost2010PropOp53
 70
     1
102
RTVSPost2010Prop54
  1
strokes_ogs.tif
102
RTVSPost2010PropOp54
 70
     1
102
RTVSPost2010Prop55
280
     0
102
RTVSPost2010PropOp55
 70
     1
102
RTVSPost2010Prop56
140
1.0
102
RTVSPost2010PropOp56
 70
     1
102
RTVSPost2010Prop57
140
1.0
102
RTVSPost2010PropOp57
 70
     1
102
RTVSPropertyOp0
 70
     1
102
RTVSPropertyOp1
 70
     1
102
RTVSPropertyOp2
 70
     1
102
RTVSPropertyOp3
 70
     1
102
RTVSPropertyOp4
 70
     1
102
RTVSPropertyOp5
 70
     1
102
RTVSPropertyOp6
 70
     1
102
RTVSPropertyOp7
 70
     1
102
RTVSPropertyOp8
 70
     1
102
RTVSPropertyOp9
 70
     1
102
RTVSPropertyOp10
 70
     1
102
RTVSPropertyOp11
 70
     1
102
RTVSPropertyOp12
 70
     1
102
RTVSPropertyOp13
 70
     1
102
RTVSPropertyOp14
 70
     1
102
RTVSPropertyOp15
 70
     1
102
RTVSPropertyOp16
 70
     1
102
RTVSPropertyOp17
 70
     1
102
RTVSPropertyOp18
 70
     1
102
RTVSPropertyOp19
 70
     1
102
RTVSPropertyOp20
 70
     1
102
RTVSPropertyOp21
 70
     1
102
RTVSPropertyOp22
 70
     1
102
RTVSPropertyOp23
 70
     1
102
RTVSPropertyOp24
 70
     1
102
RTVSPropertyOp25
 70
     1
102
RTVSPropertyOp26
 70
     1
102
RTVSPropertyOp27
 70
     1
102
RTVSPropertyOp28
 70
     1
102
RTVSPropertyOp29
 70
     1
102
RTVSPropertyOp30
 70
     1
102
RTVSPropertyOp31
 70
     1
102
RTVSPropertyOp32
 70
     1
102
RTVSPropertyOp33
 70
     1
102
RTVSPropertyOp34
 70
     1
102
RTVSPropertyOp35
 70
     1
102
RTVSPropertyOp36
 70
     1
102
RTVSPropertyOp37
 70
     1
102
RTVSPropertyOp38
 70
     1
102
RTVSPropertyOp39
 70
     1
102
RTVSPropertyOp40
 70
     1
102
RTVSPropertyOp41
 70
     1
102
RTVSPropertyOp42
 70
     1
102
RTVSPropertyOp43
 70
     1
102
RTVSPropertyOp44
 70
     1
102
RTVSPropertyOp45
 70
     1
102
RTVSPropertyOp46
 70
     1
102
RTVSPropertyOp47
 70
     1
102
RTVSPropertyOp48
 70
     1
102
RTVSPropertyOp49
 70
     1
102
RTVSPropertyOp50
 70
     1
102
RTVSPropertyOp51
 70
     0
102
RTVSPropertyOp52
 70
     0
102
RTVSPropertyOp53
 70
     1
102
RTVSPropertyOp54
 70
     1
102
RTVSPropertyOp55
 70
     1
102
RTVSPropertyOp56
 70
     1
102
RTVSPropertyOp57
 70
     1
102
RTVSPropertyOp58
 70
     1
102
RTVSPropertyOp59
 70
     1
102
RTVSPropertyOp60
 70
     1
102
RTVSPropertyOp61
 70
     1
102
RTVSPropertyOp62
 70
     1
  0
XRECORD
  5
A608
102
{ACAD_REACTORS
330
A607
102
}
330
A607
100
AcDbXrecord
280
     1
102
RTVSPost2010Prop28
280
     0
102
RTVSPost2010PropOp28
 70
     1
102
RTVSPost2010Prop29
280
     1
102
RTVSPost2010PropOp29
 70
     1
102
RTVSPost2010Prop30
280
     1
102
RTVSPost2010PropOp30
 70
     1
102
RTVSPost2010Prop31
280
     0
102
RTVSPost2010PropOp31
 70
     1
102
RTVSPost2010Prop32
280
     0
102
RTVSPost2010PropOp32
 70
     1
102
RTVSPost2010Prop33
280
     0
102
RTVSPost2010PropOp33
 70
     1
102
RTVSPost2010Prop34
280
     0
102
RTVSPost2010PropOp34
 70
     1
102
RTVSPost2010Prop35
280
     0
102
RTVSPost2010PropOp35
 70
     1
102
RTVSPost2010Prop36
280
     0
102
RTVSPost2010PropOp36
 70
     1
102
RTVSPost2010Prop37
 90
       50
102
RTVSPost2010PropOp37
 70
     1
102
RTVSPost2010Prop38
140
0.0
102
RTVSPost2010PropOp38
 70
     1
102
RTVSPost2010Prop39
140
1.0
102
RTVSPost2010PropOp39
 70
     1
102
RTVSPost2010Prop40
 90
        0
102
RTVSPost2010PropOp40
 70
     1
102
RTVSPost2010Prop41ColorIndex
 90
       18
102
RTVSPost2010Prop41ColorRGB
 90
        0
102
RTVSPost2010PropOp41
 70
     1
102
RTVSPost2010Prop42
 90
       50
102
RTVSPost2010PropOp42
 70
     1
102
RTVSPost2010Prop43
 90
        3
102
RTVSPost2010PropOp43
 70
     1
102
RTVSPost2010Prop44ColorIndex
 90
        5
102
RTVSPost2010Prop44ColorRGB
 90
      255
102
RTVSPost2010PropOp44
 70
     1
102
RTVSPost2010Prop45
280
     0
102
RTVSPost2010PropOp45
 70
     1
102
RTVSPost2010Prop46
 90
       50
102
RTVSPost2010PropOp46
 70
     1
102
RTVSPost2010Prop47
 90
       50
102
RTVSPost2010PropOp47
 70
     1
102
RTVSPost2010Prop48
 90
       50
102
RTVSPost2010PropOp48
 70
     1
102
RTVSPost2010Prop49
280
     0
102
RTVSPost2010PropOp49
 70
     1
102
RTVSPost2010Prop50
 90
       50
102
RTVSPost2010PropOp50
 70
     1
102
RTVSPost2010Prop51ColorIndex
 90
      256
102
RTVSPost2010Prop51ColorRGB
 90
-16777216
102
RTVSPost2010PropOp51
 70
     0
102
RTVSPost2010Prop52
140
1.0
102
RTVSPost2010PropOp52
 70
     0
102
RTVSPost2010Prop53
 90
        2
102
RTVSPost2010PropOp53
 70
     1
102
RTVSPost2010Prop54
  1
strokes_ogs.tif
102
RTVSPost2010PropOp54
 70
     1
102
RTVSPost2010Prop55
280
     0
102
RTVSPost2010PropOp55
 70
     1
102
RTVSPost2010Prop56
140
1.0
102
RTVSPost2010PropOp56
 70
     1
102
RTVSPost2010Prop57
140
1.0
102
RTVSPost2010PropOp57
 70
     1
102
RTVSPropertyOp0
 70
     1
102
RTVSPropertyOp1
 70
     1
102
RTVSPropertyOp2
 70
     1
102
RTVSPropertyOp3
 70
     1
102
RTVSPropertyOp4
 70
     1
102
RTVSPropertyOp5
 70
     1
102
RTVSPropertyOp6
 70
     1
102
RTVSPropertyOp7
 70
     1
102
RTVSPropertyOp8
 70
     1
102
RTVSPropertyOp9
 70
     1
102
RTVSPropertyOp10
 70
     1
102
RTVSPropertyOp11
 70
     1
102
RTVSPropertyOp12
 70
     1
102
RTVSPropertyOp13
 70
     1
102
RTVSPropertyOp14
 70
     1
102
RTVSPropertyOp15
 70
     1
102
RTVSPropertyOp16
 70
     1
102
RTVSPropertyOp17
 70
     1
102
RTVSPropertyOp18
 70
     1
102
RTVSPropertyOp19
 70
     1
102
RTVSPropertyOp20
 70
     1
102
RTVSPropertyOp21
 70
     1
102
RTVSPropertyOp22
 70
     1
102
RTVSPropertyOp23
 70
     1
102
RTVSPropertyOp24
 70
     1
102
RTVSPropertyOp25
 70
     1
102
RTVSPropertyOp26
 70
     1
102
RTVSPropertyOp27
 70
     1
102
RTVSPropertyOp28
 70
     1
102
RTVSPropertyOp29
 70
     1
102
RTVSPropertyOp30
 70
     1
102
RTVSPropertyOp31
 70
     1
102
RTVSPropertyOp32
 70
     1
102
RTVSPropertyOp33
 70
     1
102
RTVSPropertyOp34
 70
     1
102
RTVSPropertyOp35
 70
     1
102
RTVSPropertyOp36
 70
     1
102
RTVSPropertyOp37
 70
     1
102
RTVSPropertyOp38
 70
     1
102
RTVSPropertyOp39
 70
     1
102
RTVSPropertyOp40
 70
     1
102
RTVSPropertyOp41
 70
     1
102
RTVSPropertyOp42
 70
     1
102
RTVSPropertyOp43
 70
     1
102
RTVSPropertyOp44
 70
     1
102
RTVSPropertyOp45
 70
     1
102
RTVSPropertyOp46
 70
     1
102
RTVSPropertyOp47
 70
     1
102
RTVSPropertyOp48
 70
     1
102
RTVSPropertyOp49
 70
     1
102
RTVSPropertyOp50
 70
     1
102
RTVSPropertyOp51
 70
     0
102
RTVSPropertyOp52
 70
     0
102
RTVSPropertyOp53
 70
     1
102
RTVSPropertyOp54
 70
     1
102
RTVSPropertyOp55
 70
     1
102
RTVSPropertyOp56
 70
     1
102
RTVSPropertyOp57
 70
     1
102
RTVSPropertyOp58
 70
     1
102
RTVSPropertyOp59
 70
     1
102
RTVSPropertyOp60
 70
     1
102
RTVSPropertyOp61
 70
     1
102
RTVSPropertyOp62
 70
     1
  0
XRECORD
  5
A60C
102
{ACAD_REACTORS
330
A60B
102
}
330
A60B
100
AcDbXrecord
280
     1
102
RTVSPost2010Prop28
280
     0
102
RTVSPost2010PropOp28
 70
     1
102
RTVSPost2010Prop29
280
     1
102
RTVSPost2010PropOp29
 70
     1
102
RTVSPost2010Prop30
280
     1
102
RTVSPost2010PropOp30
 70
     1
102
RTVSPost2010Prop31
280
     0
102
RTVSPost2010PropOp31
 70
     1
102
RTVSPost2010Prop32
280
     0
102
RTVSPost2010PropOp32
 70
     1
102
RTVSPost2010Prop33
280
     0
102
RTVSPost2010PropOp33
 70
     1
102
RTVSPost2010Prop34
280
     0
102
RTVSPost2010PropOp34
 70
     1
102
RTVSPost2010Prop35
280
     0
102
RTVSPost2010PropOp35
 70
     1
102
RTVSPost2010Prop36
280
     0
102
RTVSPost2010PropOp36
 70
     1
102
RTVSPost2010Prop37
 90
       50
102
RTVSPost2010PropOp37
 70
     1
102
RTVSPost2010Prop38
140
0.0
102
RTVSPost2010PropOp38
 70
     1
102
RTVSPost2010Prop39
140
1.0
102
RTVSPost2010PropOp39
 70
     1
102
RTVSPost2010Prop40
 90
        0
102
RTVSPost2010PropOp40
 70
     1
102
RTVSPost2010Prop41ColorIndex
 90
       18
102
RTVSPost2010Prop41ColorRGB
 90
        0
102
RTVSPost2010PropOp41
 70
     1
102
RTVSPost2010Prop42
 90
       50
102
RTVSPost2010PropOp42
 70
     1
102
RTVSPost2010Prop43
 90
        3
102
RTVSPost2010PropOp43
 70
     1
102
RTVSPost2010Prop44ColorIndex
 90
        5
102
RTVSPost2010Prop44ColorRGB
 90
      255
102
RTVSPost2010PropOp44
 70
     1
102
RTVSPost2010Prop45
280
     0
102
RTVSPost2010PropOp45
 70
     1
102
RTVSPost2010Prop46
 90
       50
102
RTVSPost2010PropOp46
 70
     1
102
RTVSPost2010Prop47
 90
       50
102
RTVSPost2010PropOp47
 70
     1
102
RTVSPost2010Prop48
 90
       50
102
RTVSPost2010PropOp48
 70
     1
102
RTVSPost2010Prop49
280
     0
102
RTVSPost2010PropOp49
 70
     1
102
RTVSPost2010Prop50
 90
       50
102
RTVSPost2010PropOp50
 70
     1
102
RTVSPost2010Prop51ColorIndex
 90
      256
102
RTVSPost2010Prop51ColorRGB
 90
-16777216
102
RTVSPost2010PropOp51
 70
     0
102
RTVSPost2010Prop52
140
1.0
102
RTVSPost2010PropOp52
 70
     0
102
RTVSPost2010Prop53
 90
        2
102
RTVSPost2010PropOp53
 70
     1
102
RTVSPost2010Prop54
  1
strokes_ogs.tif
102
RTVSPost2010PropOp54
 70
     1
102
RTVSPost2010Prop55
280
     0
102
RTVSPost2010PropOp55
 70
     1
102
RTVSPost2010Prop56
140
1.0
102
RTVSPost2010PropOp56
 70
     1
102
RTVSPost2010Prop57
140
1.0
102
RTVSPost2010PropOp57
 70
     1
102
RTVSPropertyOp0
 70
     1
102
RTVSPropertyOp1
 70
     1
102
RTVSPropertyOp2
 70
     1
102
RTVSPropertyOp3
 70
     1
102
RTVSPropertyOp4
 70
     1
102
RTVSPropertyOp5
 70
     1
102
RTVSPropertyOp6
 70
     1
102
RTVSPropertyOp7
 70
     1
102
RTVSPropertyOp8
 70
     1
102
RTVSPropertyOp9
 70
     1
102
RTVSPropertyOp10
 70
     1
102
RTVSPropertyOp11
 70
     1
102
RTVSPropertyOp12
 70
     1
102
RTVSPropertyOp13
 70
     1
102
RTVSPropertyOp14
 70
     1
102
RTVSPropertyOp15
 70
     1
102
RTVSPropertyOp16
 70
     1
102
RTVSPropertyOp17
 70
     1
102
RTVSPropertyOp18
 70
     1
102
RTVSPropertyOp19
 70
     1
102
RTVSPropertyOp20
 70
     1
102
RTVSPropertyOp21
 70
     1
102
RTVSPropertyOp22
 70
     1
102
RTVSPropertyOp23
 70
     1
102
RTVSPropertyOp24
 70
     1
102
RTVSPropertyOp25
 70
     1
102
RTVSPropertyOp26
 70
     1
102
RTVSPropertyOp27
 70
     1
102
RTVSPropertyOp28
 70
     1
102
RTVSPropertyOp29
 70
     1
102
RTVSPropertyOp30
 70
     1
102
RTVSPropertyOp31
 70
     1
102
RTVSPropertyOp32
 70
     1
102
RTVSPropertyOp33
 70
     1
102
RTVSPropertyOp34
 70
     1
102
RTVSPropertyOp35
 70
     1
102
RTVSPropertyOp36
 70
     1
102
RTVSPropertyOp37
 70
     1
102
RTVSPropertyOp38
 70
     1
102
RTVSPropertyOp39
 70
     1
102
RTVSPropertyOp40
 70
     1
102
RTVSPropertyOp41
 70
     1
102
RTVSPropertyOp42
 70
     1
102
RTVSPropertyOp43
 70
     1
102
RTVSPropertyOp44
 70
     1
102
RTVSPropertyOp45
 70
     1
102
RTVSPropertyOp46
 70
     1
102
RTVSPropertyOp47
 70
     1
102
RTVSPropertyOp48
 70
     1
102
RTVSPropertyOp49
 70
     1
102
RTVSPropertyOp50
 70
     1
102
RTVSPropertyOp51
 70
     0
102
RTVSPropertyOp52
 70
     0
102
RTVSPropertyOp53
 70
     1
102
RTVSPropertyOp54
 70
     1
102
RTVSPropertyOp55
 70
     1
102
RTVSPropertyOp56
 70
     1
102
RTVSPropertyOp57
 70
     1
102
RTVSPropertyOp58
 70
     1
102
RTVSPropertyOp59
 70
     1
102
RTVSPropertyOp60
 70
     1
102
RTVSPropertyOp61
 70
     1
102
RTVSPropertyOp62
 70
     1
  0
XRECORD
  5
A626
102
{ACAD_REACTORS
330
A625
102
}
330
A625
100
AcDbXrecord
280
     1
102
RTVSPost2010Prop28
280
     0
102
RTVSPost2010PropOp28
 70
     0
102
RTVSPost2010Prop29
280
     1
102
RTVSPost2010PropOp29
 70
     0
102
RTVSPost2010Prop30
280
     1
102
RTVSPost2010PropOp30
 70
     0
102
RTVSPost2010Prop31
280
     0
102
RTVSPost2010PropOp31
 70
     0
102
RTVSPost2010Prop32
280
     0
102
RTVSPost2010PropOp32
 70
     0
102
RTVSPost2010Prop33
280
     0
102
RTVSPost2010PropOp33
 70
     0
102
RTVSPost2010Prop34
280
     0
102
RTVSPost2010PropOp34
 70
     0
102
RTVSPost2010Prop35
280
     0
102
RTVSPost2010PropOp35
 70
     0
102
RTVSPost2010Prop36
280
     0
102
RTVSPost2010PropOp36
 70
     0
102
RTVSPost2010Prop37
 90
       50
102
RTVSPost2010PropOp37
 70
     0
102
RTVSPost2010Prop38
140
0.0
102
RTVSPost2010PropOp38
 70
     0
102
RTVSPost2010Prop39
140
1.0
102
RTVSPost2010PropOp39
 70
     0
102
RTVSPost2010Prop40
 90
        0
102
RTVSPost2010PropOp40
 70
     0
102
RTVSPost2010Prop41ColorIndex
 90
       18
102
RTVSPost2010Prop41ColorRGB
 90
        0
102
RTVSPost2010PropOp41
 70
     0
102
RTVSPost2010Prop42
 90
       50
102
RTVSPost2010PropOp42
 70
     0
102
RTVSPost2010Prop43
 90
        3
102
RTVSPost2010PropOp43
 70
     0
102
RTVSPost2010Prop44ColorIndex
 90
        5
102
RTVSPost2010Prop44ColorRGB
 90
      255
102
RTVSPost2010PropOp44
 70
     0
102
RTVSPost2010Prop45
280
     0
102
RTVSPost2010PropOp45
 70
     0
102
RTVSPost2010Prop46
 90
       50
102
RTVSPost2010PropOp46
 70
     0
102
RTVSPost2010Prop47
 90
       50
102
RTVSPost2010PropOp47
 70
     0
102
RTVSPost2010Prop48
 90
       50
102
RTVSPost2010PropOp48
 70
     0
102
RTVSPost2010Prop49
280
     0
102
RTVSPost2010PropOp49
 70
     0
102
RTVSPost2010Prop50
 90
       50
102
RTVSPost2010PropOp50
 70
     0
102
RTVSPost2010Prop51ColorIndex
 90
      256
102
RTVSPost2010Prop51ColorRGB
 90
-16777216
102
RTVSPost2010PropOp51
 70
     0
102
RTVSPost2010Prop52
140
1.0
102
RTVSPost2010PropOp52
 70
     0
102
RTVSPost2010Prop53
 90
        2
102
RTVSPost2010PropOp53
 70
     0
102
RTVSPost2010Prop54
  1
strokes_ogs.tif
102
RTVSPost2010PropOp54
 70
     0
102
RTVSPost2010Prop55
280
     0
102
RTVSPost2010PropOp55
 70
     0
102
RTVSPost2010Prop56
140
1.0
102
RTVSPost2010PropOp56
 70
     0
102
RTVSPost2010Prop57
140
1.0
102
RTVSPost2010PropOp57
 70
     0
102
RTVSPropertyOp0
 70
     0
102
RTVSPropertyOp1
 70
     0
102
RTVSPropertyOp2
 70
     0
102
RTVSPropertyOp3
 70
     0
102
RTVSPropertyOp4
 70
     0
102
RTVSPropertyOp5
 70
     0
102
RTVSPropertyOp6
 70
     0
102
RTVSPropertyOp7
 70
     0
102
RTVSPropertyOp8
 70
     0
102
RTVSPropertyOp9
 70
     0
102
RTVSPropertyOp10
 70
     0
102
RTVSPropertyOp11
 70
     0
102
RTVSPropertyOp12
 70
     0
102
RTVSPropertyOp13
 70
     0
102
RTVSPropertyOp14
 70
     2
102
RTVSPropertyOp15
 70
     0
102
RTVSPropertyOp16
 70
     0
102
RTVSPropertyOp17
 70
     0
102
RTVSPropertyOp18
 70
     0
102
RTVSPropertyOp19
 70
     0
102
RTVSPropertyOp20
 70
     0
102
RTVSPropertyOp21
 70
     0
102
RTVSPropertyOp22
 70
     0
102
RTVSPropertyOp23
 70
     0
102
RTVSPropertyOp24
 70
     0
102
RTVSPropertyOp25
 70
     0
102
RTVSPropertyOp26
 70
     0
102
RTVSPropertyOp27
 70
     0
102
RTVSPropertyOp28
 70
     0
102
RTVSPropertyOp29
 70
     0
102
RTVSPropertyOp30
 70
     0
102
RTVSPropertyOp31
 70
     0
102
RTVSPropertyOp32
 70
     0
102
RTVSPropertyOp33
 70
     0
102
RTVSPropertyOp34
 70
     0
102
RTVSPropertyOp35
 70
     0
102
RTVSPropertyOp36
 70
     0
102
RTVSPropertyOp37
 70
     0
102
RTVSPropertyOp38
 70
     0
102
RTVSPropertyOp39
 70
     0
102
RTVSPropertyOp40
 70
     0
102
RTVSPropertyOp41
 70
     0
102
RTVSPropertyOp42
 70
     0
102
RTVSPropertyOp43
 70
     0
102
RTVSPropertyOp44
 70
     0
102
RTVSPropertyOp45
 70
     0
102
RTVSPropertyOp46
 70
     0
102
RTVSPropertyOp47
 70
     0
102
RTVSPropertyOp48
 70
     0
102
RTVSPropertyOp49
 70
     0
102
RTVSPropertyOp50
 70
     0
102
RTVSPropertyOp51
 70
     0
102
RTVSPropertyOp52
 70
     0
102
RTVSPropertyOp53
 70
     0
102
RTVSPropertyOp54
 70
     0
102
RTVSPropertyOp55
 70
     0
102
RTVSPropertyOp56
 70
     0
102
RTVSPropertyOp57
 70
     0
102
RTVSPropertyOp58
 70
     0
102
RTVSPropertyOp59
 70
     0
102
RTVSPropertyOp60
 70
     0
102
RTVSPropertyOp61
 70
     0
102
RTVSPropertyOp62
 70
     0
  0
XRECORD
  5
A614
102
{ACAD_REACTORS
330
A613
102
}
330
A613
100
AcDbXrecord
280
     1
102
RTVSPost2010Prop28
280
     0
102
RTVSPost2010PropOp28
 70
     1
102
RTVSPost2010Prop29
280
     1
102
RTVSPost2010PropOp29
 70
     1
102
RTVSPost2010Prop30
280
     1
102
RTVSPost2010PropOp30
 70
     1
102
RTVSPost2010Prop31
280
     0
102
RTVSPost2010PropOp31
 70
     1
102
RTVSPost2010Prop32
280
     0
102
RTVSPost2010PropOp32
 70
     1
102
RTVSPost2010Prop33
280
     0
102
RTVSPost2010PropOp33
 70
     1
102
RTVSPost2010Prop34
280
     0
102
RTVSPost2010PropOp34
 70
     1
102
RTVSPost2010Prop35
280
     0
102
RTVSPost2010PropOp35
 70
     1
102
RTVSPost2010Prop36
280
     0
102
RTVSPost2010PropOp36
 70
     1
102
RTVSPost2010Prop37
 90
       50
102
RTVSPost2010PropOp37
 70
     1
102
RTVSPost2010Prop38
140
0.0
102
RTVSPost2010PropOp38
 70
     1
102
RTVSPost2010Prop39
140
1.0
102
RTVSPost2010PropOp39
 70
     1
102
RTVSPost2010Prop40
 90
        0
102
RTVSPost2010PropOp40
 70
     1
102
RTVSPost2010Prop41ColorIndex
 90
       18
102
RTVSPost2010Prop41ColorRGB
 90
        0
102
RTVSPost2010PropOp41
 70
     1
102
RTVSPost2010Prop42
 90
       50
102
RTVSPost2010PropOp42
 70
     1
102
RTVSPost2010Prop43
 90
        3
102
RTVSPost2010PropOp43
 70
     1
102
RTVSPost2010Prop44ColorIndex
 90
        5
102
RTVSPost2010Prop44ColorRGB
 90
      255
102
RTVSPost2010PropOp44
 70
     1
102
RTVSPost2010Prop45
280
     0
102
RTVSPost2010PropOp45
 70
     1
102
RTVSPost2010Prop46
 90
       50
102
RTVSPost2010PropOp46
 70
     1
102
RTVSPost2010Prop47
 90
       50
102
RTVSPost2010PropOp47
 70
     1
102
RTVSPost2010Prop48
 90
       50
102
RTVSPost2010PropOp48
 70
     1
102
RTVSPost2010Prop49
280
     0
102
RTVSPost2010PropOp49
 70
     1
102
RTVSPost2010Prop50
 90
       50
102
RTVSPost2010PropOp50
 70
     1
102
RTVSPost2010Prop51ColorIndex
 90
      256
102
RTVSPost2010Prop51ColorRGB
 90
-16777216
102
RTVSPost2010PropOp51
 70
     0
102
RTVSPost2010Prop52
140
1.0
102
RTVSPost2010PropOp52
 70
     0
102
RTVSPost2010Prop53
 90
        2
102
RTVSPost2010PropOp53
 70
     1
102
RTVSPost2010Prop54
  1
strokes_ogs.tif
102
RTVSPost2010PropOp54
 70
     1
102
RTVSPost2010Prop55
280
     0
102
RTVSPost2010PropOp55
 70
     1
102
RTVSPost2010Prop56
140
1.0
102
RTVSPost2010PropOp56
 70
     1
102
RTVSPost2010Prop57
140
1.0
102
RTVSPost2010PropOp57
 70
     1
102
RTVSPropertyOp0
 70
     1
102
RTVSPropertyOp1
 70
     1
102
RTVSPropertyOp2
 70
     1
102
RTVSPropertyOp3
 70
     1
102
RTVSPropertyOp4
 70
     1
102
RTVSPropertyOp5
 70
     1
102
RTVSPropertyOp6
 70
     1
102
RTVSPropertyOp7
 70
     1
102
RTVSPropertyOp8
 70
     1
102
RTVSPropertyOp9
 70
     1
102
RTVSPropertyOp10
 70
     1
102
RTVSPropertyOp11
 70
     1
102
RTVSPropertyOp12
 70
     1
102
RTVSPropertyOp13
 70
     1
102
RTVSPropertyOp14
 70
     1
102
RTVSPropertyOp15
 70
     1
102
RTVSPropertyOp16
 70
     1
102
RTVSPropertyOp17
 70
     1
102
RTVSPropertyOp18
 70
     1
102
RTVSPropertyOp19
 70
     1
102
RTVSPropertyOp20
 70
     1
102
RTVSPropertyOp21
 70
     1
102
RTVSPropertyOp22
 70
     1
102
RTVSPropertyOp23
 70
     1
102
RTVSPropertyOp24
 70
     1
102
RTVSPropertyOp25
 70
     1
102
RTVSPropertyOp26
 70
     1
102
RTVSPropertyOp27
 70
     1
102
RTVSPropertyOp28
 70
     1
102
RTVSPropertyOp29
 70
     1
102
RTVSPropertyOp30
 70
     1
102
RTVSPropertyOp31
 70
     1
102
RTVSPropertyOp32
 70
     1
102
RTVSPropertyOp33
 70
     1
102
RTVSPropertyOp34
 70
     1
102
RTVSPropertyOp35
 70
     1
102
RTVSPropertyOp36
 70
     1
102
RTVSPropertyOp37
 70
     1
102
RTVSPropertyOp38
 70
     1
102
RTVSPropertyOp39
 70
     1
102
RTVSPropertyOp40
 70
     1
102
RTVSPropertyOp41
 70
     1
102
RTVSPropertyOp42
 70
     1
102
RTVSPropertyOp43
 70
     1
102
RTVSPropertyOp44
 70
     1
102
RTVSPropertyOp45
 70
     1
102
RTVSPropertyOp46
 70
     1
102
RTVSPropertyOp47
 70
     1
102
RTVSPropertyOp48
 70
     1
102
RTVSPropertyOp49
 70
     1
102
RTVSPropertyOp50
 70
     1
102
RTVSPropertyOp51
 70
     0
102
RTVSPropertyOp52
 70
     0
102
RTVSPropertyOp53
 70
     1
102
RTVSPropertyOp54
 70
     1
102
RTVSPropertyOp55
 70
     1
102
RTVSPropertyOp56
 70
     1
102
RTVSPropertyOp57
 70
     1
102
RTVSPropertyOp58
 70
     1
102
RTVSPropertyOp59
 70
     1
102
RTVSPropertyOp60
 70
     1
102
RTVSPropertyOp61
 70
     1
102
RTVSPropertyOp62
 70
     1
  0
XRECORD
  5
A5F8
102
{ACAD_REACTORS
330
A5F7
102
}
330
A5F7
100
AcDbXrecord
280
     1
102
RTVSPost2010Prop28
280
     0
102
RTVSPost2010PropOp28
 70
     1
102
RTVSPost2010Prop29
280
     1
102
RTVSPost2010PropOp29
 70
     1
102
RTVSPost2010Prop30
280
     1
102
RTVSPost2010PropOp30
 70
     1
102
RTVSPost2010Prop31
280
     0
102
RTVSPost2010PropOp31
 70
     1
102
RTVSPost2010Prop32
280
     0
102
RTVSPost2010PropOp32
 70
     1
102
RTVSPost2010Prop33
280
     0
102
RTVSPost2010PropOp33
 70
     1
102
RTVSPost2010Prop34
280
     0
102
RTVSPost2010PropOp34
 70
     1
102
RTVSPost2010Prop35
280
     0
102
RTVSPost2010PropOp35
 70
     1
102
RTVSPost2010Prop36
280
     0
102
RTVSPost2010PropOp36
 70
     1
102
RTVSPost2010Prop37
 90
       50
102
RTVSPost2010PropOp37
 70
     1
102
RTVSPost2010Prop38
140
0.0
102
RTVSPost2010PropOp38
 70
     1
102
RTVSPost2010Prop39
140
1.0
102
RTVSPost2010PropOp39
 70
     1
102
RTVSPost2010Prop40
 90
        0
102
RTVSPost2010PropOp40
 70
     1
102
RTVSPost2010Prop41ColorIndex
 90
       18
102
RTVSPost2010Prop41ColorRGB
 90
        0
102
RTVSPost2010PropOp41
 70
     1
102
RTVSPost2010Prop42
 90
       50
102
RTVSPost2010PropOp42
 70
     1
102
RTVSPost2010Prop43
 90
        3
102
RTVSPost2010PropOp43
 70
     1
102
RTVSPost2010Prop44ColorIndex
 90
        5
102
RTVSPost2010Prop44ColorRGB
 90
      255
102
RTVSPost2010PropOp44
 70
     1
102
RTVSPost2010Prop45
280
     0
102
RTVSPost2010PropOp45
 70
     1
102
RTVSPost2010Prop46
 90
       50
102
RTVSPost2010PropOp46
 70
     1
102
RTVSPost2010Prop47
 90
       50
102
RTVSPost2010PropOp47
 70
     1
102
RTVSPost2010Prop48
 90
       50
102
RTVSPost2010PropOp48
 70
     1
102
RTVSPost2010Prop49
280
     0
102
RTVSPost2010PropOp49
 70
     1
102
RTVSPost2010Prop50
 90
       50
102
RTVSPost2010PropOp50
 70
     1
102
RTVSPost2010Prop51ColorIndex
 90
      256
102
RTVSPost2010Prop51ColorRGB
 90
-16777216
102
RTVSPost2010PropOp51
 70
     0
102
RTVSPost2010Prop52
140
1.0
102
RTVSPost2010PropOp52
 70
     0
102
RTVSPost2010Prop53
 90
        2
102
RTVSPost2010PropOp53
 70
     1
102
RTVSPost2010Prop54
  1
strokes_ogs.tif
102
RTVSPost2010PropOp54
 70
     1
102
RTVSPost2010Prop55
280
     0
102
RTVSPost2010PropOp55
 70
     1
102
RTVSPost2010Prop56
140
1.0
102
RTVSPost2010PropOp56
 70
     1
102
RTVSPost2010Prop57
140
1.0
102
RTVSPost2010PropOp57
 70
     1
102
RTVSPropertyOp0
 70
     1
102
RTVSPropertyOp1
 70
     1
102
RTVSPropertyOp2
 70
     1
102
RTVSPropertyOp3
 70
     1
102
RTVSPropertyOp4
 70
     1
102
RTVSPropertyOp5
 70
     1
102
RTVSPropertyOp6
 70
     1
102
RTVSPropertyOp7
 70
     1
102
RTVSPropertyOp8
 70
     1
102
RTVSPropertyOp9
 70
     1
102
RTVSPropertyOp10
 70
     1
102
RTVSPropertyOp11
 70
     1
102
RTVSPropertyOp12
 70
     1
102
RTVSPropertyOp13
 70
     1
102
RTVSPropertyOp14
 70
     1
102
RTVSPropertyOp15
 70
     1
102
RTVSPropertyOp16
 70
     1
102
RTVSPropertyOp17
 70
     1
102
RTVSPropertyOp18
 70
     1
102
RTVSPropertyOp19
 70
     1
102
RTVSPropertyOp20
 70
     1
102
RTVSPropertyOp21
 70
     1
102
RTVSPropertyOp22
 70
     1
102
RTVSPropertyOp23
 70
     1
102
RTVSPropertyOp24
 70
     1
102
RTVSPropertyOp25
 70
     1
102
RTVSPropertyOp26
 70
     1
102
RTVSPropertyOp27
 70
     1
102
RTVSPropertyOp28
 70
     1
102
RTVSPropertyOp29
 70
     1
102
RTVSPropertyOp30
 70
     1
102
RTVSPropertyOp31
 70
     1
102
RTVSPropertyOp32
 70
     1
102
RTVSPropertyOp33
 70
     1
102
RTVSPropertyOp34
 70
     1
102
RTVSPropertyOp35
 70
     1
102
RTVSPropertyOp36
 70
     1
102
RTVSPropertyOp37
 70
     1
102
RTVSPropertyOp38
 70
     1
102
RTVSPropertyOp39
 70
     1
102
RTVSPropertyOp40
 70
     1
102
RTVSPropertyOp41
 70
     1
102
RTVSPropertyOp42
 70
     1
102
RTVSPropertyOp43
 70
     1
102
RTVSPropertyOp44
 70
     1
102
RTVSPropertyOp45
 70
     1
102
RTVSPropertyOp46
 70
     1
102
RTVSPropertyOp47
 70
     1
102
RTVSPropertyOp48
 70
     1
102
RTVSPropertyOp49
 70
     1
102
RTVSPropertyOp50
 70
     1
102
RTVSPropertyOp51
 70
     0
102
RTVSPropertyOp52
 70
     0
102
RTVSPropertyOp53
 70
     1
102
RTVSPropertyOp54
 70
     1
102
RTVSPropertyOp55
 70
     1
102
RTVSPropertyOp56
 70
     1
102
RTVSPropertyOp57
 70
     1
102
RTVSPropertyOp58
 70
     1
102
RTVSPropertyOp59
 70
     1
102
RTVSPropertyOp60
 70
     1
102
RTVSPropertyOp61
 70
     1
102
RTVSPropertyOp62
 70
     1
  0
XRECORD
  5
A5FA
102
{ACAD_REACTORS
330
A5F9
102
}
330
A5F9
100
AcDbXrecord
280
     1
102
RTVSPost2010Prop28
280
     0
102
RTVSPost2010PropOp28
 70
     1
102
RTVSPost2010Prop29
280
     1
102
RTVSPost2010PropOp29
 70
     1
102
RTVSPost2010Prop30
280
     1
102
RTVSPost2010PropOp30
 70
     1
102
RTVSPost2010Prop31
280
     0
102
RTVSPost2010PropOp31
 70
     1
102
RTVSPost2010Prop32
280
     0
102
RTVSPost2010PropOp32
 70
     1
102
RTVSPost2010Prop33
280
     0
102
RTVSPost2010PropOp33
 70
     1
102
RTVSPost2010Prop34
280
     0
102
RTVSPost2010PropOp34
 70
     1
102
RTVSPost2010Prop35
280
     0
102
RTVSPost2010PropOp35
 70
     1
102
RTVSPost2010Prop36
280
     0
102
RTVSPost2010PropOp36
 70
     1
102
RTVSPost2010Prop37
 90
       50
102
RTVSPost2010PropOp37
 70
     1
102
RTVSPost2010Prop38
140
0.0
102
RTVSPost2010PropOp38
 70
     1
102
RTVSPost2010Prop39
140
1.0
102
RTVSPost2010PropOp39
 70
     1
102
RTVSPost2010Prop40
 90
        0
102
RTVSPost2010PropOp40
 70
     1
102
RTVSPost2010Prop41ColorIndex
 90
       18
102
RTVSPost2010Prop41ColorRGB
 90
        0
102
RTVSPost2010PropOp41
 70
     1
102
RTVSPost2010Prop42
 90
       50
102
RTVSPost2010PropOp42
 70
     1
102
RTVSPost2010Prop43
 90
        3
102
RTVSPost2010PropOp43
 70
     1
102
RTVSPost2010Prop44ColorIndex
 90
        5
102
RTVSPost2010Prop44ColorRGB
 90
      255
102
RTVSPost2010PropOp44
 70
     1
102
RTVSPost2010Prop45
280
     0
102
RTVSPost2010PropOp45
 70
     1
102
RTVSPost2010Prop46
 90
       50
102
RTVSPost2010PropOp46
 70
     1
102
RTVSPost2010Prop47
 90
       50
102
RTVSPost2010PropOp47
 70
     1
102
RTVSPost2010Prop48
 90
       50
102
RTVSPost2010PropOp48
 70
     1
102
RTVSPost2010Prop49
280
     0
102
RTVSPost2010PropOp49
 70
     1
102
RTVSPost2010Prop50
 90
       50
102
RTVSPost2010PropOp50
 70
     1
102
RTVSPost2010Prop51ColorIndex
 90
      256
102
RTVSPost2010Prop51ColorRGB
 90
-16777216
102
RTVSPost2010PropOp51
 70
     0
102
RTVSPost2010Prop52
140
1.0
102
RTVSPost2010PropOp52
 70
     0
102
RTVSPost2010Prop53
 90
        2
102
RTVSPost2010PropOp53
 70
     1
102
RTVSPost2010Prop54
  1
strokes_ogs.tif
102
RTVSPost2010PropOp54
 70
     1
102
RTVSPost2010Prop55
280
     0
102
RTVSPost2010PropOp55
 70
     1
102
RTVSPost2010Prop56
140
1.0
102
RTVSPost2010PropOp56
 70
     1
102
RTVSPost2010Prop57
140
1.0
102
RTVSPost2010PropOp57
 70
     1
102
RTVSPropertyOp0
 70
     1
102
RTVSPropertyOp1
 70
     1
102
RTVSPropertyOp2
 70
     1
102
RTVSPropertyOp3
 70
     1
102
RTVSPropertyOp4
 70
     1
102
RTVSPropertyOp5
 70
     1
102
RTVSPropertyOp6
 70
     1
102
RTVSPropertyOp7
 70
     1
102
RTVSPropertyOp8
 70
     1
102
RTVSPropertyOp9
 70
     1
102
RTVSPropertyOp10
 70
     1
102
RTVSPropertyOp11
 70
     1
102
RTVSPropertyOp12
 70
     1
102
RTVSPropertyOp13
 70
     1
102
RTVSPropertyOp14
 70
     1
102
RTVSPropertyOp15
 70
     1
102
RTVSPropertyOp16
 70
     1
102
RTVSPropertyOp17
 70
     1
102
RTVSPropertyOp18
 70
     1
102
RTVSPropertyOp19
 70
     1
102
RTVSPropertyOp20
 70
     1
102
RTVSPropertyOp21
 70
     1
102
RTVSPropertyOp22
 70
     1
102
RTVSPropertyOp23
 70
     1
102
RTVSPropertyOp24
 70
     1
102
RTVSPropertyOp25
 70
     1
102
RTVSPropertyOp26
 70
     1
102
RTVSPropertyOp27
 70
     1
102
RTVSPropertyOp28
 70
     1
102
RTVSPropertyOp29
 70
     1
102
RTVSPropertyOp30
 70
     1
102
RTVSPropertyOp31
 70
     1
102
RTVSPropertyOp32
 70
     1
102
RTVSPropertyOp33
 70
     1
102
RTVSPropertyOp34
 70
     1
102
RTVSPropertyOp35
 70
     1
102
RTVSPropertyOp36
 70
     1
102
RTVSPropertyOp37
 70
     1
102
RTVSPropertyOp38
 70
     1
102
RTVSPropertyOp39
 70
     1
102
RTVSPropertyOp40
 70
     1
102
RTVSPropertyOp41
 70
     1
102
RTVSPropertyOp42
 70
     1
102
RTVSPropertyOp43
 70
     1
102
RTVSPropertyOp44
 70
     1
102
RTVSPropertyOp45
 70
     1
102
RTVSPropertyOp46
 70
     1
102
RTVSPropertyOp47
 70
     1
102
RTVSPropertyOp48
 70
     1
102
RTVSPropertyOp49
 70
     1
102
RTVSPropertyOp50
 70
     1
102
RTVSPropertyOp51
 70
     0
102
RTVSPropertyOp52
 70
     0
102
RTVSPropertyOp53
 70
     1
102
RTVSPropertyOp54
 70
     1
102
RTVSPropertyOp55
 70
     1
102
RTVSPropertyOp56
 70
     1
102
RTVSPropertyOp57
 70
     1
102
RTVSPropertyOp58
 70
     1
102
RTVSPropertyOp59
 70
     1
102
RTVSPropertyOp60
 70
     1
102
RTVSPropertyOp61
 70
     1
102
RTVSPropertyOp62
 70
     1
  0
XRECORD
  5
A5FC
102
{ACAD_REACTORS
330
A5FB
102
}
330
A5FB
100
AcDbXrecord
280
     1
102
RTVSPost2010Prop28
280
     0
102
RTVSPost2010PropOp28
 70
     1
102
RTVSPost2010Prop29
280
     1
102
RTVSPost2010PropOp29
 70
     1
102
RTVSPost2010Prop30
280
     1
102
RTVSPost2010PropOp30
 70
     1
102
RTVSPost2010Prop31
280
     0
102
RTVSPost2010PropOp31
 70
     1
102
RTVSPost2010Prop32
280
     0
102
RTVSPost2010PropOp32
 70
     1
102
RTVSPost2010Prop33
280
     0
102
RTVSPost2010PropOp33
 70
     1
102
RTVSPost2010Prop34
280
     0
102
RTVSPost2010PropOp34
 70
     1
102
RTVSPost2010Prop35
280
     0
102
RTVSPost2010PropOp35
 70
     1
102
RTVSPost2010Prop36
280
     0
102
RTVSPost2010PropOp36
 70
     1
102
RTVSPost2010Prop37
 90
       50
102
RTVSPost2010PropOp37
 70
     1
102
RTVSPost2010Prop38
140
0.0
102
RTVSPost2010PropOp38
 70
     1
102
RTVSPost2010Prop39
140
1.0
102
RTVSPost2010PropOp39
 70
     1
102
RTVSPost2010Prop40
 90
        0
102
RTVSPost2010PropOp40
 70
     1
102
RTVSPost2010Prop41ColorIndex
 90
       18
102
RTVSPost2010Prop41ColorRGB
 90
        0
102
RTVSPost2010PropOp41
 70
     1
102
RTVSPost2010Prop42
 90
       50
102
RTVSPost2010PropOp42
 70
     1
102
RTVSPost2010Prop43
 90
        3
102
RTVSPost2010PropOp43
 70
     1
102
RTVSPost2010Prop44ColorIndex
 90
        5
102
RTVSPost2010Prop44ColorRGB
 90
      255
102
RTVSPost2010PropOp44
 70
     1
102
RTVSPost2010Prop45
280
     0
102
RTVSPost2010PropOp45
 70
     1
102
RTVSPost2010Prop46
 90
       50
102
RTVSPost2010PropOp46
 70
     1
102
RTVSPost2010Prop47
 90
       50
102
RTVSPost2010PropOp47
 70
     1
102
RTVSPost2010Prop48
 90
       50
102
RTVSPost2010PropOp48
 70
     1
102
RTVSPost2010Prop49
280
     0
102
RTVSPost2010PropOp49
 70
     1
102
RTVSPost2010Prop50
 90
       50
102
RTVSPost2010PropOp50
 70
     1
102
RTVSPost2010Prop51ColorIndex
 90
      256
102
RTVSPost2010Prop51ColorRGB
 90
-16777216
102
RTVSPost2010PropOp51
 70
     0
102
RTVSPost2010Prop52
140
1.0
102
RTVSPost2010PropOp52
 70
     0
102
RTVSPost2010Prop53
 90
        2
102
RTVSPost2010PropOp53
 70
     1
102
RTVSPost2010Prop54
  1
strokes_ogs.tif
102
RTVSPost2010PropOp54
 70
     1
102
RTVSPost2010Prop55
280
     0
102
RTVSPost2010PropOp55
 70
     1
102
RTVSPost2010Prop56
140
1.0
102
RTVSPost2010PropOp56
 70
     1
102
RTVSPost2010Prop57
140
1.0
102
RTVSPost2010PropOp57
 70
     1
102
RTVSPropertyOp0
 70
     1
102
RTVSPropertyOp1
 70
     1
102
RTVSPropertyOp2
 70
     1
102
RTVSPropertyOp3
 70
     1
102
RTVSPropertyOp4
 70
     1
102
RTVSPropertyOp5
 70
     1
102
RTVSPropertyOp6
 70
     1
102
RTVSPropertyOp7
 70
     1
102
RTVSPropertyOp8
 70
     1
102
RTVSPropertyOp9
 70
     1
102
RTVSPropertyOp10
 70
     1
102
RTVSPropertyOp11
 70
     1
102
RTVSPropertyOp12
 70
     1
102
RTVSPropertyOp13
 70
     1
102
RTVSPropertyOp14
 70
     1
102
RTVSPropertyOp15
 70
     1
102
RTVSPropertyOp16
 70
     1
102
RTVSPropertyOp17
 70
     1
102
RTVSPropertyOp18
 70
     1
102
RTVSPropertyOp19
 70
     1
102
RTVSPropertyOp20
 70
     1
102
RTVSPropertyOp21
 70
     1
102
RTVSPropertyOp22
 70
     1
102
RTVSPropertyOp23
 70
     1
102
RTVSPropertyOp24
 70
     1
102
RTVSPropertyOp25
 70
     1
102
RTVSPropertyOp26
 70
     1
102
RTVSPropertyOp27
 70
     1
102
RTVSPropertyOp28
 70
     1
102
RTVSPropertyOp29
 70
     1
102
RTVSPropertyOp30
 70
     1
102
RTVSPropertyOp31
 70
     1
102
RTVSPropertyOp32
 70
     1
102
RTVSPropertyOp33
 70
     1
102
RTVSPropertyOp34
 70
     1
102
RTVSPropertyOp35
 70
     1
102
RTVSPropertyOp36
 70
     1
102
RTVSPropertyOp37
 70
     1
102
RTVSPropertyOp38
 70
     1
102
RTVSPropertyOp39
 70
     1
102
RTVSPropertyOp40
 70
     1
102
RTVSPropertyOp41
 70
     1
102
RTVSPropertyOp42
 70
     1
102
RTVSPropertyOp43
 70
     1
102
RTVSPropertyOp44
 70
     1
102
RTVSPropertyOp45
 70
     1
102
RTVSPropertyOp46
 70
     1
102
RTVSPropertyOp47
 70
     1
102
RTVSPropertyOp48
 70
     1
102
RTVSPropertyOp49
 70
     1
102
RTVSPropertyOp50
 70
     1
102
RTVSPropertyOp51
 70
     0
102
RTVSPropertyOp52
 70
     0
102
RTVSPropertyOp53
 70
     1
102
RTVSPropertyOp54
 70
     1
102
RTVSPropertyOp55
 70
     1
102
RTVSPropertyOp56
 70
     1
102
RTVSPropertyOp57
 70
     1
102
RTVSPropertyOp58
 70
     1
102
RTVSPropertyOp59
 70
     1
102
RTVSPropertyOp60
 70
     1
102
RTVSPropertyOp61
 70
     1
102
RTVSPropertyOp62
 70
     1
  0
XRECORD
  5
A5FE
102
{ACAD_REACTORS
330
A5FD
102
}
330
A5FD
100
AcDbXrecord
280
     1
102
RTVSPost2010Prop28
280
     0
102
RTVSPost2010PropOp28
 70
     1
102
RTVSPost2010Prop29
280
     1
102
RTVSPost2010PropOp29
 70
     1
102
RTVSPost2010Prop30
280
     1
102
RTVSPost2010PropOp30
 70
     1
102
RTVSPost2010Prop31
280
     0
102
RTVSPost2010PropOp31
 70
     1
102
RTVSPost2010Prop32
280
     0
102
RTVSPost2010PropOp32
 70
     1
102
RTVSPost2010Prop33
280
     0
102
RTVSPost2010PropOp33
 70
     1
102
RTVSPost2010Prop34
280
     0
102
RTVSPost2010PropOp34
 70
     1
102
RTVSPost2010Prop35
280
     0
102
RTVSPost2010PropOp35
 70
     1
102
RTVSPost2010Prop36
280
     0
102
RTVSPost2010PropOp36
 70
     1
102
RTVSPost2010Prop37
 90
       50
102
RTVSPost2010PropOp37
 70
     1
102
RTVSPost2010Prop38
140
0.0
102
RTVSPost2010PropOp38
 70
     1
102
RTVSPost2010Prop39
140
1.0
102
RTVSPost2010PropOp39
 70
     1
102
RTVSPost2010Prop40
 90
        0
102
RTVSPost2010PropOp40
 70
     1
102
RTVSPost2010Prop41ColorIndex
 90
       18
102
RTVSPost2010Prop41ColorRGB
 90
        0
102
RTVSPost2010PropOp41
 70
     1
102
RTVSPost2010Prop42
 90
       50
102
RTVSPost2010PropOp42
 70
     1
102
RTVSPost2010Prop43
 90
        3
102
RTVSPost2010PropOp43
 70
     1
102
RTVSPost2010Prop44ColorIndex
 90
        5
102
RTVSPost2010Prop44ColorRGB
 90
      255
102
RTVSPost2010PropOp44
 70
     1
102
RTVSPost2010Prop45
280
     0
102
RTVSPost2010PropOp45
 70
     1
102
RTVSPost2010Prop46
 90
       50
102
RTVSPost2010PropOp46
 70
     1
102
RTVSPost2010Prop47
 90
       50
102
RTVSPost2010PropOp47
 70
     1
102
RTVSPost2010Prop48
 90
       50
102
RTVSPost2010PropOp48
 70
     1
102
RTVSPost2010Prop49
280
     0
102
RTVSPost2010PropOp49
 70
     1
102
RTVSPost2010Prop50
 90
       50
102
RTVSPost2010PropOp50
 70
     1
102
RTVSPost2010Prop51ColorIndex
 90
      256
102
RTVSPost2010Prop51ColorRGB
 90
-16777216
102
RTVSPost2010PropOp51
 70
     0
102
RTVSPost2010Prop52
140
1.0
102
RTVSPost2010PropOp52
 70
     0
102
RTVSPost2010Prop53
 90
        2
102
RTVSPost2010PropOp53
 70
     1
102
RTVSPost2010Prop54
  1
strokes_ogs.tif
102
RTVSPost2010PropOp54
 70
     1
102
RTVSPost2010Prop55
280
     0
102
RTVSPost2010PropOp55
 70
     1
102
RTVSPost2010Prop56
140
1.0
102
RTVSPost2010PropOp56
 70
     1
102
RTVSPost2010Prop57
140
1.0
102
RTVSPost2010PropOp57
 70
     1
102
RTVSPropertyOp0
 70
     1
102
RTVSPropertyOp1
 70
     1
102
RTVSPropertyOp2
 70
     1
102
RTVSPropertyOp3
 70
     1
102
RTVSPropertyOp4
 70
     1
102
RTVSPropertyOp5
 70
     1
102
RTVSPropertyOp6
 70
     1
102
RTVSPropertyOp7
 70
     1
102
RTVSPropertyOp8
 70
     1
102
RTVSPropertyOp9
 70
     1
102
RTVSPropertyOp10
 70
     1
102
RTVSPropertyOp11
 70
     1
102
RTVSPropertyOp12
 70
     1
102
RTVSPropertyOp13
 70
     1
102
RTVSPropertyOp14
 70
     1
102
RTVSPropertyOp15
 70
     1
102
RTVSPropertyOp16
 70
     1
102
RTVSPropertyOp17
 70
     1
102
RTVSPropertyOp18
 70
     1
102
RTVSPropertyOp19
 70
     1
102
RTVSPropertyOp20
 70
     1
102
RTVSPropertyOp21
 70
     1
102
RTVSPropertyOp22
 70
     1
102
RTVSPropertyOp23
 70
     1
102
RTVSPropertyOp24
 70
     1
102
RTVSPropertyOp25
 70
     1
102
RTVSPropertyOp26
 70
     1
102
RTVSPropertyOp27
 70
     1
102
RTVSPropertyOp28
 70
     1
102
RTVSPropertyOp29
 70
     1
102
RTVSPropertyOp30
 70
     1
102
RTVSPropertyOp31
 70
     1
102
RTVSPropertyOp32
 70
     1
102
RTVSPropertyOp33
 70
     1
102
RTVSPropertyOp34
 70
     1
102
RTVSPropertyOp35
 70
     1
102
RTVSPropertyOp36
 70
     1
102
RTVSPropertyOp37
 70
     1
102
RTVSPropertyOp38
 70
     1
102
RTVSPropertyOp39
 70
     1
102
RTVSPropertyOp40
 70
     1
102
RTVSPropertyOp41
 70
     1
102
RTVSPropertyOp42
 70
     1
102
RTVSPropertyOp43
 70
     1
102
RTVSPropertyOp44
 70
     1
102
RTVSPropertyOp45
 70
     1
102
RTVSPropertyOp46
 70
     1
102
RTVSPropertyOp47
 70
     1
102
RTVSPropertyOp48
 70
     1
102
RTVSPropertyOp49
 70
     1
102
RTVSPropertyOp50
 70
     1
102
RTVSPropertyOp51
 70
     0
102
RTVSPropertyOp52
 70
     0
102
RTVSPropertyOp53
 70
     1
102
RTVSPropertyOp54
 70
     1
102
RTVSPropertyOp55
 70
     1
102
RTVSPropertyOp56
 70
     1
102
RTVSPropertyOp57
 70
     1
102
RTVSPropertyOp58
 70
     1
102
RTVSPropertyOp59
 70
     1
102
RTVSPropertyOp60
 70
     1
102
RTVSPropertyOp61
 70
     1
102
RTVSPropertyOp62
 70
     1
  0
XRECORD
  5
A606
102
{ACAD_REACTORS
330
A605
102
}
330
A605
100
AcDbXrecord
280
     1
102
RTVSPost2010Prop28
280
     0
102
RTVSPost2010PropOp28
 70
     1
102
RTVSPost2010Prop29
280
     1
102
RTVSPost2010PropOp29
 70
     1
102
RTVSPost2010Prop30
280
     1
102
RTVSPost2010PropOp30
 70
     1
102
RTVSPost2010Prop31
280
     0
102
RTVSPost2010PropOp31
 70
     1
102
RTVSPost2010Prop32
280
     0
102
RTVSPost2010PropOp32
 70
     1
102
RTVSPost2010Prop33
280
     0
102
RTVSPost2010PropOp33
 70
     1
102
RTVSPost2010Prop34
280
     0
102
RTVSPost2010PropOp34
 70
     1
102
RTVSPost2010Prop35
280
     0
102
RTVSPost2010PropOp35
 70
     1
102
RTVSPost2010Prop36
280
     0
102
RTVSPost2010PropOp36
 70
     1
102
RTVSPost2010Prop37
 90
       50
102
RTVSPost2010PropOp37
 70
     1
102
RTVSPost2010Prop38
140
0.0
102
RTVSPost2010PropOp38
 70
     1
102
RTVSPost2010Prop39
140
1.0
102
RTVSPost2010PropOp39
 70
     1
102
RTVSPost2010Prop40
 90
        0
102
RTVSPost2010PropOp40
 70
     1
102
RTVSPost2010Prop41ColorIndex
 90
       18
102
RTVSPost2010Prop41ColorRGB
 90
        0
102
RTVSPost2010PropOp41
 70
     1
102
RTVSPost2010Prop42
 90
       50
102
RTVSPost2010PropOp42
 70
     1
102
RTVSPost2010Prop43
 90
        3
102
RTVSPost2010PropOp43
 70
     1
102
RTVSPost2010Prop44ColorIndex
 90
        5
102
RTVSPost2010Prop44ColorRGB
 90
      255
102
RTVSPost2010PropOp44
 70
     1
102
RTVSPost2010Prop45
280
     0
102
RTVSPost2010PropOp45
 70
     1
102
RTVSPost2010Prop46
 90
       50
102
RTVSPost2010PropOp46
 70
     1
102
RTVSPost2010Prop47
 90
       50
102
RTVSPost2010PropOp47
 70
     1
102
RTVSPost2010Prop48
 90
       50
102
RTVSPost2010PropOp48
 70
     1
102
RTVSPost2010Prop49
280
     0
102
RTVSPost2010PropOp49
 70
     1
102
RTVSPost2010Prop50
 90
       50
102
RTVSPost2010PropOp50
 70
     1
102
RTVSPost2010Prop51ColorIndex
 90
      256
102
RTVSPost2010Prop51ColorRGB
 90
-16777216
102
RTVSPost2010PropOp51
 70
     0
102
RTVSPost2010Prop52
140
1.0
102
RTVSPost2010PropOp52
 70
     0
102
RTVSPost2010Prop53
 90
        2
102
RTVSPost2010PropOp53
 70
     1
102
RTVSPost2010Prop54
  1
strokes_ogs.tif
102
RTVSPost2010PropOp54
 70
     1
102
RTVSPost2010Prop55
280
     0
102
RTVSPost2010PropOp55
 70
     1
102
RTVSPost2010Prop56
140
1.0
102
RTVSPost2010PropOp56
 70
     1
102
RTVSPost2010Prop57
140
1.0
102
RTVSPost2010PropOp57
 70
     1
102
RTVSPropertyOp0
 70
     1
102
RTVSPropertyOp1
 70
     1
102
RTVSPropertyOp2
 70
     1
102
RTVSPropertyOp3
 70
     1
102
RTVSPropertyOp4
 70
     1
102
RTVSPropertyOp5
 70
     1
102
RTVSPropertyOp6
 70
     1
102
RTVSPropertyOp7
 70
     1
102
RTVSPropertyOp8
 70
     1
102
RTVSPropertyOp9
 70
     1
102
RTVSPropertyOp10
 70
     1
102
RTVSPropertyOp11
 70
     1
102
RTVSPropertyOp12
 70
     1
102
RTVSPropertyOp13
 70
     1
102
RTVSPropertyOp14
 70
     1
102
RTVSPropertyOp15
 70
     1
102
RTVSPropertyOp16
 70
     1
102
RTVSPropertyOp17
 70
     1
102
RTVSPropertyOp18
 70
     1
102
RTVSPropertyOp19
 70
     1
102
RTVSPropertyOp20
 70
     1
102
RTVSPropertyOp21
 70
     1
102
RTVSPropertyOp22
 70
     1
102
RTVSPropertyOp23
 70
     1
102
RTVSPropertyOp24
 70
     1
102
RTVSPropertyOp25
 70
     1
102
RTVSPropertyOp26
 70
     1
102
RTVSPropertyOp27
 70
     1
102
RTVSPropertyOp28
 70
     1
102
RTVSPropertyOp29
 70
     1
102
RTVSPropertyOp30
 70
     1
102
RTVSPropertyOp31
 70
     1
102
RTVSPropertyOp32
 70
     1
102
RTVSPropertyOp33
 70
     1
102
RTVSPropertyOp34
 70
     1
102
RTVSPropertyOp35
 70
     1
102
RTVSPropertyOp36
 70
     1
102
RTVSPropertyOp37
 70
     1
102
RTVSPropertyOp38
 70
     1
102
RTVSPropertyOp39
 70
     1
102
RTVSPropertyOp40
 70
     1
102
RTVSPropertyOp41
 70
     1
102
RTVSPropertyOp42
 70
     1
102
RTVSPropertyOp43
 70
     1
102
RTVSPropertyOp44
 70
     1
102
RTVSPropertyOp45
 70
     1
102
RTVSPropertyOp46
 70
     1
102
RTVSPropertyOp47
 70
     1
102
RTVSPropertyOp48
 70
     1
102
RTVSPropertyOp49
 70
     1
102
RTVSPropertyOp50
 70
     1
102
RTVSPropertyOp51
 70
     0
102
RTVSPropertyOp52
 70
     0
102
RTVSPropertyOp53
 70
     1
102
RTVSPropertyOp54
 70
     1
102
RTVSPropertyOp55
 70
     1
102
RTVSPropertyOp56
 70
     1
102
RTVSPropertyOp57
 70
     1
102
RTVSPropertyOp58
 70
     1
102
RTVSPropertyOp59
 70
     1
102
RTVSPropertyOp60
 70
     1
102
RTVSPropertyOp61
 70
     1
102
RTVSPropertyOp62
 70
     1
  0
XRECORD
  5
A622
102
{ACAD_REACTORS
330
A621
102
}
330
A621
100
AcDbXrecord
280
     1
102
RTVSPost2010Prop28
280
     0
102
RTVSPost2010PropOp28
 70
     0
102
RTVSPost2010Prop29
280
     1
102
RTVSPost2010PropOp29
 70
     0
102
RTVSPost2010Prop30
280
     1
102
RTVSPost2010PropOp30
 70
     0
102
RTVSPost2010Prop31
280
     0
102
RTVSPost2010PropOp31
 70
     0
102
RTVSPost2010Prop32
280
     0
102
RTVSPost2010PropOp32
 70
     0
102
RTVSPost2010Prop33
280
     0
102
RTVSPost2010PropOp33
 70
     0
102
RTVSPost2010Prop34
280
     0
102
RTVSPost2010PropOp34
 70
     0
102
RTVSPost2010Prop35
280
     0
102
RTVSPost2010PropOp35
 70
     0
102
RTVSPost2010Prop36
280
     0
102
RTVSPost2010PropOp36
 70
     0
102
RTVSPost2010Prop37
 90
       50
102
RTVSPost2010PropOp37
 70
     0
102
RTVSPost2010Prop38
140
0.0
102
RTVSPost2010PropOp38
 70
     0
102
RTVSPost2010Prop39
140
1.0
102
RTVSPost2010PropOp39
 70
     0
102
RTVSPost2010Prop40
 90
        0
102
RTVSPost2010PropOp40
 70
     0
102
RTVSPost2010Prop41ColorIndex
 90
       18
102
RTVSPost2010Prop41ColorRGB
 90
        0
102
RTVSPost2010PropOp41
 70
     0
102
RTVSPost2010Prop42
 90
       50
102
RTVSPost2010PropOp42
 70
     0
102
RTVSPost2010Prop43
 90
        3
102
RTVSPost2010PropOp43
 70
     0
102
RTVSPost2010Prop44ColorIndex
 90
        5
102
RTVSPost2010Prop44ColorRGB
 90
      255
102
RTVSPost2010PropOp44
 70
     0
102
RTVSPost2010Prop45
280
     0
102
RTVSPost2010PropOp45
 70
     0
102
RTVSPost2010Prop46
 90
       50
102
RTVSPost2010PropOp46
 70
     0
102
RTVSPost2010Prop47
 90
       50
102
RTVSPost2010PropOp47
 70
     0
102
RTVSPost2010Prop48
 90
       50
102
RTVSPost2010PropOp48
 70
     0
102
RTVSPost2010Prop49
280
     0
102
RTVSPost2010PropOp49
 70
     0
102
RTVSPost2010Prop50
 90
       50
102
RTVSPost2010PropOp50
 70
     0
102
RTVSPost2010Prop51ColorIndex
 90
      256
102
RTVSPost2010Prop51ColorRGB
 90
-16777216
102
RTVSPost2010PropOp51
 70
     0
102
RTVSPost2010Prop52
140
1.0
102
RTVSPost2010PropOp52
 70
     0
102
RTVSPost2010Prop53
 90
        2
102
RTVSPost2010PropOp53
 70
     0
102
RTVSPost2010Prop54
  1
strokes_ogs.tif
102
RTVSPost2010PropOp54
 70
     0
102
RTVSPost2010Prop55
280
     0
102
RTVSPost2010PropOp55
 70
     0
102
RTVSPost2010Prop56
140
1.0
102
RTVSPost2010PropOp56
 70
     0
102
RTVSPost2010Prop57
140
1.0
102
RTVSPost2010PropOp57
 70
     0
102
RTVSPropertyOp0
 70
     0
102
RTVSPropertyOp1
 70
     0
102
RTVSPropertyOp2
 70
     0
102
RTVSPropertyOp3
 70
     0
102
RTVSPropertyOp4
 70
     0
102
RTVSPropertyOp5
 70
     0
102
RTVSPropertyOp6
 70
     0
102
RTVSPropertyOp7
 70
     0
102
RTVSPropertyOp8
 70
     0
102
RTVSPropertyOp9
 70
     0
102
RTVSPropertyOp10
 70
     0
102
RTVSPropertyOp11
 70
     0
102
RTVSPropertyOp12
 70
     0
102
RTVSPropertyOp13
 70
     0
102
RTVSPropertyOp14
 70
     2
102
RTVSPropertyOp15
 70
     0
102
RTVSPropertyOp16
 70
     0
102
RTVSPropertyOp17
 70
     0
102
RTVSPropertyOp18
 70
     0
102
RTVSPropertyOp19
 70
     0
102
RTVSPropertyOp20
 70
     0
102
RTVSPropertyOp21
 70
     0
102
RTVSPropertyOp22
 70
     0
102
RTVSPropertyOp23
 70
     0
102
RTVSPropertyOp24
 70
     0
102
RTVSPropertyOp25
 70
     0
102
RTVSPropertyOp26
 70
     0
102
RTVSPropertyOp27
 70
     0
102
RTVSPropertyOp28
 70
     0
102
RTVSPropertyOp29
 70
     0
102
RTVSPropertyOp30
 70
     0
102
RTVSPropertyOp31
 70
     0
102
RTVSPropertyOp32
 70
     0
102
RTVSPropertyOp33
 70
     0
102
RTVSPropertyOp34
 70
     0
102
RTVSPropertyOp35
 70
     0
102
RTVSPropertyOp36
 70
     0
102
RTVSPropertyOp37
 70
     0
102
RTVSPropertyOp38
 70
     0
102
RTVSPropertyOp39
 70
     0
102
RTVSPropertyOp40
 70
     0
102
RTVSPropertyOp41
 70
     0
102
RTVSPropertyOp42
 70
     0
102
RTVSPropertyOp43
 70
     0
102
RTVSPropertyOp44
 70
     0
102
RTVSPropertyOp45
 70
     0
102
RTVSPropertyOp46
 70
     0
102
RTVSPropertyOp47
 70
     0
102
RTVSPropertyOp48
 70
     0
102
RTVSPropertyOp49
 70
     0
102
RTVSPropertyOp50
 70
     0
102
RTVSPropertyOp51
 70
     0
102
RTVSPropertyOp52
 70
     0
102
RTVSPropertyOp53
 70
     0
102
RTVSPropertyOp54
 70
     0
102
RTVSPropertyOp55
 70
     0
102
RTVSPropertyOp56
 70
     0
102
RTVSPropertyOp57
 70
     0
102
RTVSPropertyOp58
 70
     0
102
RTVSPropertyOp59
 70
     0
102
RTVSPropertyOp60
 70
     0
102
RTVSPropertyOp61
 70
     0
102
RTVSPropertyOp62
 70
     0
  0
XRECORD
  5
A612
102
{ACAD_REACTORS
330
A611
102
}
330
A611
100
AcDbXrecord
280
     1
102
RTVSPost2010Prop28
280
     0
102
RTVSPost2010PropOp28
 70
     1
102
RTVSPost2010Prop29
280
     1
102
RTVSPost2010PropOp29
 70
     1
102
RTVSPost2010Prop30
280
     1
102
RTVSPost2010PropOp30
 70
     1
102
RTVSPost2010Prop31
280
     0
102
RTVSPost2010PropOp31
 70
     1
102
RTVSPost2010Prop32
280
     0
102
RTVSPost2010PropOp32
 70
     1
102
RTVSPost2010Prop33
280
     0
102
RTVSPost2010PropOp33
 70
     1
102
RTVSPost2010Prop34
280
     0
102
RTVSPost2010PropOp34
 70
     1
102
RTVSPost2010Prop35
280
     0
102
RTVSPost2010PropOp35
 70
     1
102
RTVSPost2010Prop36
280
     0
102
RTVSPost2010PropOp36
 70
     1
102
RTVSPost2010Prop37
 90
       50
102
RTVSPost2010PropOp37
 70
     1
102
RTVSPost2010Prop38
140
0.0
102
RTVSPost2010PropOp38
 70
     1
102
RTVSPost2010Prop39
140
1.0
102
RTVSPost2010PropOp39
 70
     1
102
RTVSPost2010Prop40
 90
        0
102
RTVSPost2010PropOp40
 70
     1
102
RTVSPost2010Prop41ColorIndex
 90
       18
102
RTVSPost2010Prop41ColorRGB
 90
        0
102
RTVSPost2010PropOp41
 70
     1
102
RTVSPost2010Prop42
 90
       50
102
RTVSPost2010PropOp42
 70
     1
102
RTVSPost2010Prop43
 90
        3
102
RTVSPost2010PropOp43
 70
     1
102
RTVSPost2010Prop44ColorIndex
 90
        5
102
RTVSPost2010Prop44ColorRGB
 90
      255
102
RTVSPost2010PropOp44
 70
     1
102
RTVSPost2010Prop45
280
     0
102
RTVSPost2010PropOp45
 70
     1
102
RTVSPost2010Prop46
 90
       50
102
RTVSPost2010PropOp46
 70
     1
102
RTVSPost2010Prop47
 90
       50
102
RTVSPost2010PropOp47
 70
     1
102
RTVSPost2010Prop48
 90
       50
102
RTVSPost2010PropOp48
 70
     1
102
RTVSPost2010Prop49
280
     0
102
RTVSPost2010PropOp49
 70
     1
102
RTVSPost2010Prop50
 90
       50
102
RTVSPost2010PropOp50
 70
     1
102
RTVSPost2010Prop51ColorIndex
 90
      256
102
RTVSPost2010Prop51ColorRGB
 90
-16777216
102
RTVSPost2010PropOp51
 70
     0
102
RTVSPost2010Prop52
140
1.0
102
RTVSPost2010PropOp52
 70
     0
102
RTVSPost2010Prop53
 90
        2
102
RTVSPost2010PropOp53
 70
     1
102
RTVSPost2010Prop54
  1
strokes_ogs.tif
102
RTVSPost2010PropOp54
 70
     1
102
RTVSPost2010Prop55
280
     0
102
RTVSPost2010PropOp55
 70
     1
102
RTVSPost2010Prop56
140
1.0
102
RTVSPost2010PropOp56
 70
     1
102
RTVSPost2010Prop57
140
1.0
102
RTVSPost2010PropOp57
 70
     1
102
RTVSPropertyOp0
 70
     1
102
RTVSPropertyOp1
 70
     1
102
RTVSPropertyOp2
 70
     1
102
RTVSPropertyOp3
 70
     1
102
RTVSPropertyOp4
 70
     1
102
RTVSPropertyOp5
 70
     1
102
RTVSPropertyOp6
 70
     1
102
RTVSPropertyOp7
 70
     1
102
RTVSPropertyOp8
 70
     1
102
RTVSPropertyOp9
 70
     1
102
RTVSPropertyOp10
 70
     1
102
RTVSPropertyOp11
 70
     1
102
RTVSPropertyOp12
 70
     1
102
RTVSPropertyOp13
 70
     1
102
RTVSPropertyOp14
 70
     1
102
RTVSPropertyOp15
 70
     1
102
RTVSPropertyOp16
 70
     1
102
RTVSPropertyOp17
 70
     1
102
RTVSPropertyOp18
 70
     1
102
RTVSPropertyOp19
 70
     1
102
RTVSPropertyOp20
 70
     1
102
RTVSPropertyOp21
 70
     1
102
RTVSPropertyOp22
 70
     1
102
RTVSPropertyOp23
 70
     1
102
RTVSPropertyOp24
 70
     1
102
RTVSPropertyOp25
 70
     1
102
RTVSPropertyOp26
 70
     1
102
RTVSPropertyOp27
 70
     1
102
RTVSPropertyOp28
 70
     1
102
RTVSPropertyOp29
 70
     1
102
RTVSPropertyOp30
 70
     1
102
RTVSPropertyOp31
 70
     1
102
RTVSPropertyOp32
 70
     1
102
RTVSPropertyOp33
 70
     1
102
RTVSPropertyOp34
 70
     1
102
RTVSPropertyOp35
 70
     1
102
RTVSPropertyOp36
 70
     1
102
RTVSPropertyOp37
 70
     1
102
RTVSPropertyOp38
 70
     1
102
RTVSPropertyOp39
 70
     1
102
RTVSPropertyOp40
 70
     1
102
RTVSPropertyOp41
 70
     1
102
RTVSPropertyOp42
 70
     1
102
RTVSPropertyOp43
 70
     1
102
RTVSPropertyOp44
 70
     1
102
RTVSPropertyOp45
 70
     1
102
RTVSPropertyOp46
 70
     1
102
RTVSPropertyOp47
 70
     1
102
RTVSPropertyOp48
 70
     1
102
RTVSPropertyOp49
 70
     1
102
RTVSPropertyOp50
 70
     1
102
RTVSPropertyOp51
 70
     0
102
RTVSPropertyOp52
 70
     0
102
RTVSPropertyOp53
 70
     1
102
RTVSPropertyOp54
 70
     1
102
RTVSPropertyOp55
 70
     1
102
RTVSPropertyOp56
 70
     1
102
RTVSPropertyOp57
 70
     1
102
RTVSPropertyOp58
 70
     1
102
RTVSPropertyOp59
 70
     1
102
RTVSPropertyOp60
 70
     1
102
RTVSPropertyOp61
 70
     1
102
RTVSPropertyOp62
 70
     1
  0
XRECORD
  5
A624
102
{ACAD_REACTORS
330
A623
102
}
330
A623
100
AcDbXrecord
280
     1
102
RTVSPost2010Prop28
280
     0
102
RTVSPost2010PropOp28
 70
     0
102
RTVSPost2010Prop29
280
     1
102
RTVSPost2010PropOp29
 70
     0
102
RTVSPost2010Prop30
280
     1
102
RTVSPost2010PropOp30
 70
     0
102
RTVSPost2010Prop31
280
     0
102
RTVSPost2010PropOp31
 70
     0
102
RTVSPost2010Prop32
280
     0
102
RTVSPost2010PropOp32
 70
     0
102
RTVSPost2010Prop33
280
     0
102
RTVSPost2010PropOp33
 70
     0
102
RTVSPost2010Prop34
280
     0
102
RTVSPost2010PropOp34
 70
     0
102
RTVSPost2010Prop35
280
     0
102
RTVSPost2010PropOp35
 70
     0
102
RTVSPost2010Prop36
280
     0
102
RTVSPost2010PropOp36
 70
     0
102
RTVSPost2010Prop37
 90
       50
102
RTVSPost2010PropOp37
 70
     0
102
RTVSPost2010Prop38
140
0.0
102
RTVSPost2010PropOp38
 70
     0
102
RTVSPost2010Prop39
140
1.0
102
RTVSPost2010PropOp39
 70
     0
102
RTVSPost2010Prop40
 90
        0
102
RTVSPost2010PropOp40
 70
     0
102
RTVSPost2010Prop41ColorIndex
 90
       18
102
RTVSPost2010Prop41ColorRGB
 90
        0
102
RTVSPost2010PropOp41
 70
     0
102
RTVSPost2010Prop42
 90
       50
102
RTVSPost2010PropOp42
 70
     0
102
RTVSPost2010Prop43
 90
        3
102
RTVSPost2010PropOp43
 70
     0
102
RTVSPost2010Prop44ColorIndex
 90
        5
102
RTVSPost2010Prop44ColorRGB
 90
      255
102
RTVSPost2010PropOp44
 70
     0
102
RTVSPost2010Prop45
280
     0
102
RTVSPost2010PropOp45
 70
     0
102
RTVSPost2010Prop46
 90
       50
102
RTVSPost2010PropOp46
 70
     0
102
RTVSPost2010Prop47
 90
       50
102
RTVSPost2010PropOp47
 70
     0
102
RTVSPost2010Prop48
 90
       50
102
RTVSPost2010PropOp48
 70
     0
102
RTVSPost2010Prop49
280
     0
102
RTVSPost2010PropOp49
 70
     0
102
RTVSPost2010Prop50
 90
       50
102
RTVSPost2010PropOp50
 70
     0
102
RTVSPost2010Prop51ColorIndex
 90
      256
102
RTVSPost2010Prop51ColorRGB
 90
-16777216
102
RTVSPost2010PropOp51
 70
     0
102
RTVSPost2010Prop52
140
1.0
102
RTVSPost2010PropOp52
 70
     0
102
RTVSPost2010Prop53
 90
        2
102
RTVSPost2010PropOp53
 70
     0
102
RTVSPost2010Prop54
  1
strokes_ogs.tif
102
RTVSPost2010PropOp54
 70
     0
102
RTVSPost2010Prop55
280
     0
102
RTVSPost2010PropOp55
 70
     0
102
RTVSPost2010Prop56
140
1.0
102
RTVSPost2010PropOp56
 70
     0
102
RTVSPost2010Prop57
140
1.0
102
RTVSPost2010PropOp57
 70
     0
102
RTVSPropertyOp0
 70
     0
102
RTVSPropertyOp1
 70
     0
102
RTVSPropertyOp2
 70
     0
102
RTVSPropertyOp3
 70
     0
102
RTVSPropertyOp4
 70
     0
102
RTVSPropertyOp5
 70
     0
102
RTVSPropertyOp6
 70
     0
102
RTVSPropertyOp7
 70
     0
102
RTVSPropertyOp8
 70
     0
102
RTVSPropertyOp9
 70
     0
102
RTVSPropertyOp10
 70
     0
102
RTVSPropertyOp11
 70
     0
102
RTVSPropertyOp12
 70
     0
102
RTVSPropertyOp13
 70
     0
102
RTVSPropertyOp14
 70
     2
102
RTVSPropertyOp15
 70
     0
102
RTVSPropertyOp16
 70
     0
102
RTVSPropertyOp17
 70
     0
102
RTVSPropertyOp18
 70
     0
102
RTVSPropertyOp19
 70
     0
102
RTVSPropertyOp20
 70
     0
102
RTVSPropertyOp21
 70
     0
102
RTVSPropertyOp22
 70
     0
102
RTVSPropertyOp23
 70
     0
102
RTVSPropertyOp24
 70
     0
102
RTVSPropertyOp25
 70
     0
102
RTVSPropertyOp26
 70
     0
102
RTVSPropertyOp27
 70
     0
102
RTVSPropertyOp28
 70
     0
102
RTVSPropertyOp29
 70
     0
102
RTVSPropertyOp30
 70
     0
102
RTVSPropertyOp31
 70
     0
102
RTVSPropertyOp32
 70
     0
102
RTVSPropertyOp33
 70
     0
102
RTVSPropertyOp34
 70
     0
102
RTVSPropertyOp35
 70
     0
102
RTVSPropertyOp36
 70
     0
102
RTVSPropertyOp37
 70
     0
102
RTVSPropertyOp38
 70
     0
102
RTVSPropertyOp39
 70
     0
102
RTVSPropertyOp40
 70
     0
102
RTVSPropertyOp41
 70
     0
102
RTVSPropertyOp42
 70
     0
102
RTVSPropertyOp43
 70
     0
102
RTVSPropertyOp44
 70
     0
102
RTVSPropertyOp45
 70
     0
102
RTVSPropertyOp46
 70
     0
102
RTVSPropertyOp47
 70
     0
102
RTVSPropertyOp48
 70
     0
102
RTVSPropertyOp49
 70
     0
102
RTVSPropertyOp50
 70
     0
102
RTVSPropertyOp51
 70
     0
102
RTVSPropertyOp52
 70
     0
102
RTVSPropertyOp53
 70
     0
102
RTVSPropertyOp54
 70
     0
102
RTVSPropertyOp55
 70
     0
102
RTVSPropertyOp56
 70
     0
102
RTVSPropertyOp57
 70
     0
102
RTVSPropertyOp58
 70
     0
102
RTVSPropertyOp59
 70
     0
102
RTVSPropertyOp60
 70
     0
102
RTVSPropertyOp61
 70
     0
102
RTVSPropertyOp62
 70
     0
  0
XRECORD
  5
A60A
102
{ACAD_REACTORS
330
A609
102
}
330
A609
100
AcDbXrecord
280
     1
102
RTVSPost2010Prop28
280
     0
102
RTVSPost2010PropOp28
 70
     1
102
RTVSPost2010Prop29
280
     1
102
RTVSPost2010PropOp29
 70
     1
102
RTVSPost2010Prop30
280
     1
102
RTVSPost2010PropOp30
 70
     1
102
RTVSPost2010Prop31
280
     0
102
RTVSPost2010PropOp31
 70
     1
102
RTVSPost2010Prop32
280
     0
102
RTVSPost2010PropOp32
 70
     1
102
RTVSPost2010Prop33
280
     0
102
RTVSPost2010PropOp33
 70
     1
102
RTVSPost2010Prop34
280
     0
102
RTVSPost2010PropOp34
 70
     1
102
RTVSPost2010Prop35
280
     0
102
RTVSPost2010PropOp35
 70
     1
102
RTVSPost2010Prop36
280
     0
102
RTVSPost2010PropOp36
 70
     1
102
RTVSPost2010Prop37
 90
       50
102
RTVSPost2010PropOp37
 70
     1
102
RTVSPost2010Prop38
140
0.0
102
RTVSPost2010PropOp38
 70
     1
102
RTVSPost2010Prop39
140
1.0
102
RTVSPost2010PropOp39
 70
     1
102
RTVSPost2010Prop40
 90
        0
102
RTVSPost2010PropOp40
 70
     1
102
RTVSPost2010Prop41ColorIndex
 90
       18
102
RTVSPost2010Prop41ColorRGB
 90
        0
102
RTVSPost2010PropOp41
 70
     1
102
RTVSPost2010Prop42
 90
       50
102
RTVSPost2010PropOp42
 70
     1
102
RTVSPost2010Prop43
 90
        3
102
RTVSPost2010PropOp43
 70
     1
102
RTVSPost2010Prop44ColorIndex
 90
        5
102
RTVSPost2010Prop44ColorRGB
 90
      255
102
RTVSPost2010PropOp44
 70
     1
102
RTVSPost2010Prop45
280
     0
102
RTVSPost2010PropOp45
 70
     1
102
RTVSPost2010Prop46
 90
       50
102
RTVSPost2010PropOp46
 70
     1
102
RTVSPost2010Prop47
 90
       50
102
RTVSPost2010PropOp47
 70
     1
102
RTVSPost2010Prop48
 90
       50
102
RTVSPost2010PropOp48
 70
     1
102
RTVSPost2010Prop49
280
     0
102
RTVSPost2010PropOp49
 70
     1
102
RTVSPost2010Prop50
 90
       50
102
RTVSPost2010PropOp50
 70
     1
102
RTVSPost2010Prop51ColorIndex
 90
      256
102
RTVSPost2010Prop51ColorRGB
 90
-16777216
102
RTVSPost2010PropOp51
 70
     0
102
RTVSPost2010Prop52
140
1.0
102
RTVSPost2010PropOp52
 70
     0
102
RTVSPost2010Prop53
 90
        2
102
RTVSPost2010PropOp53
 70
     1
102
RTVSPost2010Prop54
  1
strokes_ogs.tif
102
RTVSPost2010PropOp54
 70
     1
102
RTVSPost2010Prop55
280
     0
102
RTVSPost2010PropOp55
 70
     1
102
RTVSPost2010Prop56
140
1.0
102
RTVSPost2010PropOp56
 70
     1
102
RTVSPost2010Prop57
140
1.0
102
RTVSPost2010PropOp57
 70
     1
102
RTVSPropertyOp0
 70
     1
102
RTVSPropertyOp1
 70
     1
102
RTVSPropertyOp2
 70
     1
102
RTVSPropertyOp3
 70
     1
102
RTVSPropertyOp4
 70
     1
102
RTVSPropertyOp5
 70
     1
102
RTVSPropertyOp6
 70
     1
102
RTVSPropertyOp7
 70
     1
102
RTVSPropertyOp8
 70
     1
102
RTVSPropertyOp9
 70
     1
102
RTVSPropertyOp10
 70
     1
102
RTVSPropertyOp11
 70
     1
102
RTVSPropertyOp12
 70
     1
102
RTVSPropertyOp13
 70
     1
102
RTVSPropertyOp14
 70
     1
102
RTVSPropertyOp15
 70
     1
102
RTVSPropertyOp16
 70
     1
102
RTVSPropertyOp17
 70
     1
102
RTVSPropertyOp18
 70
     1
102
RTVSPropertyOp19
 70
     1
102
RTVSPropertyOp20
 70
     1
102
RTVSPropertyOp21
 70
     1
102
RTVSPropertyOp22
 70
     1
102
RTVSPropertyOp23
 70
     1
102
RTVSPropertyOp24
 70
     1
102
RTVSPropertyOp25
 70
     1
102
RTVSPropertyOp26
 70
     1
102
RTVSPropertyOp27
 70
     1
102
RTVSPropertyOp28
 70
     1
102
RTVSPropertyOp29
 70
     1
102
RTVSPropertyOp30
 70
     1
102
RTVSPropertyOp31
 70
     1
102
RTVSPropertyOp32
 70
     1
102
RTVSPropertyOp33
 70
     1
102
RTVSPropertyOp34
 70
     1
102
RTVSPropertyOp35
 70
     1
102
RTVSPropertyOp36
 70
     1
102
RTVSPropertyOp37
 70
     1
102
RTVSPropertyOp38
 70
     1
102
RTVSPropertyOp39
 70
     1
102
RTVSPropertyOp40
 70
     1
102
RTVSPropertyOp41
 70
     1
102
RTVSPropertyOp42
 70
     1
102
RTVSPropertyOp43
 70
     1
102
RTVSPropertyOp44
 70
     1
102
RTVSPropertyOp45
 70
     1
102
RTVSPropertyOp46
 70
     1
102
RTVSPropertyOp47
 70
     1
102
RTVSPropertyOp48
 70
     1
102
RTVSPropertyOp49
 70
     1
102
RTVSPropertyOp50
 70
     1
102
RTVSPropertyOp51
 70
     0
102
RTVSPropertyOp52
 70
     0
102
RTVSPropertyOp53
 70
     1
102
RTVSPropertyOp54
 70
     1
102
RTVSPropertyOp55
 70
     1
102
RTVSPropertyOp56
 70
     1
102
RTVSPropertyOp57
 70
     1
102
RTVSPropertyOp58
 70
     1
102
RTVSPropertyOp59
 70
     1
102
RTVSPropertyOp60
 70
     1
102
RTVSPropertyOp61
 70
     1
102
RTVSPropertyOp62
 70
     1
  0
XRECORD
  5
A620
102
{ACAD_REACTORS
330
A61F
102
}
330
A61F
100
AcDbXrecord
280
     1
102
RTVSPost2010Prop28
280
     0
102
RTVSPost2010PropOp28
 70
     1
102
RTVSPost2010Prop29
280
     1
102
RTVSPost2010PropOp29
 70
     1
102
RTVSPost2010Prop30
280
     1
102
RTVSPost2010PropOp30
 70
     1
102
RTVSPost2010Prop31
280
     0
102
RTVSPost2010PropOp31
 70
     1
102
RTVSPost2010Prop32
280
     0
102
RTVSPost2010PropOp32
 70
     1
102
RTVSPost2010Prop33
280
     0
102
RTVSPost2010PropOp33
 70
     1
102
RTVSPost2010Prop34
280
     0
102
RTVSPost2010PropOp34
 70
     1
102
RTVSPost2010Prop35
280
     0
102
RTVSPost2010PropOp35
 70
     1
102
RTVSPost2010Prop36
280
     0
102
RTVSPost2010PropOp36
 70
     1
102
RTVSPost2010Prop37
 90
       50
102
RTVSPost2010PropOp37
 70
     1
102
RTVSPost2010Prop38
140
0.0
102
RTVSPost2010PropOp38
 70
     1
102
RTVSPost2010Prop39
140
1.0
102
RTVSPost2010PropOp39
 70
     1
102
RTVSPost2010Prop40
 90
        0
102
RTVSPost2010PropOp40
 70
     1
102
RTVSPost2010Prop41ColorIndex
 90
       18
102
RTVSPost2010Prop41ColorRGB
 90
        0
102
RTVSPost2010PropOp41
 70
     1
102
RTVSPost2010Prop42
 90
       50
102
RTVSPost2010PropOp42
 70
     1
102
RTVSPost2010Prop43
 90
        3
102
RTVSPost2010PropOp43
 70
     1
102
RTVSPost2010Prop44ColorIndex
 90
        5
102
RTVSPost2010Prop44ColorRGB
 90
      255
102
RTVSPost2010PropOp44
 70
     1
102
RTVSPost2010Prop45
280
     0
102
RTVSPost2010PropOp45
 70
     1
102
RTVSPost2010Prop46
 90
       50
102
RTVSPost2010PropOp46
 70
     1
102
RTVSPost2010Prop47
 90
       50
102
RTVSPost2010PropOp47
 70
     1
102
RTVSPost2010Prop48
 90
       50
102
RTVSPost2010PropOp48
 70
     1
102
RTVSPost2010Prop49
280
     0
102
RTVSPost2010PropOp49
 70
     1
102
RTVSPost2010Prop50
 90
       50
102
RTVSPost2010PropOp50
 70
     1
102
RTVSPost2010Prop51ColorIndex
 90
      256
102
RTVSPost2010Prop51ColorRGB
 90
-16777216
102
RTVSPost2010PropOp51
 70
     0
102
RTVSPost2010Prop52
140
1.0
102
RTVSPost2010PropOp52
 70
     0
102
RTVSPost2010Prop53
 90
        2
102
RTVSPost2010PropOp53
 70
     1
102
RTVSPost2010Prop54
  1
strokes_ogs.tif
102
RTVSPost2010PropOp54
 70
     1
102
RTVSPost2010Prop55
280
     0
102
RTVSPost2010PropOp55
 70
     1
102
RTVSPost2010Prop56
140
1.0
102
RTVSPost2010PropOp56
 70
     1
102
RTVSPost2010Prop57
140
1.0
102
RTVSPost2010PropOp57
 70
     1
102
RTVSPropertyOp0
 70
     1
102
RTVSPropertyOp1
 70
     1
102
RTVSPropertyOp2
 70
     1
102
RTVSPropertyOp3
 70
     1
102
RTVSPropertyOp4
 70
     1
102
RTVSPropertyOp5
 70
     1
102
RTVSPropertyOp6
 70
     1
102
RTVSPropertyOp7
 70
     1
102
RTVSPropertyOp8
 70
     1
102
RTVSPropertyOp9
 70
     1
102
RTVSPropertyOp10
 70
     1
102
RTVSPropertyOp11
 70
     1
102
RTVSPropertyOp12
 70
     1
102
RTVSPropertyOp13
 70
     1
102
RTVSPropertyOp14
 70
     1
102
RTVSPropertyOp15
 70
     1
102
RTVSPropertyOp16
 70
     1
102
RTVSPropertyOp17
 70
     1
102
RTVSPropertyOp18
 70
     1
102
RTVSPropertyOp19
 70
     1
102
RTVSPropertyOp20
 70
     1
102
RTVSPropertyOp21
 70
     1
102
RTVSPropertyOp22
 70
     1
102
RTVSPropertyOp23
 70
     1
102
RTVSPropertyOp24
 70
     1
102
RTVSPropertyOp25
 70
     1
102
RTVSPropertyOp26
 70
     1
102
RTVSPropertyOp27
 70
     1
102
RTVSPropertyOp28
 70
     1
102
RTVSPropertyOp29
 70
     1
102
RTVSPropertyOp30
 70
     1
102
RTVSPropertyOp31
 70
     1
102
RTVSPropertyOp32
 70
     1
102
RTVSPropertyOp33
 70
     1
102
RTVSPropertyOp34
 70
     1
102
RTVSPropertyOp35
 70
     1
102
RTVSPropertyOp36
 70
     1
102
RTVSPropertyOp37
 70
     1
102
RTVSPropertyOp38
 70
     1
102
RTVSPropertyOp39
 70
     1
102
RTVSPropertyOp40
 70
     1
102
RTVSPropertyOp41
 70
     1
102
RTVSPropertyOp42
 70
     1
102
RTVSPropertyOp43
 70
     1
102
RTVSPropertyOp44
 70
     1
102
RTVSPropertyOp45
 70
     1
102
RTVSPropertyOp46
 70
     1
102
RTVSPropertyOp47
 70
     1
102
RTVSPropertyOp48
 70
     1
102
RTVSPropertyOp49
 70
     1
102
RTVSPropertyOp50
 70
     1
102
RTVSPropertyOp51
 70
     0
102
RTVSPropertyOp52
 70
     0
102
RTVSPropertyOp53
 70
     1
102
RTVSPropertyOp54
 70
     1
102
RTVSPropertyOp55
 70
     1
102
RTVSPropertyOp56
 70
     1
102
RTVSPropertyOp57
 70
     1
102
RTVSPropertyOp58
 70
     1
102
RTVSPropertyOp59
 70
     1
102
RTVSPropertyOp60
 70
     1
102
RTVSPropertyOp61
 70
     1
102
RTVSPropertyOp62
 70
     1
  0
XRECORD
  5
A61E
102
{ACAD_REACTORS
330
A61D
102
}
330
A61D
100
AcDbXrecord
280
     1
102
RTVSPost2010Prop28
280
     0
102
RTVSPost2010PropOp28
 70
     1
102
RTVSPost2010Prop29
280
     1
102
RTVSPost2010PropOp29
 70
     1
102
RTVSPost2010Prop30
280
     1
102
RTVSPost2010PropOp30
 70
     1
102
RTVSPost2010Prop31
280
     0
102
RTVSPost2010PropOp31
 70
     1
102
RTVSPost2010Prop32
280
     0
102
RTVSPost2010PropOp32
 70
     1
102
RTVSPost2010Prop33
280
     0
102
RTVSPost2010PropOp33
 70
     1
102
RTVSPost2010Prop34
280
     0
102
RTVSPost2010PropOp34
 70
     1
102
RTVSPost2010Prop35
280
     0
102
RTVSPost2010PropOp35
 70
     1
102
RTVSPost2010Prop36
280
     0
102
RTVSPost2010PropOp36
 70
     1
102
RTVSPost2010Prop37
 90
       50
102
RTVSPost2010PropOp37
 70
     1
102
RTVSPost2010Prop38
140
0.0
102
RTVSPost2010PropOp38
 70
     1
102
RTVSPost2010Prop39
140
1.0
102
RTVSPost2010PropOp39
 70
     1
102
RTVSPost2010Prop40
 90
        0
102
RTVSPost2010PropOp40
 70
     1
102
RTVSPost2010Prop41ColorIndex
 90
       18
102
RTVSPost2010Prop41ColorRGB
 90
        0
102
RTVSPost2010PropOp41
 70
     1
102
RTVSPost2010Prop42
 90
       50
102
RTVSPost2010PropOp42
 70
     1
102
RTVSPost2010Prop43
 90
        3
102
RTVSPost2010PropOp43
 70
     1
102
RTVSPost2010Prop44ColorIndex
 90
        5
102
RTVSPost2010Prop44ColorRGB
 90
      255
102
RTVSPost2010PropOp44
 70
     1
102
RTVSPost2010Prop45
280
     0
102
RTVSPost2010PropOp45
 70
     1
102
RTVSPost2010Prop46
 90
       50
102
RTVSPost2010PropOp46
 70
     1
102
RTVSPost2010Prop47
 90
       50
102
RTVSPost2010PropOp47
 70
     1
102
RTVSPost2010Prop48
 90
       50
102
RTVSPost2010PropOp48
 70
     1
102
RTVSPost2010Prop49
280
     0
102
RTVSPost2010PropOp49
 70
     1
102
RTVSPost2010Prop50
 90
       50
102
RTVSPost2010PropOp50
 70
     1
102
RTVSPost2010Prop51ColorIndex
 90
      256
102
RTVSPost2010Prop51ColorRGB
 90
-16777216
102
RTVSPost2010PropOp51
 70
     0
102
RTVSPost2010Prop52
140
1.0
102
RTVSPost2010PropOp52
 70
     0
102
RTVSPost2010Prop53
 90
        2
102
RTVSPost2010PropOp53
 70
     1
102
RTVSPost2010Prop54
  1
strokes_ogs.tif
102
RTVSPost2010PropOp54
 70
     1
102
RTVSPost2010Prop55
280
     0
102
RTVSPost2010PropOp55
 70
     1
102
RTVSPost2010Prop56
140
1.0
102
RTVSPost2010PropOp56
 70
     1
102
RTVSPost2010Prop57
140
1.0
102
RTVSPost2010PropOp57
 70
     1
102
RTVSPropertyOp0
 70
     1
102
RTVSPropertyOp1
 70
     1
102
RTVSPropertyOp2
 70
     1
102
RTVSPropertyOp3
 70
     1
102
RTVSPropertyOp4
 70
     1
102
RTVSPropertyOp5
 70
     1
102
RTVSPropertyOp6
 70
     1
102
RTVSPropertyOp7
 70
     1
102
RTVSPropertyOp8
 70
     1
102
RTVSPropertyOp9
 70
     1
102
RTVSPropertyOp10
 70
     1
102
RTVSPropertyOp11
 70
     1
102
RTVSPropertyOp12
 70
     1
102
RTVSPropertyOp13
 70
     1
102
RTVSPropertyOp14
 70
     1
102
RTVSPropertyOp15
 70
     1
102
RTVSPropertyOp16
 70
     1
102
RTVSPropertyOp17
 70
     1
102
RTVSPropertyOp18
 70
     1
102
RTVSPropertyOp19
 70
     1
102
RTVSPropertyOp20
 70
     1
102
RTVSPropertyOp21
 70
     1
102
RTVSPropertyOp22
 70
     1
102
RTVSPropertyOp23
 70
     1
102
RTVSPropertyOp24
 70
     1
102
RTVSPropertyOp25
 70
     1
102
RTVSPropertyOp26
 70
     1
102
RTVSPropertyOp27
 70
     1
102
RTVSPropertyOp28
 70
     1
102
RTVSPropertyOp29
 70
     1
102
RTVSPropertyOp30
 70
     1
102
RTVSPropertyOp31
 70
     1
102
RTVSPropertyOp32
 70
     1
102
RTVSPropertyOp33
 70
     1
102
RTVSPropertyOp34
 70
     1
102
RTVSPropertyOp35
 70
     1
102
RTVSPropertyOp36
 70
     1
102
RTVSPropertyOp37
 70
     1
102
RTVSPropertyOp38
 70
     1
102
RTVSPropertyOp39
 70
     1
102
RTVSPropertyOp40
 70
     1
102
RTVSPropertyOp41
 70
     1
102
RTVSPropertyOp42
 70
     1
102
RTVSPropertyOp43
 70
     1
102
RTVSPropertyOp44
 70
     1
102
RTVSPropertyOp45
 70
     1
102
RTVSPropertyOp46
 70
     1
102
RTVSPropertyOp47
 70
     1
102
RTVSPropertyOp48
 70
     1
102
RTVSPropertyOp49
 70
     1
102
RTVSPropertyOp50
 70
     1
102
RTVSPropertyOp51
 70
     0
102
RTVSPropertyOp52
 70
     0
102
RTVSPropertyOp53
 70
     1
102
RTVSPropertyOp54
 70
     1
102
RTVSPropertyOp55
 70
     1
102
RTVSPropertyOp56
 70
     1
102
RTVSPropertyOp57
 70
     1
102
RTVSPropertyOp58
 70
     1
102
RTVSPropertyOp59
 70
     1
102
RTVSPropertyOp60
 70
     1
102
RTVSPropertyOp61
 70
     1
102
RTVSPropertyOp62
 70
     1
  0
XRECORD
  5
A618
102
{ACAD_REACTORS
330
A617
102
}
330
A617
100
AcDbXrecord
280
     1
102
RTVSPost2010Prop28
280
     0
102
RTVSPost2010PropOp28
 70
     1
102
RTVSPost2010Prop29
280
     1
102
RTVSPost2010PropOp29
 70
     1
102
RTVSPost2010Prop30
280
     1
102
RTVSPost2010PropOp30
 70
     1
102
RTVSPost2010Prop31
280
     0
102
RTVSPost2010PropOp31
 70
     1
102
RTVSPost2010Prop32
280
     0
102
RTVSPost2010PropOp32
 70
     1
102
RTVSPost2010Prop33
280
     0
102
RTVSPost2010PropOp33
 70
     1
102
RTVSPost2010Prop34
280
     0
102
RTVSPost2010PropOp34
 70
     1
102
RTVSPost2010Prop35
280
     0
102
RTVSPost2010PropOp35
 70
     1
102
RTVSPost2010Prop36
280
     0
102
RTVSPost2010PropOp36
 70
     1
102
RTVSPost2010Prop37
 90
       50
102
RTVSPost2010PropOp37
 70
     1
102
RTVSPost2010Prop38
140
0.0
102
RTVSPost2010PropOp38
 70
     1
102
RTVSPost2010Prop39
140
1.0
102
RTVSPost2010PropOp39
 70
     1
102
RTVSPost2010Prop40
 90
        0
102
RTVSPost2010PropOp40
 70
     1
102
RTVSPost2010Prop41ColorIndex
 90
       18
102
RTVSPost2010Prop41ColorRGB
 90
        0
102
RTVSPost2010PropOp41
 70
     1
102
RTVSPost2010Prop42
 90
       50
102
RTVSPost2010PropOp42
 70
     1
102
RTVSPost2010Prop43
 90
        3
102
RTVSPost2010PropOp43
 70
     1
102
RTVSPost2010Prop44ColorIndex
 90
        5
102
RTVSPost2010Prop44ColorRGB
 90
      255
102
RTVSPost2010PropOp44
 70
     1
102
RTVSPost2010Prop45
280
     0
102
RTVSPost2010PropOp45
 70
     1
102
RTVSPost2010Prop46
 90
       50
102
RTVSPost2010PropOp46
 70
     1
102
RTVSPost2010Prop47
 90
       50
102
RTVSPost2010PropOp47
 70
     1
102
RTVSPost2010Prop48
 90
       50
102
RTVSPost2010PropOp48
 70
     1
102
RTVSPost2010Prop49
280
     0
102
RTVSPost2010PropOp49
 70
     1
102
RTVSPost2010Prop50
 90
       50
102
RTVSPost2010PropOp50
 70
     1
102
RTVSPost2010Prop51ColorIndex
 90
      256
102
RTVSPost2010Prop51ColorRGB
 90
-16777216
102
RTVSPost2010PropOp51
 70
     0
102
RTVSPost2010Prop52
140
1.0
102
RTVSPost2010PropOp52
 70
     0
102
RTVSPost2010Prop53
 90
        2
102
RTVSPost2010PropOp53
 70
     1
102
RTVSPost2010Prop54
  1
strokes_ogs.tif
102
RTVSPost2010PropOp54
 70
     1
102
RTVSPost2010Prop55
280
     0
102
RTVSPost2010PropOp55
 70
     1
102
RTVSPost2010Prop56
140
1.0
102
RTVSPost2010PropOp56
 70
     1
102
RTVSPost2010Prop57
140
1.0
102
RTVSPost2010PropOp57
 70
     1
102
RTVSPropertyOp0
 70
     1
102
RTVSPropertyOp1
 70
     1
102
RTVSPropertyOp2
 70
     1
102
RTVSPropertyOp3
 70
     1
102
RTVSPropertyOp4
 70
     1
102
RTVSPropertyOp5
 70
     1
102
RTVSPropertyOp6
 70
     1
102
RTVSPropertyOp7
 70
     1
102
RTVSPropertyOp8
 70
     1
102
RTVSPropertyOp9
 70
     1
102
RTVSPropertyOp10
 70
     1
102
RTVSPropertyOp11
 70
     1
102
RTVSPropertyOp12
 70
     1
102
RTVSPropertyOp13
 70
     1
102
RTVSPropertyOp14
 70
     1
102
RTVSPropertyOp15
 70
     1
102
RTVSPropertyOp16
 70
     1
102
RTVSPropertyOp17
 70
     1
102
RTVSPropertyOp18
 70
     1
102
RTVSPropertyOp19
 70
     1
102
RTVSPropertyOp20
 70
     1
102
RTVSPropertyOp21
 70
     1
102
RTVSPropertyOp22
 70
     1
102
RTVSPropertyOp23
 70
     1
102
RTVSPropertyOp24
 70
     1
102
RTVSPropertyOp25
 70
     1
102
RTVSPropertyOp26
 70
     1
102
RTVSPropertyOp27
 70
     1
102
RTVSPropertyOp28
 70
     1
102
RTVSPropertyOp29
 70
     1
102
RTVSPropertyOp30
 70
     1
102
RTVSPropertyOp31
 70
     1
102
RTVSPropertyOp32
 70
     1
102
RTVSPropertyOp33
 70
     1
102
RTVSPropertyOp34
 70
     1
102
RTVSPropertyOp35
 70
     1
102
RTVSPropertyOp36
 70
     1
102
RTVSPropertyOp37
 70
     1
102
RTVSPropertyOp38
 70
     1
102
RTVSPropertyOp39
 70
     1
102
RTVSPropertyOp40
 70
     1
102
RTVSPropertyOp41
 70
     1
102
RTVSPropertyOp42
 70
     1
102
RTVSPropertyOp43
 70
     1
102
RTVSPropertyOp44
 70
     1
102
RTVSPropertyOp45
 70
     1
102
RTVSPropertyOp46
 70
     1
102
RTVSPropertyOp47
 70
     1
102
RTVSPropertyOp48
 70
     1
102
RTVSPropertyOp49
 70
     1
102
RTVSPropertyOp50
 70
     1
102
RTVSPropertyOp51
 70
     0
102
RTVSPropertyOp52
 70
     0
102
RTVSPropertyOp53
 70
     1
102
RTVSPropertyOp54
 70
     1
102
RTVSPropertyOp55
 70
     1
102
RTVSPropertyOp56
 70
     1
102
RTVSPropertyOp57
 70
     1
102
RTVSPropertyOp58
 70
     1
102
RTVSPropertyOp59
 70
     1
102
RTVSPropertyOp60
 70
     1
102
RTVSPropertyOp61
 70
     1
102
RTVSPropertyOp62
 70
     1
  0
XRECORD
  5
A61A
102
{ACAD_REACTORS
330
A619
102
}
330
A619
100
AcDbXrecord
280
     1
102
RTVSPost2010Prop28
280
     0
102
RTVSPost2010PropOp28
 70
     1
102
RTVSPost2010Prop29
280
     1
102
RTVSPost2010PropOp29
 70
     1
102
RTVSPost2010Prop30
280
     1
102
RTVSPost2010PropOp30
 70
     1
102
RTVSPost2010Prop31
280
     0
102
RTVSPost2010PropOp31
 70
     1
102
RTVSPost2010Prop32
280
     0
102
RTVSPost2010PropOp32
 70
     1
102
RTVSPost2010Prop33
280
     0
102
RTVSPost2010PropOp33
 70
     1
102
RTVSPost2010Prop34
280
     0
102
RTVSPost2010PropOp34
 70
     1
102
RTVSPost2010Prop35
280
     0
102
RTVSPost2010PropOp35
 70
     1
102
RTVSPost2010Prop36
280
     0
102
RTVSPost2010PropOp36
 70
     1
102
RTVSPost2010Prop37
 90
       50
102
RTVSPost2010PropOp37
 70
     1
102
RTVSPost2010Prop38
140
0.0
102
RTVSPost2010PropOp38
 70
     1
102
RTVSPost2010Prop39
140
1.0
102
RTVSPost2010PropOp39
 70
     1
102
RTVSPost2010Prop40
 90
        0
102
RTVSPost2010PropOp40
 70
     1
102
RTVSPost2010Prop41ColorIndex
 90
       18
102
RTVSPost2010Prop41ColorRGB
 90
        0
102
RTVSPost2010PropOp41
 70
     1
102
RTVSPost2010Prop42
 90
       50
102
RTVSPost2010PropOp42
 70
     1
102
RTVSPost2010Prop43
 90
        3
102
RTVSPost2010PropOp43
 70
     1
102
RTVSPost2010Prop44ColorIndex
 90
        5
102
RTVSPost2010Prop44ColorRGB
 90
      255
102
RTVSPost2010PropOp44
 70
     1
102
RTVSPost2010Prop45
280
     0
102
RTVSPost2010PropOp45
 70
     1
102
RTVSPost2010Prop46
 90
       50
102
RTVSPost2010PropOp46
 70
     1
102
RTVSPost2010Prop47
 90
       50
102
RTVSPost2010PropOp47
 70
     1
102
RTVSPost2010Prop48
 90
       50
102
RTVSPost2010PropOp48
 70
     1
102
RTVSPost2010Prop49
280
     0
102
RTVSPost2010PropOp49
 70
     1
102
RTVSPost2010Prop50
 90
       50
102
RTVSPost2010PropOp50
 70
     1
102
RTVSPost2010Prop51ColorIndex
 90
      256
102
RTVSPost2010Prop51ColorRGB
 90
-16777216
102
RTVSPost2010PropOp51
 70
     0
102
RTVSPost2010Prop52
140
1.0
102
RTVSPost2010PropOp52
 70
     0
102
RTVSPost2010Prop53
 90
        2
102
RTVSPost2010PropOp53
 70
     1
102
RTVSPost2010Prop54
  1
strokes_ogs.tif
102
RTVSPost2010PropOp54
 70
     1
102
RTVSPost2010Prop55
280
     0
102
RTVSPost2010PropOp55
 70
     1
102
RTVSPost2010Prop56
140
1.0
102
RTVSPost2010PropOp56
 70
     1
102
RTVSPost2010Prop57
140
1.0
102
RTVSPost2010PropOp57
 70
     1
102
RTVSPropertyOp0
 70
     1
102
RTVSPropertyOp1
 70
     1
102
RTVSPropertyOp2
 70
     1
102
RTVSPropertyOp3
 70
     1
102
RTVSPropertyOp4
 70
     1
102
RTVSPropertyOp5
 70
     1
102
RTVSPropertyOp6
 70
     1
102
RTVSPropertyOp7
 70
     1
102
RTVSPropertyOp8
 70
     1
102
RTVSPropertyOp9
 70
     1
102
RTVSPropertyOp10
 70
     1
102
RTVSPropertyOp11
 70
     1
102
RTVSPropertyOp12
 70
     1
102
RTVSPropertyOp13
 70
     1
102
RTVSPropertyOp14
 70
     1
102
RTVSPropertyOp15
 70
     1
102
RTVSPropertyOp16
 70
     1
102
RTVSPropertyOp17
 70
     1
102
RTVSPropertyOp18
 70
     1
102
RTVSPropertyOp19
 70
     1
102
RTVSPropertyOp20
 70
     1
102
RTVSPropertyOp21
 70
     1
102
RTVSPropertyOp22
 70
     1
102
RTVSPropertyOp23
 70
     1
102
RTVSPropertyOp24
 70
     1
102
RTVSPropertyOp25
 70
     1
102
RTVSPropertyOp26
 70
     1
102
RTVSPropertyOp27
 70
     1
102
RTVSPropertyOp28
 70
     1
102
RTVSPropertyOp29
 70
     1
102
RTVSPropertyOp30
 70
     1
102
RTVSPropertyOp31
 70
     1
102
RTVSPropertyOp32
 70
     1
102
RTVSPropertyOp33
 70
     1
102
RTVSPropertyOp34
 70
     1
102
RTVSPropertyOp35
 70
     1
102
RTVSPropertyOp36
 70
     1
102
RTVSPropertyOp37
 70
     1
102
RTVSPropertyOp38
 70
     1
102
RTVSPropertyOp39
 70
     1
102
RTVSPropertyOp40
 70
     1
102
RTVSPropertyOp41
 70
     1
102
RTVSPropertyOp42
 70
     1
102
RTVSPropertyOp43
 70
     1
102
RTVSPropertyOp44
 70
     1
102
RTVSPropertyOp45
 70
     1
102
RTVSPropertyOp46
 70
     1
102
RTVSPropertyOp47
 70
     1
102
RTVSPropertyOp48
 70
     1
102
RTVSPropertyOp49
 70
     1
102
RTVSPropertyOp50
 70
     1
102
RTVSPropertyOp51
 70
     0
102
RTVSPropertyOp52
 70
     0
102
RTVSPropertyOp53
 70
     1
102
RTVSPropertyOp54
 70
     1
102
RTVSPropertyOp55
 70
     1
102
RTVSPropertyOp56
 70
     1
102
RTVSPropertyOp57
 70
     1
102
RTVSPropertyOp58
 70
     1
102
RTVSPropertyOp59
 70
     1
102
RTVSPropertyOp60
 70
     1
102
RTVSPropertyOp61
 70
     1
102
RTVSPropertyOp62
 70
     1
  0
XRECORD
  5
A610
102
{ACAD_REACTORS
330
A60F
102
}
330
A60F
100
AcDbXrecord
280
     1
102
RTVSPost2010Prop28
280
     0
102
RTVSPost2010PropOp28
 70
     1
102
RTVSPost2010Prop29
280
     1
102
RTVSPost2010PropOp29
 70
     1
102
RTVSPost2010Prop30
280
     1
102
RTVSPost2010PropOp30
 70
     1
102
RTVSPost2010Prop31
280
     0
102
RTVSPost2010PropOp31
 70
     1
102
RTVSPost2010Prop32
280
     0
102
RTVSPost2010PropOp32
 70
     1
102
RTVSPost2010Prop33
280
     0
102
RTVSPost2010PropOp33
 70
     1
102
RTVSPost2010Prop34
280
     0
102
RTVSPost2010PropOp34
 70
     1
102
RTVSPost2010Prop35
280
     0
102
RTVSPost2010PropOp35
 70
     1
102
RTVSPost2010Prop36
280
     0
102
RTVSPost2010PropOp36
 70
     1
102
RTVSPost2010Prop37
 90
       50
102
RTVSPost2010PropOp37
 70
     1
102
RTVSPost2010Prop38
140
0.0
102
RTVSPost2010PropOp38
 70
     1
102
RTVSPost2010Prop39
140
1.0
102
RTVSPost2010PropOp39
 70
     1
102
RTVSPost2010Prop40
 90
        0
102
RTVSPost2010PropOp40
 70
     1
102
RTVSPost2010Prop41ColorIndex
 90
       18
102
RTVSPost2010Prop41ColorRGB
 90
        0
102
RTVSPost2010PropOp41
 70
     1
102
RTVSPost2010Prop42
 90
       50
102
RTVSPost2010PropOp42
 70
     1
102
RTVSPost2010Prop43
 90
        3
102
RTVSPost2010PropOp43
 70
     1
102
RTVSPost2010Prop44ColorIndex
 90
        5
102
RTVSPost2010Prop44ColorRGB
 90
      255
102
RTVSPost2010PropOp44
 70
     1
102
RTVSPost2010Prop45
280
     0
102
RTVSPost2010PropOp45
 70
     1
102
RTVSPost2010Prop46
 90
       50
102
RTVSPost2010PropOp46
 70
     1
102
RTVSPost2010Prop47
 90
       50
102
RTVSPost2010PropOp47
 70
     1
102
RTVSPost2010Prop48
 90
       50
102
RTVSPost2010PropOp48
 70
     1
102
RTVSPost2010Prop49
280
     0
102
RTVSPost2010PropOp49
 70
     1
102
RTVSPost2010Prop50
 90
       50
102
RTVSPost2010PropOp50
 70
     1
102
RTVSPost2010Prop51ColorIndex
 90
      256
102
RTVSPost2010Prop51ColorRGB
 90
-16777216
102
RTVSPost2010PropOp51
 70
     0
102
RTVSPost2010Prop52
140
1.0
102
RTVSPost2010PropOp52
 70
     0
102
RTVSPost2010Prop53
 90
        2
102
RTVSPost2010PropOp53
 70
     1
102
RTVSPost2010Prop54
  1
strokes_ogs.tif
102
RTVSPost2010PropOp54
 70
     1
102
RTVSPost2010Prop55
280
     0
102
RTVSPost2010PropOp55
 70
     1
102
RTVSPost2010Prop56
140
1.0
102
RTVSPost2010PropOp56
 70
     1
102
RTVSPost2010Prop57
140
1.0
102
RTVSPost2010PropOp57
 70
     1
102
RTVSPropertyOp0
 70
     1
102
RTVSPropertyOp1
 70
     1
102
RTVSPropertyOp2
 70
     1
102
RTVSPropertyOp3
 70
     1
102
RTVSPropertyOp4
 70
     1
102
RTVSPropertyOp5
 70
     1
102
RTVSPropertyOp6
 70
     1
102
RTVSPropertyOp7
 70
     1
102
RTVSPropertyOp8
 70
     1
102
RTVSPropertyOp9
 70
     1
102
RTVSPropertyOp10
 70
     1
102
RTVSPropertyOp11
 70
     1
102
RTVSPropertyOp12
 70
     1
102
RTVSPropertyOp13
 70
     1
102
RTVSPropertyOp14
 70
     1
102
RTVSPropertyOp15
 70
     1
102
RTVSPropertyOp16
 70
     1
102
RTVSPropertyOp17
 70
     1
102
RTVSPropertyOp18
 70
     1
102
RTVSPropertyOp19
 70
     1
102
RTVSPropertyOp20
 70
     1
102
RTVSPropertyOp21
 70
     1
102
RTVSPropertyOp22
 70
     1
102
RTVSPropertyOp23
 70
     1
102
RTVSPropertyOp24
 70
     1
102
RTVSPropertyOp25
 70
     1
102
RTVSPropertyOp26
 70
     1
102
RTVSPropertyOp27
 70
     1
102
RTVSPropertyOp28
 70
     1
102
RTVSPropertyOp29
 70
     1
102
RTVSPropertyOp30
 70
     1
102
RTVSPropertyOp31
 70
     1
102
RTVSPropertyOp32
 70
     1
102
RTVSPropertyOp33
 70
     1
102
RTVSPropertyOp34
 70
     1
102
RTVSPropertyOp35
 70
     1
102
RTVSPropertyOp36
 70
     1
102
RTVSPropertyOp37
 70
     1
102
RTVSPropertyOp38
 70
     1
102
RTVSPropertyOp39
 70
     1
102
RTVSPropertyOp40
 70
     1
102
RTVSPropertyOp41
 70
     1
102
RTVSPropertyOp42
 70
     1
102
RTVSPropertyOp43
 70
     1
102
RTVSPropertyOp44
 70
     1
102
RTVSPropertyOp45
 70
     1
102
RTVSPropertyOp46
 70
     1
102
RTVSPropertyOp47
 70
     1
102
RTVSPropertyOp48
 70
     1
102
RTVSPropertyOp49
 70
     1
102
RTVSPropertyOp50
 70
     1
102
RTVSPropertyOp51
 70
     0
102
RTVSPropertyOp52
 70
     0
102
RTVSPropertyOp53
 70
     1
102
RTVSPropertyOp54
 70
     1
102
RTVSPropertyOp55
 70
     1
102
RTVSPropertyOp56
 70
     1
102
RTVSPropertyOp57
 70
     1
102
RTVSPropertyOp58
 70
     1
102
RTVSPropertyOp59
 70
     1
102
RTVSPropertyOp60
 70
     1
102
RTVSPropertyOp61
 70
     1
102
RTVSPropertyOp62
 70
     1
  0
XRECORD
  5
A604
102
{ACAD_REACTORS
330
A603
102
}
330
A603
100
AcDbXrecord
280
     1
102
RTVSPost2010Prop28
280
     0
102
RTVSPost2010PropOp28
 70
     1
102
RTVSPost2010Prop29
280
     1
102
RTVSPost2010PropOp29
 70
     1
102
RTVSPost2010Prop30
280
     1
102
RTVSPost2010PropOp30
 70
     1
102
RTVSPost2010Prop31
280
     0
102
RTVSPost2010PropOp31
 70
     1
102
RTVSPost2010Prop32
280
     0
102
RTVSPost2010PropOp32
 70
     1
102
RTVSPost2010Prop33
280
     0
102
RTVSPost2010PropOp33
 70
     1
102
RTVSPost2010Prop34
280
     0
102
RTVSPost2010PropOp34
 70
     1
102
RTVSPost2010Prop35
280
     0
102
RTVSPost2010PropOp35
 70
     1
102
RTVSPost2010Prop36
280
     0
102
RTVSPost2010PropOp36
 70
     1
102
RTVSPost2010Prop37
 90
       50
102
RTVSPost2010PropOp37
 70
     1
102
RTVSPost2010Prop38
140
0.0
102
RTVSPost2010PropOp38
 70
     1
102
RTVSPost2010Prop39
140
1.0
102
RTVSPost2010PropOp39
 70
     1
102
RTVSPost2010Prop40
 90
        0
102
RTVSPost2010PropOp40
 70
     1
102
RTVSPost2010Prop41ColorIndex
 90
       18
102
RTVSPost2010Prop41ColorRGB
 90
        0
102
RTVSPost2010PropOp41
 70
     1
102
RTVSPost2010Prop42
 90
       50
102
RTVSPost2010PropOp42
 70
     1
102
RTVSPost2010Prop43
 90
        3
102
RTVSPost2010PropOp43
 70
     1
102
RTVSPost2010Prop44ColorIndex
 90
        5
102
RTVSPost2010Prop44ColorRGB
 90
      255
102
RTVSPost2010PropOp44
 70
     1
102
RTVSPost2010Prop45
280
     0
102
RTVSPost2010PropOp45
 70
     1
102
RTVSPost2010Prop46
 90
       50
102
RTVSPost2010PropOp46
 70
     1
102
RTVSPost2010Prop47
 90
       50
102
RTVSPost2010PropOp47
 70
     1
102
RTVSPost2010Prop48
 90
       50
102
RTVSPost2010PropOp48
 70
     1
102
RTVSPost2010Prop49
280
     0
102
RTVSPost2010PropOp49
 70
     1
102
RTVSPost2010Prop50
 90
       50
102
RTVSPost2010PropOp50
 70
     1
102
RTVSPost2010Prop51ColorIndex
 90
      256
102
RTVSPost2010Prop51ColorRGB
 90
-16777216
102
RTVSPost2010PropOp51
 70
     0
102
RTVSPost2010Prop52
140
1.0
102
RTVSPost2010PropOp52
 70
     0
102
RTVSPost2010Prop53
 90
        2
102
RTVSPost2010PropOp53
 70
     1
102
RTVSPost2010Prop54
  1
strokes_ogs.tif
102
RTVSPost2010PropOp54
 70
     1
102
RTVSPost2010Prop55
280
     0
102
RTVSPost2010PropOp55
 70
     1
102
RTVSPost2010Prop56
140
1.0
102
RTVSPost2010PropOp56
 70
     1
102
RTVSPost2010Prop57
140
1.0
102
RTVSPost2010PropOp57
 70
     1
102
RTVSPropertyOp0
 70
     1
102
RTVSPropertyOp1
 70
     1
102
RTVSPropertyOp2
 70
     1
102
RTVSPropertyOp3
 70
     1
102
RTVSPropertyOp4
 70
     1
102
RTVSPropertyOp5
 70
     1
102
RTVSPropertyOp6
 70
     1
102
RTVSPropertyOp7
 70
     1
102
RTVSPropertyOp8
 70
     1
102
RTVSPropertyOp9
 70
     1
102
RTVSPropertyOp10
 70
     1
102
RTVSPropertyOp11
 70
     1
102
RTVSPropertyOp12
 70
     1
102
RTVSPropertyOp13
 70
     1
102
RTVSPropertyOp14
 70
     1
102
RTVSPropertyOp15
 70
     1
102
RTVSPropertyOp16
 70
     1
102
RTVSPropertyOp17
 70
     1
102
RTVSPropertyOp18
 70
     1
102
RTVSPropertyOp19
 70
     1
102
RTVSPropertyOp20
 70
     1
102
RTVSPropertyOp21
 70
     1
102
RTVSPropertyOp22
 70
     1
102
RTVSPropertyOp23
 70
     1
102
RTVSPropertyOp24
 70
     1
102
RTVSPropertyOp25
 70
     1
102
RTVSPropertyOp26
 70
     1
102
RTVSPropertyOp27
 70
     1
102
RTVSPropertyOp28
 70
     1
102
RTVSPropertyOp29
 70
     1
102
RTVSPropertyOp30
 70
     1
102
RTVSPropertyOp31
 70
     1
102
RTVSPropertyOp32
 70
     1
102
RTVSPropertyOp33
 70
     1
102
RTVSPropertyOp34
 70
     1
102
RTVSPropertyOp35
 70
     1
102
RTVSPropertyOp36
 70
     1
102
RTVSPropertyOp37
 70
     1
102
RTVSPropertyOp38
 70
     1
102
RTVSPropertyOp39
 70
     1
102
RTVSPropertyOp40
 70
     1
102
RTVSPropertyOp41
 70
     1
102
RTVSPropertyOp42
 70
     1
102
RTVSPropertyOp43
 70
     1
102
RTVSPropertyOp44
 70
     1
102
RTVSPropertyOp45
 70
     1
102
RTVSPropertyOp46
 70
     1
102
RTVSPropertyOp47
 70
     1
102
RTVSPropertyOp48
 70
     1
102
RTVSPropertyOp49
 70
     1
102
RTVSPropertyOp50
 70
     1
102
RTVSPropertyOp51
 70
     0
102
RTVSPropertyOp52
 70
     0
102
RTVSPropertyOp53
 70
     1
102
RTVSPropertyOp54
 70
     1
102
RTVSPropertyOp55
 70
     1
102
RTVSPropertyOp56
 70
     1
102
RTVSPropertyOp57
 70
     1
102
RTVSPropertyOp58
 70
     1
102
RTVSPropertyOp59
 70
     1
102
RTVSPropertyOp60
 70
     1
102
RTVSPropertyOp61
 70
     1
102
RTVSPropertyOp62
 70
     1
  0
XRECORD
  5
A61C
102
{ACAD_REACTORS
330
A61B
102
}
330
A61B
100
AcDbXrecord
280
     1
102
RTVSPost2010Prop28
280
     0
102
RTVSPost2010PropOp28
 70
     1
102
RTVSPost2010Prop29
280
     1
102
RTVSPost2010PropOp29
 70
     1
102
RTVSPost2010Prop30
280
     1
102
RTVSPost2010PropOp30
 70
     1
102
RTVSPost2010Prop31
280
     0
102
RTVSPost2010PropOp31
 70
     1
102
RTVSPost2010Prop32
280
     0
102
RTVSPost2010PropOp32
 70
     1
102
RTVSPost2010Prop33
280
     0
102
RTVSPost2010PropOp33
 70
     1
102
RTVSPost2010Prop34
280
     0
102
RTVSPost2010PropOp34
 70
     1
102
RTVSPost2010Prop35
280
     0
102
RTVSPost2010PropOp35
 70
     1
102
RTVSPost2010Prop36
280
     0
102
RTVSPost2010PropOp36
 70
     1
102
RTVSPost2010Prop37
 90
       50
102
RTVSPost2010PropOp37
 70
     1
102
RTVSPost2010Prop38
140
0.0
102
RTVSPost2010PropOp38
 70
     1
102
RTVSPost2010Prop39
140
1.0
102
RTVSPost2010PropOp39
 70
     1
102
RTVSPost2010Prop40
 90
        0
102
RTVSPost2010PropOp40
 70
     1
102
RTVSPost2010Prop41ColorIndex
 90
       18
102
RTVSPost2010Prop41ColorRGB
 90
        0
102
RTVSPost2010PropOp41
 70
     1
102
RTVSPost2010Prop42
 90
       50
102
RTVSPost2010PropOp42
 70
     1
102
RTVSPost2010Prop43
 90
        3
102
RTVSPost2010PropOp43
 70
     1
102
RTVSPost2010Prop44ColorIndex
 90
        5
102
RTVSPost2010Prop44ColorRGB
 90
      255
102
RTVSPost2010PropOp44
 70
     1
102
RTVSPost2010Prop45
280
     0
102
RTVSPost2010PropOp45
 70
     1
102
RTVSPost2010Prop46
 90
       50
102
RTVSPost2010PropOp46
 70
     1
102
RTVSPost2010Prop47
 90
       50
102
RTVSPost2010PropOp47
 70
     1
102
RTVSPost2010Prop48
 90
       50
102
RTVSPost2010PropOp48
 70
     1
102
RTVSPost2010Prop49
280
     0
102
RTVSPost2010PropOp49
 70
     1
102
RTVSPost2010Prop50
 90
       50
102
RTVSPost2010PropOp50
 70
     1
102
RTVSPost2010Prop51ColorIndex
 90
      256
102
RTVSPost2010Prop51ColorRGB
 90
-16777216
102
RTVSPost2010PropOp51
 70
     0
102
RTVSPost2010Prop52
140
1.0
102
RTVSPost2010PropOp52
 70
     0
102
RTVSPost2010Prop53
 90
        2
102
RTVSPost2010PropOp53
 70
     1
102
RTVSPost2010Prop54
  1
strokes_ogs.tif
102
RTVSPost2010PropOp54
 70
     1
102
RTVSPost2010Prop55
280
     0
102
RTVSPost2010PropOp55
 70
     1
102
RTVSPost2010Prop56
140
1.0
102
RTVSPost2010PropOp56
 70
     1
102
RTVSPost2010Prop57
140
1.0
102
RTVSPost2010PropOp57
 70
     1
102
RTVSPropertyOp0
 70
     1
102
RTVSPropertyOp1
 70
     1
102
RTVSPropertyOp2
 70
     1
102
RTVSPropertyOp3
 70
     1
102
RTVSPropertyOp4
 70
     1
102
RTVSPropertyOp5
 70
     1
102
RTVSPropertyOp6
 70
     1
102
RTVSPropertyOp7
 70
     1
102
RTVSPropertyOp8
 70
     1
102
RTVSPropertyOp9
 70
     1
102
RTVSPropertyOp10
 70
     1
102
RTVSPropertyOp11
 70
     1
102
RTVSPropertyOp12
 70
     1
102
RTVSPropertyOp13
 70
     1
102
RTVSPropertyOp14
 70
     1
102
RTVSPropertyOp15
 70
     1
102
RTVSPropertyOp16
 70
     1
102
RTVSPropertyOp17
 70
     1
102
RTVSPropertyOp18
 70
     1
102
RTVSPropertyOp19
 70
     1
102
RTVSPropertyOp20
 70
     1
102
RTVSPropertyOp21
 70
     1
102
RTVSPropertyOp22
 70
     1
102
RTVSPropertyOp23
 70
     1
102
RTVSPropertyOp24
 70
     1
102
RTVSPropertyOp25
 70
     1
102
RTVSPropertyOp26
 70
     1
102
RTVSPropertyOp27
 70
     1
102
RTVSPropertyOp28
 70
     1
102
RTVSPropertyOp29
 70
     1
102
RTVSPropertyOp30
 70
     1
102
RTVSPropertyOp31
 70
     1
102
RTVSPropertyOp32
 70
     1
102
RTVSPropertyOp33
 70
     1
102
RTVSPropertyOp34
 70
     1
102
RTVSPropertyOp35
 70
     1
102
RTVSPropertyOp36
 70
     1
102
RTVSPropertyOp37
 70
     1
102
RTVSPropertyOp38
 70
     1
102
RTVSPropertyOp39
 70
     1
102
RTVSPropertyOp40
 70
     1
102
RTVSPropertyOp41
 70
     1
102
RTVSPropertyOp42
 70
     1
102
RTVSPropertyOp43
 70
     1
102
RTVSPropertyOp44
 70
     1
102
RTVSPropertyOp45
 70
     1
102
RTVSPropertyOp46
 70
     1
102
RTVSPropertyOp47
 70
     1
102
RTVSPropertyOp48
 70
     1
102
RTVSPropertyOp49
 70
     1
102
RTVSPropertyOp50
 70
     1
102
RTVSPropertyOp51
 70
     0
102
RTVSPropertyOp52
 70
     0
102
RTVSPropertyOp53
 70
     1
102
RTVSPropertyOp54
 70
     1
102
RTVSPropertyOp55
 70
     1
102
RTVSPropertyOp56
 70
     1
102
RTVSPropertyOp57
 70
     1
102
RTVSPropertyOp58
 70
     1
102
RTVSPropertyOp59
 70
     1
102
RTVSPropertyOp60
 70
     1
102
RTVSPropertyOp61
 70
     1
102
RTVSPropertyOp62
 70
     1
  0
ENDSEC
  0
EOF
