  0
SECTION
  2
HEADER
  9
$ACADVER
  1
AC1015
  9
$ACADMAINTVER
 70
    20
  9
$DWGCODEPAGE
  3
ANSI_1252
  9
$INSBASE
 10
0.0
 20
0.0
 30
0.0
  9
$EXTMIN
 10
1299.217768933427
 20
-806.5952382327449
 30
0.0
  9
$EXTMAX
 10
1705.134983320684
 20
-289.8970897818431
 30
0.0
  9
$LIMMIN
 10
0.0
 20
0.0
  9
$LIMMAX
 10
297.0
 20
210.0
  9
$ORTHOMODE
 70
     0
  9
$REGENMODE
 70
     1
  9
$FILLMODE
 70
     1
  9
$QTEXTMODE
 70
     0
  9
$MIRRTEXT
 70
     1
  9
$LTSCALE
 40
3.0
  9
$ATTMODE
 70
     1
  9
$TEXTSIZE
 40
3.5
  9
$TRACEWID
 40
1.0
  9
$TEXTSTYLE
  7
STANDARD
  9
$CLAYER
  8
FERRO
  9
$CELTYPE
  6
BYLAYER
  9
$CECOLOR
 62
   256
  9
$CELTSCALE
 40
1.0
  9
$DISPSILH
 70
     0
  9
$DIMSCALE
 40
2.0
  9
$DIMASZ
 40
1.0
  9
$DIMEXO
 40
1.5
  9
$DIMDLI
 40
10.0
  9
$DIMRND
 40
0.0
  9
$DIMDLE
 40
0.0
  9
$DIMEXE
 40
0.0
  9
$DIMTP
 40
0.0
  9
$DIMTM
 40
0.0
  9
$DIMTXT
 40
2.5
  9
$DIMCEN
 40
2.0
  9
$DIMTSZ
 40
0.0
  9
$DIMTOL
 70
     0
  9
$DIMLIM
 70
     0
  9
$DIMTIH
 70
     0
  9
$DIMTOH
 70
     0
  9
$DIMSE1
 70
     0
  9
$DIMSE2
 70
     0
  9
$DIMTAD
 70
     1
  9
$DIMZIN
 70
     8
  9
$DIMBLK
  1
Oblique
  9
$DIMASO
 70
     1
  9
$DIMSHO
 70
     1
  9
$DIMPOST
  1

  9
$DIMAPOST
  1

  9
$DIMALT
 70
     0
  9
$DIMALTD
 70
     4
  9
$DIMALTF
 40
0.0394
  9
$DIMLFAC
 40
1.0
  9
$DIMTOFL
 70
     1
  9
$DIMTVP
 40
0.0
  9
$DIMTIX
 70
     0
  9
$DIMSOXD
 70
     0
  9
$DIMSAH
 70
     0
  9
$DIMBLK1
  1

  9
$DIMBLK2
  1

  9
$DIMSTYLE
  2
STANDARD_WS
  9
$DIMCLRD
 70
   256
  9
$DIMCLRE
 70
   256
  9
$DIMCLRT
 70
   256
  9
$DIMTFAC
 40
1.0
  9
$DIMGAP
 40
1.0
  9
$DIMJUST
 70
     0
  9
$DIMSD1
 70
     0
  9
$DIMSD2
 70
     0
  9
$DIMTOLJ
 70
     1
  9
$DIMTZIN
 70
     0
  9
$DIMALTZ
 70
     0
  9
$DIMALTTZ
 70
     0
  9
$DIMUPT
 70
     0
  9
$DIMDEC
 70
     4
  9
$DIMTDEC
 70
     4
  9
$DIMALTU
 70
     8
  9
$DIMALTTD
 70
     4
  9
$DIMTXSTY
  7
STANDARD
  9
$DIMAUNIT
 70
     0
  9
$DIMADEC
 70
     0
  9
$DIMALTRND
 40
0.0
  9
$DIMAZIN
 70
     0
  9
$DIMDSEP
 70
    46
  9
$DIMATFIT
 70
     3
  9
$DIMFRAC
 70
     0
  9
$DIMLDRBLK
  1
Oblique
  9
$DIMLUNIT
 70
     2
  9
$DIMLWD
 70
    -2
  9
$DIMLWE
 70
    -2
  9
$DIMTMOVE
 70
     0
  9
$LUNITS
 70
     2
  9
$LUPREC
 70
     4
  9
$SKETCHINC
 40
1.0
  9
$FILLETRAD
 40
7.07070707070707
  9
$AUNITS
 70
     0
  9
$AUPREC
 70
     0
  9
$MENU
  1
acad
  9
$ELEVATION
 40
0.0
  9
$PELEVATION
 40
0.0
  9
$THICKNESS
 40
0.0
  9
$LIMCHECK
 70
     0
  9
$CHAMFERA
 40
7.07070707070707
  9
$CHAMFERB
 40
7.07070707070707
  9
$CHAMFERC
 40
14.14141414141414
  9
$CHAMFERD
 40
0.0
  9
$SKPOLY
 70
     0
  9
$TDCREATE
 40
2451513.764827315
  9
$TDUCREATE
 40
2451513.723160648
  9
$TDUPDATE
 40
2457730.483726123
  9
$TDUUPDATE
 40
2457730.442059456
  9
$TDINDWG
 40
0.2300839583
  9
$TDUSRTIMER
 40
0.2300839583
  9
$USRTIMER
 70
     1
  9
$ANGBASE
 50
0.0
  9
$ANGDIR
 70
     0
  9
$PDMODE
 70
     0
  9
$PDSIZE
 40
0.0
  9
$PLINEWID
 40
0.0
  9
$SPLFRAME
 70
     0
  9
$SPLINETYPE
 70
     6
  9
$SPLINESEGS
 70
     8
  9
$HANDSEED
  5
AB0D
  9
$SURFTAB1
 70
     6
  9
$SURFTAB2
 70
     6
  9
$SURFTYPE
 70
     6
  9
$SURFU
 70
     6
  9
$SURFV
 70
     6
  9
$UCSBASE
  2

  9
$UCSNAME
  2

  9
$UCSORG
 10
0.0
 20
0.0
 30
0.0
  9
$UCSXDIR
 10
1.0
 20
0.0
 30
0.0
  9
$UCSYDIR
 10
0.0
 20
1.0
 30
0.0
  9
$UCSORTHOREF
  2

  9
$UCSORTHOVIEW
 70
     0
  9
$UCSORGTOP
 10
0.0
 20
0.0
 30
0.0
  9
$UCSORGBOTTOM
 10
0.0
 20
0.0
 30
0.0
  9
$UCSORGLEFT
 10
0.0
 20
0.0
 30
0.0
  9
$UCSORGRIGHT
 10
0.0
 20
0.0
 30
0.0
  9
$UCSORGFRONT
 10
0.0
 20
0.0
 30
0.0
  9
$UCSORGBACK
 10
0.0
 20
0.0
 30
0.0
  9
$PUCSBASE
  2

  9
$PUCSNAME
  2

  9
$PUCSORG
 10
0.0
 20
0.0
 30
0.0
  9
$PUCSXDIR
 10
1.0
 20
0.0
 30
0.0
  9
$PUCSYDIR
 10
0.0
 20
1.0
 30
0.0
  9
$PUCSORTHOREF
  2

  9
$PUCSORTHOVIEW
 70
     0
  9
$PUCSORGTOP
 10
0.0
 20
0.0
 30
0.0
  9
$PUCSORGBOTTOM
 10
0.0
 20
0.0
 30
0.0
  9
$PUCSORGLEFT
 10
0.0
 20
0.0
 30
0.0
  9
$PUCSORGRIGHT
 10
0.0
 20
0.0
 30
0.0
  9
$PUCSORGFRONT
 10
0.0
 20
0.0
 30
0.0
  9
$PUCSORGBACK
 10
0.0
 20
0.0
 30
0.0
  9
$USERI1
 70
     0
  9
$USERI2
 70
     0
  9
$USERI3
 70
     0
  9
$USERI4
 70
     0
  9
$USERI5
 70
     0
  9
$USERR1
 40
0.0
  9
$USERR2
 40
0.0
  9
$USERR3
 40
0.0
  9
$USERR4
 40
0.0
  9
$USERR5
 40
0.0
  9
$WORLDVIEW
 70
     1
  9
$SHADEDGE
 70
     3
  9
$SHADEDIF
 70
    70
  9
$TILEMODE
 70
     1
  9
$MAXACTVP
 70
    48
  9
$PINSBASE
 10
0.0
 20
0.0
 30
0.0
  9
$PLIMCHECK
 70
     0
  9
$PEXTMIN
 10
0.0
 20
0.0
 30
0.0
  9
$PEXTMAX
 10
11.0
 20
8.5
 30
0.0
  9
$PLIMMIN
 10
0.0
 20
0.0
  9
$PLIMMAX
 10
11.0
 20
8.5
  9
$UNITMODE
 70
     0
  9
$VISRETAIN
 70
     1
  9
$PLINEGEN
 70
     0
  9
$PSLTSCALE
 70
     1
  9
$TREEDEPTH
 70
  3020
  9
$CMLSTYLE
  2
STANDARD
  9
$CMLJUST
 70
     0
  9
$CMLSCALE
 40
20.0
  9
$PROXYGRAPHICS
 70
     1
  9
$MEASUREMENT
 70
     1
  9
$CELWEIGHT
370
    -1
  9
$ENDCAPS
280
     0
  9
$JOINSTYLE
280
     0
  9
$LWDISPLAY
290
     0
  9
$INSUNITS
 70
     0
  9
$HYPERLINKBASE
  1

  9
$STYLESHEET
  1
aclt.ctb
  9
$XEDIT
290
     1
  9
$CEPSNTYPE
380
     0
  9
$PSTYLEMODE
290
     1
  9
$FINGERPRINTGUID
  2
{245EECF2-B48F-11D3-AE0D-0050BF001A35}
  9
$VERSIONGUID
  2
{0BF7FDBB-2994-4932-AF30-112E15EC053A}
  9
$EXTNAMES
290
     1
  9
$PSVPSCALE
 40
0.0
  9
$OLESTARTUP
290
     0
  0
ENDSEC
  0
SECTION
  2
CLASSES
  0
CLASS
  1
DICTIONARYVAR
  2
AcDbDictionaryVar
  3
ObjectDBX Classes
 90
        0
280
     0
281
     0
  0
CLASS
  1
ACDBDICTIONARYWDFLT
  2
AcDbDictionaryWithDefault
  3
ObjectDBX Classes
 90
        0
280
     0
281
     0
  0
CLASS
  1
ACDBPLACEHOLDER
  2
AcDbPlaceHolder
  3
ObjectDBX Classes
 90
        0
280
     0
281
     0
  0
CLASS
  1
LAYOUT
  2
AcDbLayout
  3
ObjectDBX Classes
 90
        0
280
     0
281
     0
  0
CLASS
  1
MATERIAL
  2
AcDbMaterial
  3
ObjectDBX Classes
 90
     1153
280
     0
281
     0
  0
CLASS
  1
VISUALSTYLE
  2
AcDbVisualStyle
  3
ObjectDBX Classes
 90
     4095
280
     0
281
     0
  0
CLASS
  1
TABLESTYLE
  2
AcDbTableStyle
  3
ObjectDBX Classes
 90
     4095
280
     0
281
     0
  0
CLASS
  1
SCALE
  2
AcDbScale
  3
ObjectDBX Classes
 90
     1153
280
     0
281
     0
  0
CLASS
  1
MLEADERSTYLE
  2
AcDbMLeaderStyle
  3
ACDB_MLEADERSTYLE_CLASS
 90
     4095
280
     0
281
     0
  0
CLASS
  1
ACDBSECTIONVIEWSTYLE
  2
AcDbSectionViewStyle
  3
ObjectDBX Classes
 90
     1025
280
     0
281
     0
  0
CLASS
  1
ACDBDETAILVIEWSTYLE
  2
AcDbDetailViewStyle
  3
ObjectDBX Classes
 90
     1025
280
     0
281
     0
  0
CLASS
  1
CELLSTYLEMAP
  2
AcDbCellStyleMap
  3
ObjectDBX Classes
 90
     1152
280
     0
281
     0
  0
ENDSEC
  0
SECTION
  2
TABLES
  0
TABLE
  2
VPORT
  5
8
330
0
100
AcDbSymbolTable
 70
     1
  0
VPORT
  5
AA58
330
8
100
AcDbSymbolTableRecord
100
AcDbViewportTableRecord
  2
*Active
 70
     0
 10
0.0
 20
0.0
 11
1.0
 21
1.0
 12
1984.155469451786
 22
-572.1348422864771
 13
0.0
 23
0.0
 14
10.0
 24
10.0
 15
10.0
 25
10.0
 16
0.0
 26
0.0
 36
1.0
 17
0.0
 27
0.0
 37
0.0
 40
842.640301787312
 41
2.085280373831775
 42
50.0
 43
0.0
 44
0.0
 50
0.0
 51
0.0
 71
     0
 72
   100
 73
     1
 74
     1
 75
     0
 76
     0
 77
     0
 78
     0
281
     0
 65
     1
110
0.0
120
0.0
130
0.0
111
1.0
121
0.0
131
0.0
112
0.0
122
1.0
132
0.0
 79
     0
146
0.0
1001
ACAD_NAV_VCDISPLAY
1070
     3
  0
ENDTAB
  0
TABLE
  2
LTYPE
  5
5
330
0
100
AcDbSymbolTable
 70
     4
  0
LTYPE
  5
12
330
5
100
AcDbSymbolTableRecord
100
AcDbLinetypeTableRecord
  2
BYBLOCK
 70
     0
  3

 72
    65
 73
     0
 40
0.0
  0
LTYPE
  5
13
330
5
100
AcDbSymbolTableRecord
100
AcDbLinetypeTableRecord
  2
BYLAYER
 70
     0
  3

 72
    65
 73
     0
 40
0.0
  0
LTYPE
  5
14
330
5
100
AcDbSymbolTableRecord
100
AcDbLinetypeTableRecord
  2
CONTINUOUS
 70
     0
  3
Solid line
 72
    65
 73
     0
 40
0.0
  0
LTYPE
  5
40
330
5
100
AcDbSymbolTableRecord
100
AcDbLinetypeTableRecord
  2
TRATTEGGIATA2
 70
     0
  3
tratteggiata (.5x) _ _ _ _ _ _ _ _ _ _ _ _ _ _ 
 72
    65
 73
     2
 40
9.524999999999998
 49
6.349999999999999
 74
     0
 49
-3.174999999999999
 74
     0
  0
LTYPE
  5
41
330
5
100
AcDbSymbolTableRecord
100
AcDbLinetypeTableRecord
  2
TRATTO-PUNTO2
 70
     0
  3
tratto-punto (.5x) _._._._._._._._._._._._._._.
 72
    65
 73
     4
 40
12.7
 49
6.349999999999999
 74
     0
 49
-3.174999999999999
 74
     0
 49
0.0
 74
     0
 49
-3.174999999999999
 74
     0
  0
LTYPE
  5
2DB7
330
5
100
AcDbSymbolTableRecord
100
AcDbLinetypeTableRecord
  2
ACAD_ISO10W100
 70
     0
  3
tratto punto ISO __ . __ . __ . __ . __ . __ . 
 72
    65
 73
     4
 40
18.5
 49
12.0
 74
     0
 49
-3.0
 74
     0
 49
0.5
 74
     0
 49
-3.0
 74
     0
  0
ENDTAB
  0
TABLE
  2
LAYER
  5
2
330
0
100
AcDbSymbolTable
 70
    10
  0
LAYER
  5
E
102
{ACAD_XDICTIONARY
360
AAAF
102
}
330
2
100
AcDbSymbolTableRecord
100
AcDbLayerTableRecord
  2
0
 70
     0
 62
     7
  6
CONTINUOUS
370
    -3
390
A1BC
  0
LAYER
  5
33
102
{ACAD_XDICTIONARY
360
AAB1
102
}
330
2
100
AcDbSymbolTableRecord
100
AcDbLayerTableRecord
  2
QUOTE
 70
     0
 62
    12
  6
TRATTEGGIATA2
370
    -3
390
A1BC
  0
LAYER
  5
42
102
{ACAD_XDICTIONARY
360
AAB3
102
}
330
2
100
AcDbSymbolTableRecord
100
AcDbLayerTableRecord
  2
ASSI
 70
     0
 62
     5
  6
TRATTO-PUNTO2
370
    -3
390
A1BC
  0
LAYER
  5
43
102
{ACAD_XDICTIONARY
360
AAB5
102
}
330
2
100
AcDbSymbolTableRecord
100
AcDbLayerTableRecord
  2
FERRO
 70
     0
 62
   250
  6
CONTINUOUS
370
    -3
390
A1BC
  0
LAYER
  5
59
102
{ACAD_XDICTIONARY
360
AAB7
102
}
330
2
100
AcDbSymbolTableRecord
100
AcDbLayerTableRecord
  2
AREA
 70
     1
 62
   166
  6
CONTINUOUS
370
    -3
390
A1BC
  0
LAYER
  5
138
330
2
100
AcDbSymbolTableRecord
100
AcDbLayerTableRecord
  2
DEFPOINTS
 70
     0
 62
     7
  6
CONTINUOUS
290
     0
370
    -3
390
A1BC
  0
LAYER
  5
5AF
102
{ACAD_XDICTIONARY
360
AAB9
102
}
330
2
100
AcDbSymbolTableRecord
100
AcDbLayerTableRecord
  2
TABELLA
 70
     0
 62
     7
  6
CONTINUOUS
370
    -3
390
A1BC
  0
LAYER
  5
185F
102
{ACAD_XDICTIONARY
360
AABB
102
}
330
2
100
AcDbSymbolTableRecord
100
AcDbLayerTableRecord
  2
ALLUMINIO
 70
     0
 62
     3
  6
CONTINUOUS
370
    -3
390
A1BC
  0
LAYER
  5
2DBD
102
{ACAD_XDICTIONARY
360
AABD
102
}
330
2
100
AcDbSymbolTableRecord
100
AcDbLayerTableRecord
  2
CONTORNO
 70
     0
 62
     7
  6
CONTINUOUS
370
    -3
390
A1BC
  0
LAYER
  5
2DBE
102
{ACAD_XDICTIONARY
360
AABF
102
}
330
2
100
AcDbSymbolTableRecord
100
AcDbLayerTableRecord
  2
AREA166
 70
     0
 62
   166
  6
CONTINUOUS
370
    -3
390
A1BC
  0
ENDTAB
  0
TABLE
  2
STYLE
  5
3
330
0
100
AcDbSymbolTable
 70
     3
  0
STYLE
  5
F
330
3
100
AcDbSymbolTableRecord
100
AcDbTextStyleTableRecord
  2
STANDARD
 70
     0
 40
0.0
 41
1.0
 50
0.0
 71
     0
 42
3.5
  3
txt
  4

  0
STYLE
  5
394
330
3
100
AcDbSymbolTableRecord
100
AcDbTextStyleTableRecord
  2
ROMANS
 70
     0
 40
2.5
 41
0.5
 50
0.0
 71
     0
 42
2.5
  3
romans
  4

  0
STYLE
  5
395
330
3
100
AcDbSymbolTableRecord
100
AcDbTextStyleTableRecord
  2
ROMAND
 70
     0
 40
3.0
 41
0.5
 50
0.0
 71
     0
 42
3.0
  3
romand
  4

  0
ENDTAB
  0
TABLE
  2
VIEW
  5
6
330
0
100
AcDbSymbolTable
 70
     0
  0
ENDTAB
  0
TABLE
  2
UCS
  5
7
330
0
100
AcDbSymbolTable
 70
     0
  0
ENDTAB
  0
TABLE
  2
APPID
  5
9
330
0
100
AcDbSymbolTable
 70
     7
  0
APPID
  5
10
330
9
100
AcDbSymbolTableRecord
100
AcDbRegAppTableRecord
  2
ACAD
 70
     0
  0
APPID
  5
24
330
9
100
AcDbSymbolTableRecord
100
AcDbRegAppTableRecord
  2
CONTENTTABDATA
 70
     0
  0
APPID
  5
25
330
9
100
AcDbSymbolTableRecord
100
AcDbRegAppTableRecord
  2
CONTENTCURRENTTAB
 70
     0
  0
APPID
  5
2DBF
330
9
100
AcDbSymbolTableRecord
100
AcDbRegAppTableRecord
  2
CONTENTBLOCKDESCRIPTION
 70
     0
  0
APPID
  5
2DC0
330
9
100
AcDbSymbolTableRecord
100
AcDbRegAppTableRecord
  2
CONTENTBLOCKICON
 70
     0
  0
APPID
  5
AAC9
330
9
100
AcDbSymbolTableRecord
100
AcDbRegAppTableRecord
  2
ACAD_NAV_VCDISPLAY
 70
     0
  0
APPID
  5
AB0A
330
9
100
AcDbSymbolTableRecord
100
AcDbRegAppTableRecord
  2
ACAD_MLEADERVER
 70
     0
  0
ENDTAB
  0
TABLE
  2
DIMSTYLE
  5
A
330
0
100
AcDbSymbolTable
 70
     2
100
AcDbDimStyleTable
 71
     1
340
38
  0
DIMSTYLE
105
1D
330
A
100
AcDbSymbolTableRecord
100
AcDbDimStyleTableRecord
  2
STANDARD
 70
     0
340
F
  0
DIMSTYLE
105
38
102
{ACAD_REACTORS
330
A1B7
330
A0DD
330
A19F
330
A140
330
A0CF
330
A10E
330
A15B
102
}
330
A
100
AcDbSymbolTableRecord
100
AcDbDimStyleTableRecord
  2
STANDARD_WS
 70
     0
 40
0.7070707070707071
 41
2.5
 42
0.625
 43
3.75
 44
1.25
 73
     0
 74
     0
 77
     1
 78
     8
140
2.5
141
2.5
143
0.0394
147
0.625
171
     4
172
     1
273
     8
274
     4
340
F
  0
ENDTAB
  0
TABLE
  2
BLOCK_RECORD
  5
1
330
0
100
AcDbSymbolTable
 70
     9
  0
BLOCK_RECORD
  5
18
330
1
100
AcDbSymbolTableRecord
100
AcDbBlockTableRecord
  2
*MODEL_SPACE
340
A1BF
  0
BLOCK_RECORD
  5
15
330
1
100
AcDbSymbolTableRecord
100
AcDbBlockTableRecord
  2
*PAPER_SPACE
340
A1C0
  0
BLOCK_RECORD
  5
370
330
1
100
AcDbSymbolTableRecord
100
AcDbBlockTableRecord
  2
WMF3
340
0
102
{BLKREFS
331
58A
331
CB4
331
D59
331
46E9
331
655B
331
670C
331
8AB0
331
8B44
331
8C16
331
8DD8
331
8F1B
331
8F1E
331
8F20
331
9079
331
907C
331
907E
331
9E04
331
9E06
331
9E08
331
9E9C
331
9FF9
331
9FFB
331
9FFD
331
A091
102
}
  0
BLOCK_RECORD
  5
373
330
1
100
AcDbSymbolTableRecord
100
AcDbBlockTableRecord
  2
WMF4
340
0
102
{BLKREFS
331
58B
331
CB5
331
D5A
331
46EA
331
655C
331
670D
331
8AB1
331
8B45
331
8C17
331
8DD9
331
8F1C
331
8F1F
331
8F21
331
907A
331
907D
331
907F
331
9E05
331
9E07
331
9E09
331
9E9D
331
9FFA
331
9FFC
331
9FFE
331
A092
102
}
  0
BLOCK_RECORD
  5
9F5C
330
1
100
AcDbSymbolTableRecord
100
AcDbBlockTableRecord
  2
*X2
340
0
  0
BLOCK_RECORD
  5
A0D1
330
1
100
AcDbSymbolTableRecord
100
AcDbBlockTableRecord
  2
*D3
340
0
  0
BLOCK_RECORD
  5
A101
330
1
100
AcDbSymbolTableRecord
100
AcDbBlockTableRecord
  2
*D4
340
0
  0
BLOCK_RECORD
  5
A132
330
1
100
AcDbSymbolTableRecord
100
AcDbBlockTableRecord
  2
*D5
340
0
  0
BLOCK_RECORD
  5
A14E
330
1
100
AcDbSymbolTableRecord
100
AcDbBlockTableRecord
  2
*D6
340
0
  0
BLOCK_RECORD
  5
A193
330
1
100
AcDbSymbolTableRecord
100
AcDbBlockTableRecord
  2
*D7
340
0
  0
BLOCK_RECORD
  5
A1E5
330
1
100
AcDbSymbolTableRecord
100
AcDbBlockTableRecord
  2
_Oblique
340
0
102
{BLKREFS
331
A571
331
A572
331
A5A8
331
A5A9
331
AA34
331
AA35
331
A540
331
A541
331
A565
331
A566
102
}
  0
ENDTAB
  0
ENDSEC
  0
SECTION
  2
BLOCKS
  0
BLOCK
  5
19
330
18
100
AcDbEntity
  8
0
100
AcDbBlockBegin
  2
*MODEL_SPACE
 70
     0
 10
0.0
 20
0.0
 30
0.0
  3
*MODEL_SPACE
  1

  0
ENDBLK
  5
1A
330
18
100
AcDbEntity
  8
0
100
AcDbBlockEnd
  0
BLOCK
  5
16
330
15
100
AcDbEntity
 67
     1
  8
0
100
AcDbBlockBegin
  2
*PAPER_SPACE
 70
     0
 10
0.0
 20
0.0
 30
0.0
  3
*PAPER_SPACE
  1

  0
ENDBLK
  5
17
330
15
100
AcDbEntity
 67
     1
  8
0
100
AcDbBlockEnd
  0
BLOCK
  5
371
330
370
100
AcDbEntity
  8
0
100
AcDbBlockBegin
  2
WMF3
 70
     0
 10
297.0543972648738
 20
-297.0543972648738
 30
0.0
  3
WMF3
  1

  0
ENDBLK
  5
372
330
370
100
AcDbEntity
  8
0
100
AcDbBlockEnd
  0
BLOCK
  5
374
330
373
100
AcDbEntity
  8
0
100
AcDbBlockBegin
  2
WMF4
 70
     0
 10
297.0543972648738
 20
-297.0543972648738
 30
0.0
  3
WMF4
  1

  0
ENDBLK
  5
375
330
373
100
AcDbEntity
  8
0
100
AcDbBlockEnd
  0
BLOCK
  5
9F6A
330
9F5C
100
AcDbEntity
  8
0
100
AcDbBlockBegin
  2
*X2
 70
     1
 10
0.0
 20
0.0
 30
0.0
  3
*X2
  1

  0
LINE
  5
9F5D
330
9F5C
100
AcDbEntity
  8
0
 62
     0
100
AcDbLine
 10
50.3651548004718
 20
80.0
 30
0.0
 11
53.0
 21
82.6348451995282
 31
0.0
  0
LINE
  5
9F5E
330
9F5C
100
AcDbEntity
  8
0
 62
     0
100
AcDbLine
 10
50.0
 20
80.08385800558166
 30
0.0
 11
52.91614199441834
 21
83.0
 31
0.0
  0
LINE
  5
9F5F
330
9F5C
100
AcDbEntity
  8
0
 62
     0
100
AcDbLine
 10
50.0
 20
80.53287081163512
 30
0.0
 11
52.46712918836488
 21
83.0
 31
0.0
  0
LINE
  5
9F60
330
9F5C
100
AcDbEntity
  8
0
 62
     0
100
AcDbLine
 10
50.0
 20
80.98188361768858
 30
0.0
 11
52.01811638231142
 21
83.0
 31
0.0
  0
LINE
  5
9F61
330
9F5C
100
AcDbEntity
  8
0
 62
     0
100
AcDbLine
 10
50.0
 20
81.43089642374203
 30
0.0
 11
51.56910357625797
 21
83.0
 31
0.0
  0
LINE
  5
9F62
330
9F5C
100
AcDbEntity
  8
0
 62
     0
100
AcDbLine
 10
50.0
 20
81.87990922979549
 30
0.0
 11
51.12009077020451
 21
83.0
 31
0.0
  0
LINE
  5
9F63
330
9F5C
100
AcDbEntity
  8
0
 62
     0
100
AcDbLine
 10
50.0
 20
82.32892203584894
 30
0.0
 11
50.67107796415105
 21
83.0
 31
0.0
  0
LINE
  5
9F64
330
9F5C
100
AcDbEntity
  8
0
 62
     0
100
AcDbLine
 10
50.0
 20
82.7779348419024
 30
0.0
 11
50.22206515809759
 21
83.0
 31
0.0
  0
LINE
  5
9F65
330
9F5C
100
AcDbEntity
  8
0
 62
     0
100
AcDbLine
 10
50.81416760652525
 20
80.0
 30
0.0
 11
53.0
 21
82.18583239347474
 31
0.0
  0
LINE
  5
9F66
330
9F5C
100
AcDbEntity
  8
0
 62
     0
100
AcDbLine
 10
51.26318041257871
 20
80.0
 30
0.0
 11
53.0
 21
81.73681958742129
 31
0.0
  0
LINE
  5
9F67
330
9F5C
100
AcDbEntity
  8
0
 62
     0
100
AcDbLine
 10
51.71219321863217
 20
80.0
 30
0.0
 11
53.0
 21
81.28780678136783
 31
0.0
  0
LINE
  5
9F68
330
9F5C
100
AcDbEntity
  8
0
 62
     0
100
AcDbLine
 10
52.16120602468563
 20
80.0
 30
0.0
 11
53.0
 21
80.83879397531438
 31
0.0
  0
LINE
  5
9F69
330
9F5C
100
AcDbEntity
  8
0
 62
     0
100
AcDbLine
 10
52.61021883073908
 20
80.0
 30
0.0
 11
53.0
 21
80.38978116926092
 31
0.0
  0
ENDBLK
  5
9F6B
330
9F5C
100
AcDbEntity
  8
0
100
AcDbBlockEnd
  0
BLOCK
  5
A0DE
330
A0D1
100
AcDbEntity
  8
0
100
AcDbBlockBegin
  2
*D3
 70
     1
 10
0.0
 20
0.0
 30
0.0
  3
*D3
  1

  0
LINE
  5
AA31
330
A0D1
100
AcDbEntity
  8
QUOTE
370
    -2
100
AcDbLine
 10
1499.773235054835
 20
-680.1966092653299
 30
0.0
 11
1499.773235054835
 21
-711.3264950955617
 31
0.0
  0
LINE
  5
AA32
330
A0D1
100
AcDbEntity
  8
QUOTE
370
    -2
100
AcDbLine
 10
1551.773235054835
 20
-680.1966092653299
 30
0.0
 11
1551.773235054835
 21
-711.3264950955617
 31
0.0
  0
LINE
  5
AA33
330
A0D1
100
AcDbEntity
  8
QUOTE
370
    -2
100
AcDbLine
 10
1499.773235054835
 20
-711.3264950955617
 30
0.0
 11
1551.773235054835
 21
-711.3264950955617
 31
0.0
  0
INSERT
  5
AA34
330
A0D1
100
AcDbEntity
  8
QUOTE
370
    -2
100
AcDbBlockReference
  2
_Oblique
 10
1499.773235054835
 20
-711.3264950955617
 30
0.0
 41
2.0
 42
2.0
 43
2.0
 50
180.0
  0
INSERT
  5
AA35
330
A0D1
100
AcDbEntity
  8
QUOTE
370
    -2
100
AcDbBlockReference
  2
_Oblique
 10
1551.773235054835
 20
-711.3264950955617
 30
0.0
 41
2.0
 42
2.0
 43
2.0
  0
MTEXT
  5
AA36
330
A0D1
100
AcDbEntity
  8
QUOTE
100
AcDbMText
 10
1525.773235054835
 20
-706.8264950955617
 30
0.0
 40
5.0
 41
0.0
 71
     5
 72
     1
  1
\A1;52
 73
     1
 44
1.0
1001
ACAD
1000
MTEXTBEGIN
1070
    73
1070
     1
1070
    44
1040
1.0
1070
    74
1070
     0
1000
MTEXTEND
  0
POINT
  5
AA37
330
A0D1
100
AcDbEntity
  8
DEFPOINTS
 62
     0
100
AcDbPoint
 10
1499.773235054835
 20
-677.1966092653299
 30
0.0
  0
POINT
  5
AA38
330
A0D1
100
AcDbEntity
  8
DEFPOINTS
 62
     0
100
AcDbPoint
 10
1551.773235054835
 20
-677.1966092653299
 30
0.0
  0
POINT
  5
AA39
330
A0D1
100
AcDbEntity
  8
DEFPOINTS
 62
     0
100
AcDbPoint
 10
1551.773235054835
 20
-711.3264950955617
 30
0.0
  0
ENDBLK
  5
A0E8
330
A0D1
100
AcDbEntity
  8
0
100
AcDbBlockEnd
  0
BLOCK
  5
A10F
330
A101
100
AcDbEntity
  8
0
100
AcDbBlockBegin
  2
*D4
 70
     1
 10
0.0
 20
0.0
 30
0.0
  3
*D4
  1

  0
LINE
  5
A53D
330
A101
100
AcDbEntity
  8
QUOTE
370
    -2
100
AcDbLine
 10
1480.81587071375
 20
-512.2938434373337
 30
0.0
 11
1490.136544169076
 21
-512.2938434373337
 31
0.0
  0
LINE
  5
A53E
330
A101
100
AcDbEntity
  8
QUOTE
370
    -2
100
AcDbLine
 10
1486.804242806773
 20
-476.3636108791943
 30
0.0
 11
1490.136544169076
 21
-476.3636108791943
 31
0.0
  0
LINE
  5
A53F
330
A101
100
AcDbEntity
  8
QUOTE
370
    -2
100
AcDbLine
 10
1490.136544169076
 20
-512.2938434373337
 30
0.0
 11
1490.136544169076
 21
-476.3636108791943
 31
0.0
  0
INSERT
  5
A540
330
A101
100
AcDbEntity
  8
QUOTE
370
    -2
100
AcDbBlockReference
  2
_Oblique
 10
1490.136544169076
 20
-512.2938434373337
 30
0.0
 41
2.0
 42
2.0
 43
2.0
 50
270.0
  0
INSERT
  5
A541
330
A101
100
AcDbEntity
  8
QUOTE
370
    -2
100
AcDbBlockReference
  2
_Oblique
 10
1490.136544169076
 20
-476.3636108791943
 30
0.0
 41
2.0
 42
2.0
 43
2.0
 50
90.0
  0
MTEXT
  5
A542
330
A101
100
AcDbEntity
  8
QUOTE
100
AcDbMText
 10
1485.636544169076
 20
-494.3287271582637
 30
0.0
 40
5.0
 41
0.0
 71
     5
 72
     1
  1
\A1;35
 11
0.0000000000000001
 21
1.0
 31
0.0
 73
     1
 44
1.0
1001
ACAD
1000
MTEXTBEGIN
1070
    73
1070
     1
1070
    44
1040
1.0
1070
    74
1070
     0
1000
MTEXTEND
  0
POINT
  5
A543
330
A101
100
AcDbEntity
  8
DEFPOINTS
 62
     0
100
AcDbPoint
 10
1477.81587071375
 20
-512.2938434373337
 30
0.0
  0
POINT
  5
A544
330
A101
100
AcDbEntity
  8
DEFPOINTS
 62
     0
100
AcDbPoint
 10
1483.804242806773
 20
-476.3636108791943
 30
0.0
  0
POINT
  5
A545
330
A101
100
AcDbEntity
  8
DEFPOINTS
 62
     0
100
AcDbPoint
 10
1490.136544169076
 20
-476.3636108791943
 30
0.0
  0
ENDBLK
  5
A119
330
A101
100
AcDbEntity
  8
0
100
AcDbBlockEnd
  0
BLOCK
  5
A141
330
A132
100
AcDbEntity
  8
0
100
AcDbBlockBegin
  2
*D5
 70
     1
 10
0.0
 20
0.0
 30
0.0
  3
*D5
  1

  0
LINE
  5
A56E
330
A132
100
AcDbEntity
  8
QUOTE
370
    -2
100
AcDbLine
 10
1478.07657071375
 20
-515.2938434373337
 30
0.0
 11
1478.07657071375
 21
-537.8348505563098
 31
0.0
  0
LINE
  5
A56F
330
A132
100
AcDbEntity
  8
QUOTE
370
    -2
100
AcDbLine
 10
1498.076529628478
 20
-533.3874345533561
 30
0.0
 11
1498.076529628478
 21
-537.8348505563098
 31
0.0
  0
LINE
  5
A570
330
A132
100
AcDbEntity
  8
QUOTE
370
    -2
100
AcDbLine
 10
1478.07657071375
 20
-537.8348505563098
 30
0.0
 11
1498.076529628478
 21
-537.8348505563098
 31
0.0
  0
INSERT
  5
A571
330
A132
100
AcDbEntity
  8
QUOTE
370
    -2
100
AcDbBlockReference
  2
_Oblique
 10
1478.07657071375
 20
-537.8348505563098
 30
0.0
 41
2.0
 42
2.0
 43
2.0
 50
180.0
  0
INSERT
  5
A572
330
A132
100
AcDbEntity
  8
QUOTE
370
    -2
100
AcDbBlockReference
  2
_Oblique
 10
1498.076529628478
 20
-537.8348505563098
 30
0.0
 41
2.0
 42
2.0
 43
2.0
  0
MTEXT
  5
A573
330
A132
100
AcDbEntity
  8
QUOTE
100
AcDbMText
 10
1488.076550171114
 20
-533.3348505563098
 30
0.0
 40
5.0
 41
0.0
 71
     5
 72
     1
  1
\A1;20
 73
     1
 44
1.0
1001
ACAD
1000
MTEXTBEGIN
1070
    73
1070
     1
1070
    44
1040
1.0
1070
    74
1070
     0
1000
MTEXTEND
  0
POINT
  5
A574
330
A132
100
AcDbEntity
  8
DEFPOINTS
 62
     0
100
AcDbPoint
 10
1478.07657071375
 20
-512.2938434373337
 30
0.0
  0
POINT
  5
A575
330
A132
100
AcDbEntity
  8
DEFPOINTS
 62
     0
100
AcDbPoint
 10
1498.076529628478
 20
-530.3874345533561
 30
0.0
  0
POINT
  5
A576
330
A132
100
AcDbEntity
  8
DEFPOINTS
 62
     0
100
AcDbPoint
 10
1498.076529628478
 20
-537.8348505563098
 30
0.0
  0
ENDBLK
  5
A14D
330
A132
100
AcDbEntity
  8
0
100
AcDbBlockEnd
  0
BLOCK
  5
A188
330
A14E
100
AcDbEntity
  8
0
100
AcDbBlockBegin
  2
*D6
 70
     1
 10
0.0
 20
0.0
 30
0.0
  3
*D6
  1

  0
LINE
  5
A5A5
330
A14E
100
AcDbEntity
  8
QUOTE
370
    -2
100
AcDbLine
 10
1553.974785442432
 20
-507.3035333598142
 30
0.0
 11
1574.533708847739
 21
-507.3035333598142
 31
0.0
  0
LINE
  5
A5A6
330
A14E
100
AcDbEntity
  8
QUOTE
370
    -2
100
AcDbLine
 10
1549.184087768013
 20
-476.363610879194
 30
0.0
 11
1574.533708847739
 21
-476.363610879194
 31
0.0
  0
LINE
  5
A5A7
330
A14E
100
AcDbEntity
  8
QUOTE
370
    -2
100
AcDbLine
 10
1574.533708847739
 20
-507.3035333598142
 30
0.0
 11
1574.533708847739
 21
-476.363610879194
 31
0.0
  0
INSERT
  5
A5A8
330
A14E
100
AcDbEntity
  8
QUOTE
370
    -2
100
AcDbBlockReference
  2
_Oblique
 10
1574.533708847739
 20
-507.3035333598142
 30
0.0
 41
2.0
 42
2.0
 43
2.0
 50
270.0
  0
INSERT
  5
A5A9
330
A14E
100
AcDbEntity
  8
QUOTE
370
    -2
100
AcDbBlockReference
  2
_Oblique
 10
1574.533708847739
 20
-476.363610879194
 30
0.0
 41
2.0
 42
2.0
 43
2.0
 50
90.0
  0
MTEXT
  5
A5AA
330
A14E
100
AcDbEntity
  8
QUOTE
100
AcDbMText
 10
1570.033708847739
 20
-491.8335721195042
 30
0.0
 40
5.0
 41
0.0
 71
     5
 72
     1
  1
\A1;30
 11
0.0000000000000001
 21
1.0
 31
0.0
 73
     1
 44
1.0
1001
ACAD
1000
MTEXTBEGIN
1070
    73
1070
     1
1070
    44
1040
1.0
1070
    74
1070
     0
1000
MTEXTEND
  0
POINT
  5
A5AB
330
A14E
100
AcDbEntity
  8
DEFPOINTS
 62
     0
100
AcDbPoint
 10
1550.974785442432
 20
-507.3035333598142
 30
0.0
  0
POINT
  5
A5AC
330
A14E
100
AcDbEntity
  8
DEFPOINTS
 62
     0
100
AcDbPoint
 10
1546.184087768013
 20
-476.363610879194
 30
0.0
  0
POINT
  5
A5AD
330
A14E
100
AcDbEntity
  8
DEFPOINTS
 62
     0
100
AcDbPoint
 10
1574.533708847739
 20
-476.363610879194
 30
0.0
  0
ENDBLK
  5
A192
330
A14E
100
AcDbEntity
  8
0
100
AcDbBlockEnd
  0
BLOCK
  5
A1A0
330
A193
100
AcDbEntity
  8
0
100
AcDbBlockBegin
  2
*D7
 70
     1
 10
0.0
 20
0.0
 30
0.0
  3
*D7
  1

  0
LINE
  5
A562
330
A193
100
AcDbEntity
  8
QUOTE
370
    -2
100
AcDbLine
 10
1571.541460785724
 20
-476.3636108791942
 30
0.0
 11
1635.049174612683
 21
-476.3636108791942
 31
0.0
  0
LINE
  5
A563
330
A193
100
AcDbEntity
  8
QUOTE
370
    -2
100
AcDbLine
 10
1561.16083195406
 20
-358.5922930497373
 30
0.0
 11
1635.049174612683
 21
-358.5922930497373
 31
0.0
  0
LINE
  5
A564
330
A193
100
AcDbEntity
  8
QUOTE
370
    -2
100
AcDbLine
 10
1635.049174612683
 20
-476.3636108791942
 30
0.0
 11
1635.049174612683
 21
-358.5922930497373
 31
0.0
  0
INSERT
  5
A565
330
A193
100
AcDbEntity
  8
QUOTE
370
    -2
100
AcDbBlockReference
  2
_Oblique
 10
1635.049174612683
 20
-476.3636108791942
 30
0.0
 41
2.0
 42
2.0
 43
2.0
 50
270.0
  0
INSERT
  5
A566
330
A193
100
AcDbEntity
  8
QUOTE
370
    -2
100
AcDbBlockReference
  2
_Oblique
 10
1635.049174612683
 20
-358.5922930497373
 30
0.0
 41
2.0
 42
2.0
 43
2.0
 50
90.0
  0
MTEXT
  5
A567
330
A193
100
AcDbEntity
  8
QUOTE
100
AcDbMText
 10
1630.549174612683
 20
-417.4779519644655
 30
0.0
 40
5.0
 41
0.0
 71
     5
 72
     1
  1
\A1;115
 11
0.0000000000000001
 21
1.0
 31
0.0
 73
     1
 44
1.0
1001
ACAD
1000
MTEXTBEGIN
1070
    73
1070
     1
1070
    44
1040
1.0
1070
    74
1070
     0
1000
MTEXTEND
  0
POINT
  5
A568
330
A193
100
AcDbEntity
  8
DEFPOINTS
 62
     0
100
AcDbPoint
 10
1568.541460785724
 20
-476.3636108791942
 30
0.0
  0
POINT
  5
A569
330
A193
100
AcDbEntity
  8
DEFPOINTS
 62
     0
100
AcDbPoint
 10
1558.16083195406
 20
-358.5922930497373
 30
0.0
  0
POINT
  5
A56A
330
A193
100
AcDbEntity
  8
DEFPOINTS
 62
     0
100
AcDbPoint
 10
1635.049174612683
 20
-358.5922930497373
 30
0.0
  0
ENDBLK
  5
A1AA
330
A193
100
AcDbEntity
  8
0
100
AcDbBlockEnd
  0
BLOCK
  5
A1E7
330
A1E5
100
AcDbEntity
  8
0
100
AcDbBlockBegin
  2
_Oblique
 70
     0
 10
0.0
 20
0.0
 30
0.0
  3
_Oblique
  1

  0
LINE
  5
A1E6
330
A1E5
100
AcDbEntity
  8
FERRO
 62
     0
370
    -2
100
AcDbLine
 10
-0.5
 20
-0.5
 30
0.0
 11
0.5
 21
0.5
 31
0.0
  0
ENDBLK
  5
A1E8
330
A1E5
100
AcDbEntity
  8
0
100
AcDbBlockEnd
  0
ENDSEC
  0
SECTION
  2
ENTITIES
  0
INSERT
  5
58A
330
18
100
AcDbEntity
  8
AREA
 62
     1
100
AcDbBlockReference
  2
WMF3
 10
118.8888423094627
 20
247.2301865419039
 30
0.0
  0
INSERT
  5
58B
330
18
100
AcDbEntity
  8
AREA
 62
     1
100
AcDbBlockReference
  2
WMF4
 10
116.3969945894702
 20
245.5709684997675
 30
0.0
  0
INSERT
  5
CB4
330
18
100
AcDbEntity
  8
AREA
 62
     1
100
AcDbBlockReference
  2
WMF3
 10
119.0154567964939
 20
249.2754968857944
 30
0.0
  0
INSERT
  5
CB5
330
18
100
AcDbEntity
  8
AREA
 62
     1
100
AcDbBlockReference
  2
WMF4
 10
116.5236090765014
 20
247.6162788436579
 30
0.0
  0
INSERT
  5
D59
330
18
100
AcDbEntity
  8
AREA
 62
     1
100
AcDbBlockReference
  2
WMF3
 10
119.0154567964939
 20
249.2754968857944
 30
0.0
  0
INSERT
  5
D5A
330
18
100
AcDbEntity
  8
AREA
 62
     1
100
AcDbBlockReference
  2
WMF4
 10
116.5236090765014
 20
247.6162788436579
 30
0.0
  0
INSERT
  5
46E9
330
18
100
AcDbEntity
  8
ALLUMINIO
 62
     1
100
AcDbBlockReference
  2
WMF3
 10
1358.329111410511
 20
161.8851418267927
 30
0.0
 41
2.0
 42
2.0
 43
2.0
  0
INSERT
  5
46EA
330
18
100
AcDbEntity
  8
ALLUMINIO
 62
     1
100
AcDbBlockReference
  2
WMF4
 10
1353.345415970526
 20
158.5667057425198
 30
0.0
 41
2.0
 42
2.0
 43
2.0
  0
INSERT
  5
655B
330
18
100
AcDbEntity
  8
ALLUMINIO
 62
     1
100
AcDbBlockReference
  2
WMF3
 10
582.5970495602237
 20
-279.27482726071
 30
0.0
 41
3.999999999999999
 42
3.999999999999999
 43
3.999999999999999
  0
INSERT
  5
655C
330
18
100
AcDbEntity
  8
ALLUMINIO
 62
     1
100
AcDbBlockReference
  2
WMF4
 10
572.6296586802536
 20
-285.9116994292558
 30
0.0
 41
3.999999999999999
 42
3.999999999999999
 43
3.999999999999999
  0
INSERT
  5
670C
330
18
100
AcDbEntity
  8
ALLUMINIO
 62
     1
100
AcDbBlockReference
  2
WMF3
 10
589.4326850976631
 20
-88.60908119522447
 30
0.0
 41
2.0
 42
2.0
 43
2.0
  0
INSERT
  5
670D
330
18
100
AcDbEntity
  8
ALLUMINIO
 62
     1
100
AcDbBlockReference
  2
WMF4
 10
584.4489896576781
 20
-91.92751727949735
 30
0.0
 41
2.0
 42
2.0
 43
2.0
  0
INSERT
  5
8AB0
330
18
100
AcDbEntity
  8
ALLUMINIO
 62
     1
100
AcDbBlockReference
  2
WMF3
 10
1502.020270793584
 20
-711.2331799408297
 30
0.0
  0
INSERT
  5
8AB1
330
18
100
AcDbEntity
  8
ALLUMINIO
 62
     1
100
AcDbBlockReference
  2
WMF4
 10
1499.528423073591
 20
-712.8923979829663
 30
0.0
  0
INSERT
  5
8B44
330
18
100
AcDbEntity
  8
ALLUMINIO
 62
     1
100
AcDbBlockReference
  2
WMF3
 10
1964.398053197002
 20
-1286.183688527569
 30
0.0
  0
INSERT
  5
8B45
330
18
100
AcDbEntity
  8
ALLUMINIO
 62
     1
100
AcDbBlockReference
  2
WMF4
 10
1961.90620547701
 20
-1287.842906569706
 30
0.0
  0
LWPOLYLINE
  5
8B7D
330
18
100
AcDbEntity
  8
ALLUMINIO
 62
     2
100
AcDbPolyline
 90
        2
 70
     0
 43
0.0
 10
1545.019008701736
 20
-440.865148173313
 10
1545.019008701736
 20
-440.865148173313
 42
-0.1100442078939424
  0
LINE
  5
8C08
330
18
100
AcDbEntity
  8
TABELLA
 62
     7
100
AcDbLine
 10
1501.871403810217
 20
-573.3147257575852
 30
0.0
 11
1501.871403810217
 21
-567.3147257575853
 31
0.0
  0
INSERT
  5
8C16
330
18
100
AcDbEntity
  8
ALLUMINIO
 62
     1
100
AcDbBlockReference
  2
WMF3
 10
883.3426222293006
 20
-326.2071731127912
 30
0.0
  0
INSERT
  5
8C17
330
18
100
AcDbEntity
  8
ALLUMINIO
 62
     1
100
AcDbBlockReference
  2
WMF4
 10
880.8507745093081
 20
-327.8663911549277
 30
0.0
  0
LINE
  5
8C60
330
18
100
AcDbEntity
  8
FERRO
 62
   250
100
AcDbLine
 10
1534.928095744051
 20
-437.01942622429
 30
0.0
 11
1518.959103495989
 21
-437.01942622429
 31
0.0
  0
LINE
  5
8C61
330
18
100
AcDbEntity
  8
FERRO
 62
   250
100
AcDbLine
 10
1534.928095744051
 20
-434.0252401777783
 30
0.0
 11
1518.959103495989
 21
-434.0252401777783
 31
0.0
  0
LINE
  5
8C62
330
18
100
AcDbEntity
  8
FERRO
 62
   250
100
AcDbLine
 10
1534.928095744051
 20
-440.0136122708016
 30
0.0
 11
1518.959103495989
 21
-440.0136122708016
 31
0.0
  0
LINE
  5
8C63
330
18
100
AcDbEntity
  8
FERRO
 62
   250
100
AcDbLine
 10
1534.928095744051
 20
-443.0077983173132
 30
0.0
 11
1518.959103495989
 21
-443.0077983173132
 31
0.0
  0
LINE
  5
8C64
330
18
100
AcDbEntity
  8
FERRO
 62
   250
100
AcDbLine
 10
1534.928095744051
 20
-431.0310541312668
 30
0.0
 11
1518.959103495989
 21
-431.0310541312668
 31
0.0
  0
LINE
  5
8C65
330
18
100
AcDbEntity
  8
FERRO
 62
   250
100
AcDbLine
 10
1534.928095744051
 20
-428.0368680847552
 30
0.0
 11
1518.959103495989
 21
-428.0368680847552
 31
0.0
  0
LINE
  5
8C66
102
{ACAD_REACTORS
330
A340
102
}
330
18
100
AcDbEntity
  8
FERRO
 62
   250
100
AcDbLine
 10
1540.166296730655
 20
-401.5882246739026
 30
0.0
 11
1518.20893238957
 21
-401.5882246739026
 31
0.0
  0
LINE
  5
8C67
330
18
100
AcDbEntity
  8
FERRO
 62
   250
100
AcDbLine
 10
1534.928095744051
 20
-425.0426820382435
 30
0.0
 11
1518.959103495989
 21
-425.0426820382435
 31
0.0
  0
LINE
  5
8C68
330
18
100
AcDbEntity
  8
FERRO
 62
   250
100
AcDbLine
 10
1534.928095744051
 20
-422.0484959917319
 30
0.0
 11
1518.959103495989
 21
-422.0484959917319
 31
0.0
  0
LINE
  5
8C69
330
18
100
AcDbEntity
  8
FERRO
 62
   250
100
AcDbLine
 10
1534.928095744051
 20
-419.5533409529722
 30
0.0
 11
1518.959103495989
 21
-419.5533409529722
 31
0.0
  0
LINE
  5
8C6A
330
18
100
AcDbEntity
  8
FERRO
 62
   250
100
AcDbLine
 10
1534.928095744051
 20
-417.0581859142125
 30
0.0
 11
1518.959103495989
 21
-417.0581859142125
 31
0.0
  0
LINE
  5
8C6B
330
18
100
AcDbEntity
  8
FERRO
 62
   250
100
AcDbLine
 10
1534.928095744051
 20
-414.563030875453
 30
0.0
 11
1518.959103495989
 21
-414.563030875453
 31
0.0
  0
LINE
  5
8C6C
330
18
100
AcDbEntity
  8
FERRO
 62
   250
100
AcDbLine
 10
1534.928095744051
 20
-402.0872556816546
 30
0.0
 11
1518.959103495989
 21
-402.0872556816546
 31
0.0
  0
LINE
  5
8C6D
330
18
100
AcDbEntity
  8
FERRO
 62
   250
100
AcDbLine
 10
1534.928095744051
 20
-412.0678758366932
 30
0.0
 11
1518.959103495989
 21
-412.0678758366932
 31
0.0
  0
LINE
  5
8C6E
330
18
100
AcDbEntity
  8
FERRO
 62
   250
100
AcDbLine
 10
1534.928095744051
 20
-410.0717518056856
 30
0.0
 11
1518.959103495989
 21
-410.0717518056856
 31
0.0
  0
LINE
  5
8C6F
330
18
100
AcDbEntity
  8
FERRO
 62
   250
100
AcDbLine
 10
1534.928095744051
 20
-408.0756277746777
 30
0.0
 11
1518.959103495989
 21
-408.0756277746777
 31
0.0
  0
LINE
  5
8C70
330
18
100
AcDbEntity
  8
FERRO
 62
   250
100
AcDbLine
 10
1534.928095744051
 20
-406.0795037436698
 30
0.0
 11
1518.959103495989
 21
-406.0795037436698
 31
0.0
  0
LINE
  5
8C71
330
18
100
AcDbEntity
  8
FERRO
 62
   250
100
AcDbLine
 10
1534.928095744051
 20
-405.081441728166
 30
0.0
 11
1518.959103495989
 21
-405.081441728166
 31
0.0
  0
LINE
  5
8C72
330
18
100
AcDbEntity
  8
FERRO
 62
   250
100
AcDbLine
 10
1534.928095744051
 20
-404.0833797126622
 30
0.0
 11
1518.959103495989
 21
-404.0833797126622
 31
0.0
  0
LINE
  5
8C73
330
18
100
AcDbEntity
  8
FERRO
 62
   250
100
AcDbLine
 10
1534.928095744051
 20
-403.0853176971584
 30
0.0
 11
1518.959103495989
 21
-403.0853176971584
 31
0.0
  0
LINE
  5
8C74
102
{ACAD_REACTORS
330
A340
102
}
330
18
100
AcDbEntity
  8
FERRO
 62
   250
100
AcDbLine
 10
1542.828080272173
 20
-391.607604518864
 30
0.0
 11
1509.725405257787
 21
-391.607604518864
 31
0.0
  0
LINE
  5
8C75
330
18
100
AcDbEntity
  8
FERRO
 62
   250
100
AcDbLine
 10
1534.928095744051
 20
-471.9515967669255
 30
0.0
 11
1518.959103495989
 21
-471.9515967669256
 31
0.0
  0
LINE
  5
8C76
330
18
100
AcDbEntity
  8
FERRO
 62
   250
100
AcDbLine
 10
1534.928095744051
 20
-459.4758215731273
 30
0.0
 11
1518.959103495989
 21
-459.4758215731273
 31
0.0
  0
LINE
  5
8C77
330
18
100
AcDbEntity
  8
FERRO
 62
   250
100
AcDbLine
 10
1534.928095744051
 20
-461.9709766118868
 30
0.0
 11
1518.959103495989
 21
-461.9709766118868
 31
0.0
  0
LINE
  5
8C78
330
18
100
AcDbEntity
  8
FERRO
 62
   250
100
AcDbLine
 10
1534.928095744051
 20
-463.9671006428947
 30
0.0
 11
1518.959103495989
 21
-463.9671006428947
 31
0.0
  0
LINE
  5
8C79
330
18
100
AcDbEntity
  8
FERRO
 62
   250
100
AcDbLine
 10
1534.928095744051
 20
-465.9632246739023
 30
0.0
 11
1518.959103495989
 21
-465.9632246739023
 31
0.0
  0
LINE
  5
8C7A
330
18
100
AcDbEntity
  8
FERRO
 62
   250
100
AcDbLine
 10
1534.928095744051
 20
-467.9593487049101
 30
0.0
 11
1518.959103495989
 21
-467.9593487049101
 31
0.0
  0
LINE
  5
8C7B
330
18
100
AcDbEntity
  8
FERRO
 62
   250
100
AcDbLine
 10
1534.928095744051
 20
-468.9574107204139
 30
0.0
 11
1518.959103495989
 21
-468.9574107204139
 31
0.0
  0
LINE
  5
8C7C
330
18
100
AcDbEntity
  8
FERRO
 62
   250
100
AcDbLine
 10
1534.928095744051
 20
-469.9554727359178
 30
0.0
 11
1518.959103495989
 21
-469.9554727359178
 31
0.0
  0
LINE
  5
8C7D
330
18
100
AcDbEntity
  8
FERRO
 62
   250
100
AcDbLine
 10
1534.928095744051
 20
-470.9535347514218
 30
0.0
 11
1518.959103495989
 21
-470.9535347514218
 31
0.0
  0
LINE
  5
8C7E
330
18
100
AcDbEntity
  8
FERRO
 62
   250
100
AcDbLine
 10
1534.928095744051
 20
-446.0019843638248
 30
0.0
 11
1518.959103495989
 21
-446.0019843638248
 31
0.0
  0
LINE
  5
8C7F
330
18
100
AcDbEntity
  8
FERRO
 62
   250
100
AcDbLine
 10
1534.928095744051
 20
-448.9961704103365
 30
0.0
 11
1518.959103495989
 21
-448.9961704103365
 31
0.0
  0
LINE
  5
8C80
330
18
100
AcDbEntity
  8
FERRO
 62
   250
100
AcDbLine
 10
1534.928095744051
 20
-451.9903564568481
 30
0.0
 11
1518.959103495989
 21
-451.9903564568481
 31
0.0
  0
LINE
  5
8C81
330
18
100
AcDbEntity
  8
FERRO
 62
   250
100
AcDbLine
 10
1534.928095744051
 20
-454.4855114956078
 30
0.0
 11
1518.959103495989
 21
-454.4855114956078
 31
0.0
  0
LINE
  5
8C82
330
18
100
AcDbEntity
  8
FERRO
 62
   250
100
AcDbLine
 10
1534.928095744051
 20
-456.9806665343675
 30
0.0
 11
1518.959103495989
 21
-456.9806665343675
 31
0.0
  0
LINE
  5
8C83
330
18
100
AcDbEntity
  8
FERRO
 62
   250
100
AcDbLine
 10
1553.640133939957
 20
-376.6366742863058
 30
0.0
 11
1509.725405257787
 21
-376.636674286306
 31
0.0
  0
LINE
  5
8C84
102
{ACAD_REACTORS
330
A45C
102
}
330
18
100
AcDbEntity
  8
FERRO
 62
   250
100
AcDbLine
 10
1507.520369163362
 20
-361.586479096249
 30
0.0
 11
1555.427345907548
 21
-361.586479096249
 31
0.0
  0
LINE
  5
8C85
102
{ACAD_REACTORS
330
A45C
102
}
330
18
100
AcDbEntity
  8
FERRO
 62
   250
100
AcDbLine
 10
1504.526183116851
 20
-358.5922930497373
 30
0.0
 11
1558.42153195406
 21
-358.5922930497373
 31
0.0
  0
LINE
  5
8C86
330
18
100
AcDbEntity
  8
FERRO
 62
   250
100
AcDbLine
 10
1526.272266062587
 20
-509.000238786171
 30
0.0
 11
1528.268390093594
 21
-509.000238786171
 31
0.0
  0
LINE
  5
8C87
330
18
100
AcDbEntity
  8
FERRO
 62
   250
100
AcDbLine
 10
1521.969996943966
 20
-514.0903550652407
 30
0.0
 11
1529.576473165704
 21
-514.0903550652406
 31
0.0
  0
LINE
  5
8C88
330
18
100
AcDbEntity
  8
FERRO
 62
   250
100
AcDbLine
 10
1520.583312574215
 20
-515.2880294838452
 30
0.0
 11
1530.963157535455
 21
-515.2880294838452
 31
0.0
  0
LINE
  5
8C89
330
18
100
AcDbEntity
  8
FERRO
 62
   250
100
AcDbLine
 10
1523.278080016075
 20
-513.9905488636903
 30
0.0
 11
1528.268390093594
 21
-513.9905488636903
 31
0.0
  0
ARC
  5
8C8A
330
18
100
AcDbEntity
  8
FERRO
 62
   250
100
AcDbCircle
 10
1606.816143393981
 20
-500.6416071764552
 30
0.0
 40
81.93940691638747
100
AcDbArc
 50
162.7649684173162
 51
187.7053291642495
  0
ARC
  5
8C8B
330
18
100
AcDbEntity
  8
FERRO
 62
   250
100
AcDbCircle
 10
1619.901022052674
 20
-506.6573636133433
 30
0.0
 40
93.88523959402396
100
AcDbArc
 50
161.1756551021856
 51
183.0694007558427
  0
ARC
  5
8C8C
330
18
100
AcDbEntity
  8
FERRO
 62
   250
100
AcDbCircle
 10
1620.726849252932
 20
-506.6573636133433
 30
0.0
 40
94.88330160952783
100
AcDbArc
 50
161.3809866189287
 51
183.0694007558427
  0
ARC
  5
8C8D
330
18
100
AcDbEntity
  8
FERRO
 62
   250
100
AcDbCircle
 10
1620.033154014318
 20
-506.6573636133433
 30
0.0
 40
94.2844644002255
100
AcDbArc
 50
161.2583393670993
 51
183.0694007558427
  0
ARC
  5
8C8E
330
18
100
AcDbEntity
  8
FERRO
 62
   250
100
AcDbCircle
 10
1621.288410577915
 20
-506.6573636133433
 30
0.0
 40
95.28252641572938
100
AcDbArc
 50
161.4618465532345
 51
183.0694007558427
  0
ARC
  5
8C8F
330
18
100
AcDbEntity
  8
FERRO
 62
   250
100
AcDbCircle
 10
1608.698288245789
 20
-504.0569045088475
 30
0.0
 40
83.30807423707049
100
AcDbArc
 50
160.584257169407
 51
186.2133365040083
  0
LINE
  5
8C90
102
{ACAD_REACTORS
330
8E15
102
}
330
18
100
AcDbEntity
  8
FERRO
 62
   250
100
AcDbLine
 10
1500.571684667238
 20
-519.4798899489614
 30
0.0
 11
1550.974785442432
 21
-519.4798899489614
 31
0.0
  0
LINE
  5
8C91
102
{ACAD_REACTORS
330
8E15
102
}
330
18
100
AcDbEntity
  8
FERRO
 62
   250
100
AcDbLine
 10
1502.567808698246
 20
-521.4760139799692
 30
0.0
 11
1548.978661411424
 21
-521.4760139799692
 31
0.0
  0
LINE
  5
8C92
102
{ACAD_REACTORS
330
8E12
330
8E15
102
}
330
18
100
AcDbEntity
  8
FERRO
 62
   250
100
AcDbLine
 10
1500.571684667238
 20
-569.3829907241551
 30
0.0
 11
1550.974785442432
 21
-569.3829907241551
 31
0.0
  0
LINE
  5
8C93
102
{ACAD_REACTORS
330
8E15
102
}
330
18
100
AcDbEntity
  8
FERRO
 62
   250
100
AcDbLine
 10
1502.567808698246
 20
-567.3868666931473
 30
0.0
 11
1548.978661411424
 21
-567.3868666931473
 31
0.0
  0
LINE
  5
8C94
102
{ACAD_REACTORS
330
A45C
102
}
330
18
100
AcDbEntity
  8
FERRO
 62
   250
100
AcDbLine
 10
1483.566880791269
 20
-473.3694248326826
 30
0.0
 11
1543.450601721502
 21
-473.3694248326826
 31
0.0
  0
LINE
  5
8C95
102
{ACAD_REACTORS
330
A45C
102
}
330
18
100
AcDbEntity
  8
FERRO
 62
   250
100
AcDbLine
 10
1480.572694744758
 20
-476.3636108791943
 30
0.0
 11
1546.444787768013
 21
-476.363610879194
 31
0.0
  0
LINE
  5
8C96
330
18
100
AcDbEntity
  8
FERRO
 62
   250
100
AcDbLine
 10
1516.962979464981
 20
-469.9554727359178
 30
0.0
 11
1516.962979464981
 21
-404.0833797126624
 31
0.0
  0
LINE
  5
8C97
102
{ACAD_REACTORS
330
A45C
102
}
330
18
100
AcDbEntity
  8
FERRO
 62
   250
100
AcDbLine
 10
1481.570756760262
 20
-471.373300801675
 30
0.0
 11
1481.570756760262
 21
-390.5302775458613
 31
0.0
  0
LINE
  5
8C98
102
{ACAD_REACTORS
330
A45C
102
}
330
18
100
AcDbEntity
  8
FERRO
 62
   250
100
AcDbLine
 10
1478.57657071375
 20
-474.3674868481865
 30
0.0
 11
1478.57657071375
 21
-387.5360914993497
 31
0.0
  0
LINE
  5
8C99
330
18
100
AcDbEntity
  8
0
 62
     7
100
AcDbLine
 10
1478.07657071375
 20
-512.2938434373337
 30
0.0
 11
1478.07657071375
 21
-331.1808586976358
 31
0.0
  0
LINE
  5
8C9A
330
18
100
AcDbEntity
  8
FERRO
 62
   250
100
AcDbLine
 10
1499.773235054835
 20
-509.4992697939227
 30
0.0
 11
1499.773235054835
 21
-677.1966092653299
 31
0.0
  0
LINE
  5
8C9B
102
{ACAD_REACTORS
330
8E12
102
}
330
18
100
AcDbEntity
  8
FERRO
 62
   250
100
AcDbLine
 10
1500.571684667238
 20
-677.1966092653299
 30
0.0
 11
1500.571684667238
 21
-569.3829907241551
 31
0.0
  0
LINE
  5
8C9C
330
18
100
AcDbEntity
  8
0
 62
     7
100
AcDbLine
 10
1478.07657071375
 20
-512.2938434373337
 30
0.0
 11
1347.486676757272
 21
-512.2938434373337
 31
0.0
  0
LINE
  5
8C9D
102
{ACAD_REACTORS
330
8E15
102
}
330
18
100
AcDbEntity
  8
FERRO
 62
   250
100
AcDbLine
 10
1502.567808698246
 20
-567.3868666931473
 30
0.0
 11
1502.567808698246
 21
-521.4760139799692
 31
0.0
  0
ARC
  5
8CA0
102
{ACAD_REACTORS
330
A45C
102
}
330
18
100
AcDbEntity
  8
FERRO
 62
   250
100
AcDbCircle
 10
1483.566880791269
 20
-471.373300801675
 30
0.0
 40
1.996124031007745
100
AcDbArc
 50
180.0
 51
270.0000000000001
  0
ARC
  5
8CA1
102
{ACAD_REACTORS
330
A45C
102
}
330
18
100
AcDbEntity
  8
FERRO
 62
   250
100
AcDbCircle
 10
1480.572694744758
 20
-474.3674868481865
 30
0.0
 40
1.996124031007745
100
AcDbArc
 50
180.0
 51
270.0000000000001
  0
ARC
  5
8CA2
330
18
100
AcDbEntity
  8
FERRO
 62
   250
100
AcDbCircle
 10
1395.218635986434
 20
-515.7495658794479
 30
0.0
 40
130.3288230951299
100
AcDbArc
 50
1.754486479883288
 51
17.59005788547236
  0
ARC
  5
8CA3
330
18
100
AcDbEntity
  8
FERRO
 62
   250
100
AcDbCircle
 10
1404.718859538603
 20
-508.7318636487409
 30
0.0
 40
120.814695730388
100
AcDbArc
 50
358.3770690119405
 51
15.54032515182641
  0
ARC
  5
8CA4
330
18
100
AcDbEntity
  8
FERRO
 62
   250
100
AcDbCircle
 10
1430.890894854549
 20
-502.097535325831
 30
0.0
 40
94.88081871183714
100
AcDbArc
 50
354.3946542003849
 51
15.73709568562203
  0
ARC
  5
8CA5
330
18
100
AcDbEntity
  8
FERRO
 62
   250
100
AcDbCircle
 10
1431.079588952069
 20
-495.117951983078
 30
0.0
 40
95.58117679424283
100
AcDbArc
 50
349.1723407674375
 51
11.31563619717312
  0
LINE
  5
8CA6
330
18
100
AcDbEntity
  8
FERRO
 62
   250
100
AcDbLine
 10
1498.076529628478
 20
-507.3035333598142
 30
0.0
 11
1523.777111023827
 21
-507.3035333598142
 31
0.0
  0
LINE
  5
8CA7
330
18
100
AcDbEntity
  8
FERRO
 62
   250
100
AcDbLine
 10
1499.274204047083
 20
-508.5012077784187
 30
0.0
 11
1521.581374589719
 21
-508.501207778419
 31
0.0
  0
LINE
  5
8CA8
330
18
100
AcDbEntity
  8
FERRO
 62
   250
100
AcDbLine
 10
1500.571684667238
 20
-519.4798899489614
 30
0.0
 11
1500.571684667238
 21
-509.4992697939228
 31
0.0
  0
LINE
  5
8CA9
330
18
100
AcDbEntity
  8
FERRO
 62
   250
100
AcDbLine
 10
1499.274204047083
 20
-532.2550837474111
 30
0.0
 11
1499.274204047083
 21
-508.5012077784187
 31
0.0
  0
LINE
  5
8CAA
330
18
100
AcDbEntity
  8
FERRO
 62
   250
100
AcDbLine
 10
1498.076529628478
 20
-532.2550837474111
 30
0.0
 11
1498.076529628478
 21
-507.3035333598142
 31
0.0
  0
LINE
  5
8CAB
330
18
100
AcDbEntity
  8
FERRO
 62
   250
100
AcDbLine
 10
1498.076529628478
 20
-532.2550837474111
 30
0.0
 11
1499.274204047083
 21
-532.2550837474111
 31
0.0
  0
LINE
  5
8CAC
330
18
100
AcDbEntity
  8
FERRO
 62
   250
100
AcDbLine
 10
1499.773235054835
 20
-509.4992697939228
 30
0.0
 11
1500.571684667238
 21
-509.4992697939228
 31
0.0
  0
LINE
  5
8CAD
330
18
100
AcDbEntity
  8
FERRO
 62
   250
100
AcDbLine
 10
1527.469940481192
 20
-509.7986883985739
 30
0.0
 11
1527.469940481192
 21
-513.1920992512871
 31
0.0
  0
LINE
  5
8CAE
330
18
100
AcDbEntity
  8
FERRO
 62
   250
100
AcDbLine
 10
1524.076529628478
 20
-509.7986883985739
 30
0.0
 11
1524.076529628478
 21
-513.1920992512871
 31
0.0
  0
LINE
  5
8CAF
330
18
100
AcDbEntity
  8
FERRO
 62
   250
100
AcDbLine
 10
1521.969996943966
 20
-514.0903550652407
 30
0.0
 11
1522.791930368498
 21
-508.501207778419
 31
0.0
  0
LINE
  5
8CB0
330
18
100
AcDbEntity
  8
FERRO
 62
   250
100
AcDbLine
 10
1520.583312574215
 20
-515.2880294838452
 30
0.0
 11
1521.581374589719
 21
-508.501207778419
 31
0.0
  0
LINE
  5
8CB1
330
18
100
AcDbEntity
  8
FERRO
 62
   250
100
AcDbLine
 10
1523.278080016075
 20
-509.000238786171
 30
0.0
 11
1523.278080016075
 21
-513.9905488636903
 31
0.0
  0
LINE
  5
8CB2
330
18
100
AcDbEntity
  8
FERRO
 62
   250
100
AcDbLine
 10
1524.076529628478
 20
-513.1920992512871
 30
0.0
 11
1527.469940481192
 21
-513.1920992512871
 31
0.0
  0
LINE
  5
8CB3
330
18
100
AcDbEntity
  8
FERRO
 62
   250
100
AcDbLine
 10
1522.791930368498
 20
-508.501207778419
 30
0.0
 11
1523.777111023827
 21
-508.501207778419
 31
0.0
  0
LINE
  5
8CB4
330
18
100
AcDbEntity
  8
FERRO
 62
   250
100
AcDbLine
 10
1523.278080016075
 20
-509.000238786171
 30
0.0
 11
1525.274204047083
 21
-509.000238786171
 31
0.0
  0
LINE
  5
8CB5
330
18
100
AcDbEntity
  8
FERRO
 62
   250
100
AcDbLine
 10
1523.777111023827
 20
-507.3035333598142
 30
0.0
 11
1523.777111023827
 21
-508.501207778419
 31
0.0
  0
LINE
  5
8CB6
330
18
100
AcDbEntity
  8
FERRO
 62
   250
100
AcDbLine
 10
1524.076529628478
 20
-509.7986883985739
 30
0.0
 11
1525.274204047083
 21
-509.7986883985739
 31
0.0
  0
LINE
  5
8CB7
330
18
100
AcDbEntity
  8
FERRO
 62
   250
100
AcDbLine
 10
1526.272266062587
 20
-509.7986883985739
 30
0.0
 11
1527.469940481192
 21
-509.7986883985739
 31
0.0
  0
LINE
  5
8CB8
330
18
100
AcDbEntity
  8
FERRO
 62
   250
100
AcDbLine
 10
1526.272266062587
 20
-509.000238786171
 30
0.0
 11
1526.272266062587
 21
-509.7986883985739
 31
0.0
  0
LINE
  5
8CB9
330
18
100
AcDbEntity
  8
FERRO
 62
   250
100
AcDbLine
 10
1525.274204047083
 20
-509.000238786171
 30
0.0
 11
1525.274204047083
 21
-509.7986883985739
 31
0.0
  0
ARC
  5
8CBA
330
18
100
AcDbEntity
  8
FERRO
 62
   250
100
AcDbCircle
 10
1518.959103495989
 20
-469.9554727359178
 30
0.0
 40
1.996124031007745
100
AcDbArc
 50
180.0
 51
270.0000000000007
  0
ARC
  5
8CBB
102
{ACAD_REACTORS
330
A45C
102
}
330
18
100
AcDbEntity
  8
FERRO
 62
   250
100
AcDbCircle
 10
1504.526183116851
 20
-360.5884170807451
 30
0.0
 40
1.996124031007745
100
AcDbArc
 50
90.0
 51
180.0
  0
LINE
  5
8CBC
102
{ACAD_REACTORS
330
A45C
102
}
330
18
100
AcDbEntity
  8
FERRO
 62
   250
100
AcDbLine
 10
1483.566880791269
 20
-388.5341535148537
 30
0.0
 11
1503.528121101347
 21
-388.5341535148537
 31
0.0
  0
LINE
  5
8CBD
102
{ACAD_REACTORS
330
A45C
102
}
330
18
100
AcDbEntity
  8
FERRO
 62
   250
100
AcDbLine
 10
1480.572694744758
 20
-385.539967468342
 30
0.0
 11
1500.533935054835
 21
-385.539967468342
 31
0.0
  0
LINE
  5
8CBE
330
18
100
AcDbEntity
  8
ASSI
100
AcDbLine
 10
1472.65226759845
 20
-430.9517891737681
 30
0.0
 11
1490.489245922073
 21
-430.9517891737681
 31
0.0
  0
ARC
  5
8CC0
102
{ACAD_REACTORS
330
A45C
102
}
330
18
100
AcDbEntity
  8
FERRO
 62
   250
100
AcDbCircle
 10
1483.566880791269
 20
-390.5302775458613
 30
0.0
 40
1.996124031007745
100
AcDbArc
 50
90.0
 51
180.0
  0
ARC
  5
8CC1
102
{ACAD_REACTORS
330
A45C
102
}
330
18
100
AcDbEntity
  8
FERRO
 62
   250
100
AcDbCircle
 10
1480.572694744758
 20
-387.5360914993497
 30
0.0
 40
1.996124031007745
100
AcDbArc
 50
90.0
 51
180.0
  0
ARC
  5
8CC2
330
18
100
AcDbEntity
  8
FERRO
 62
   250
100
AcDbCircle
 10
1518.959103495989
 20
-404.0833797126624
 30
0.0
 40
1.996124031007745
100
AcDbArc
 50
90.00000000000033
 51
180.0
  0
ARC
  5
8CC3
102
{ACAD_REACTORS
330
A45C
102
}
330
18
100
AcDbEntity
  8
FERRO
 62
   250
100
AcDbCircle
 10
1507.520369163362
 20
-363.5826031272568
 30
0.0
 40
1.996124031007745
100
AcDbArc
 50
90.0
 51
180.0
  0
ARC
  5
8CC4
102
{ACAD_REACTORS
330
A45C
102
}
330
18
100
AcDbEntity
  8
FERRO
 62
   250
100
AcDbCircle
 10
1503.528121101347
 20
-386.5380294838458
 30
0.0
 40
1.996124031007745
100
AcDbArc
 50
270.0
 51
0.0
  0
LINE
  5
8CC5
102
{ACAD_REACTORS
330
A45C
102
}
330
18
100
AcDbEntity
  8
FERRO
 62
   250
100
AcDbLine
 10
1502.530059085843
 20
-383.5438434373341
 30
0.0
 11
1502.530059085843
 21
-360.5884170807451
 31
0.0
  0
ARC
  5
8CC6
102
{ACAD_REACTORS
330
A45C
102
}
330
18
100
AcDbEntity
  8
FERRO
 62
   250
100
AcDbCircle
 10
1500.533935054835
 20
-383.5438434373341
 30
0.0
 40
1.996124031007745
100
AcDbArc
 50
270.0
 51
0.0
  0
LINE
  5
8CC7
330
18
100
AcDbEntity
  8
FERRO
 62
   250
100
AcDbLine
 10
1522.700211459337
 20
-389.6114804878562
 30
0.0
 11
1522.700211459337
 21
-378.6327983173136
 31
0.0
  0
LINE
  5
8CC8
330
18
100
AcDbEntity
  8
FERRO
 62
   250
100
AcDbLine
 10
1519.706025412826
 20
-389.6114804878562
 30
0.0
 11
1519.706025412826
 21
-378.6327983173136
 31
0.0
  0
LINE
  5
8CC9
330
18
100
AcDbEntity
  8
FERRO
 62
   250
100
AcDbLine
 10
1517.210870374066
 20
-389.6114804878562
 30
0.0
 11
1517.210870374066
 21
-378.6327983173136
 31
0.0
  0
LINE
  5
8CCA
330
18
100
AcDbEntity
  8
FERRO
 62
   250
100
AcDbLine
 10
1514.715715335306
 20
-389.6114804878562
 30
0.0
 11
1514.715715335306
 21
-378.6327983173136
 31
0.0
  0
LINE
  5
8CCB
330
18
100
AcDbEntity
  8
FERRO
 62
   250
100
AcDbLine
 10
1512.719591304298
 20
-389.6114804878562
 30
0.0
 11
1512.719591304298
 21
-378.6327983173136
 31
0.0
  0
LINE
  5
8CCC
330
18
100
AcDbEntity
  8
FERRO
 62
   250
100
AcDbLine
 10
1510.723467273291
 20
-389.6114804878562
 30
0.0
 11
1510.723467273291
 21
-378.6327983173136
 31
0.0
  0
LINE
  5
8CCD
330
18
100
AcDbEntity
  8
FERRO
 62
   250
100
AcDbLine
 10
1509.226374250035
 20
-389.6114804878562
 30
0.0
 11
1509.226374250035
 21
-378.6327983173136
 31
0.0
  0
LINE
  5
8CCE
330
18
100
AcDbEntity
  8
FERRO
 62
   250
100
AcDbLine
 10
1510.723467273291
 20
-389.6114804878562
 30
0.0
 11
1510.723467273291
 21
-378.6327983173136
 31
0.0
  0
LINE
  5
8CCF
330
18
100
AcDbEntity
  8
FERRO
 62
   250
100
AcDbLine
 10
1507.729281226779
 20
-389.6114804878564
 30
0.0
 11
1507.729281226779
 21
-378.6327983173138
 31
0.0
  0
LINE
  5
8CD0
102
{ACAD_REACTORS
330
A45C
102
}
330
18
100
AcDbEntity
  8
FERRO
 62
   250
100
AcDbLine
 10
1505.524245132354
 20
-386.5380294838458
 30
0.0
 11
1505.524245132354
 21
-363.5826031272568
 31
0.0
  0
ARC
  5
8CD1
330
18
100
AcDbEntity
  8
FERRO
 62
   250
100
AcDbCircle
 10
1509.725405257787
 20
-389.6114804878564
 30
0.0
 40
1.996124031007745
100
AcDbArc
 50
180.0000000000001
 51
270.0
  0
LINE
  5
8CD2
102
{ACAD_REACTORS
330
A340
102
}
330
18
100
AcDbEntity
  8
FERRO
 62
   250
100
AcDbLine
 10
1519.206994405074
 20
-392.8690870607004
 30
0.0
 11
1519.206994405074
 21
-391.607604518864
 31
0.0
  0
ARC
  5
8CD3
102
{ACAD_REACTORS
330
A340
102
}
330
18
100
AcDbEntity
  8
FERRO
 62
   250
100
AcDbCircle
 10
1517.709901381818
 20
-392.8690870607004
 30
0.0
 40
1.497093023255809
100
AcDbArc
 50
311.8103148957788
 51
0.0
  0
ARC
  5
8CD4
102
{ACAD_REACTORS
330
A340
102
}
330
18
100
AcDbEntity
  8
FERRO
 62
   250
100
AcDbCircle
 10
1519.706025412826
 20
-395.1008215731276
 30
0.0
 40
1.497093023255809
100
AcDbArc
 50
131.8103148957784
 51
180.0
  0
LINE
  5
8CD5
102
{ACAD_REACTORS
330
A340
102
}
330
18
100
AcDbEntity
  8
FERRO
 62
   250
100
AcDbLine
 10
1518.20893238957
 20
-401.5882246739026
 30
0.0
 11
1518.20893238957
 21
-395.1008215731276
 31
0.0
  0
ARC
  5
8CD6
330
18
100
AcDbEntity
  8
FERRO
 62
   250
100
AcDbCircle
 10
1509.725405257787
 20
-378.6327983173138
 30
0.0
 40
1.996124031007745
100
AcDbArc
 50
90.0
 51
180.0
  0
LINE
  5
8CD7
102
{ACAD_REACTORS
330
A340
102
}
330
18
100
AcDbEntity
  8
FERRO
  6
ACAD_ISO10W100
 62
   250
 48
0.2
100
AcDbLine
 10
1586.383821241597
 20
-461.4719456041349
 30
0.0
 11
1586.383821241597
 21
-411.5688448289413
 31
0.0
  0
LINE
  5
8CD8
102
{ACAD_REACTORS
330
A340
102
}
330
18
100
AcDbEntity
  8
FERRO
  6
ACAD_ISO10W100
 62
   250
 48
0.2
100
AcDbLine
 10
1606.345061551675
 20
-461.4719456041349
 30
0.0
 11
1606.345061551675
 21
-411.5688448289413
 31
0.0
  0
LINE
  5
8CD9
102
{ACAD_REACTORS
330
A340
102
}
330
18
100
AcDbEntity
  8
FERRO
 62
   250
100
AcDbLine
 10
1576.596529288794
 20
-461.4719456041349
 30
0.0
 11
1576.596529288794
 21
-411.5688448289413
 31
0.0
  0
LINE
  5
8CDA
102
{ACAD_REACTORS
330
A340
102
}
330
18
100
AcDbEntity
  8
FERRO
 62
   250
100
AcDbLine
 10
1553.141102932205
 20
-401.5882246739026
 30
0.0
 11
1553.141102932205
 21
-453.487449480104
 31
0.0
  0
LINE
  5
8CDB
102
{ACAD_REACTORS
330
A340
102
}
330
18
100
AcDbEntity
  8
FERRO
 62
   250
100
AcDbLine
 10
1611.52869983143
 20
-461.4719456041349
 30
0.0
 11
1611.52869983143
 21
-411.5688448289413
 31
0.0
  0
LINE
  5
8CDC
330
18
100
AcDbEntity
  8
FERRO
 62
   250
100
AcDbLine
 10
1536.924219775059
 20
-469.9554727359177
 30
0.0
 11
1536.924219775059
 21
-404.0833797126624
 31
0.0
  0
LINE
  5
8CDD
102
{ACAD_REACTORS
330
A340
102
}
330
18
100
AcDbEntity
  8
FERRO
 62
   250
100
AcDbLine
 10
1545.156606808174
 20
-453.487449480104
 30
0.0
 11
1545.156606808174
 21
-406.578534751422
 31
0.0
  0
LINE
  5
8CDE
330
18
100
AcDbEntity
  8
FERRO
  6
TRATTEGGIATA2
 62
   250
 48
0.2
100
AcDbLine
 10
1606.345061551675
 20
-622.4915844192841
 30
0.0
 11
1606.345061551675
 21
-534.6621270549433
 31
0.0
  0
LINE
  5
8CDF
330
18
100
AcDbEntity
  8
FERRO
  6
TRATTEGGIATA2
 62
   250
 48
0.2
100
AcDbLine
 10
1586.383821241598
 20
-622.4915844192841
 30
0.0
 11
1586.383821241597
 21
-534.6621270549433
 31
0.0
  0
LINE
  5
8CE0
330
18
100
AcDbEntity
  8
FERRO
 62
   250
100
AcDbLine
 10
1611.180643302398
 20
-562.6078634890518
 30
0.0
 11
1611.180643302398
 21
-620.8946851944779
 31
0.0
  0
LINE
  5
8CE1
102
{ACAD_REACTORS
330
8E12
102
}
330
18
100
AcDbEntity
  8
FERRO
 62
   250
100
AcDbLine
 10
1550.974785442432
 20
-677.1966092653299
 30
0.0
 11
1550.974785442432
 21
-569.3829907241551
 31
0.0
  0
LINE
  5
8CE2
330
18
100
AcDbEntity
  8
FERRO
 62
   250
100
AcDbLine
 10
1551.773235054835
 20
-677.1966092653299
 30
0.0
 11
1551.773235054835
 21
-509.4992697939228
 31
0.0
  0
LINE
  5
8CE3
330
18
100
AcDbEntity
  8
FERRO
 62
   250
100
AcDbLine
 10
1584.38769721059
 20
-622.4915844192841
 30
0.0
 11
1609.583744077592
 21
-622.4915844192841
 31
0.0
  0
LINE
  5
8CE4
330
18
100
AcDbEntity
  8
FERRO
 62
   250
100
AcDbLine
 10
1551.773235054835
 20
-622.4915844192841
 30
0.0
 11
1606.190333224879
 21
-622.4915844192841
 31
0.0
  0
ARC
  5
8CE5
330
18
100
AcDbEntity
  8
FERRO
 62
   250
100
AcDbCircle
 10
1596.474274338346
 20
-664.873928670833
 30
0.0
 40
32.43701550387502
100
AcDbArc
 50
75.74996730219578
 51
104.2500326978038
  0
ARC
  5
8CE6
330
18
100
AcDbEntity
  8
FERRO
 62
   250
100
AcDbCircle
 10
1596.474274338346
 20
-617.9650139421509
 30
0.0
 40
32.43701550387683
100
AcDbArc
 50
255.7499673021966
 51
284.2500326978029
  0
LINE
  5
8CE8
330
18
100
AcDbEntity
  8
FERRO
 62
   250
100
AcDbLine
 10
1586.55703943205
 20
-653.7185422696144
 30
0.0
 11
1606.391509244644
 21
-653.7185422696146
 31
0.0
  0
LINE
  5
8CE9
330
18
100
AcDbEntity
  8
FERRO
 62
   250
100
AcDbLine
 10
1588.489778214315
 20
-655.2156352928703
 30
0.0
 11
1604.458770462377
 21
-655.2156352928704
 31
0.0
  0
LINE
  5
8CEB
330
18
100
AcDbEntity
  8
FERRO
 62
   250
100
AcDbLine
 10
1580.505282090284
 20
-632.4369131669582
 30
0.0
 11
1612.443266586408
 21
-632.4369131669582
 31
0.0
  0
LINE
  5
8CEC
330
18
100
AcDbEntity
  8
FERRO
 62
   250
100
AcDbLine
 10
1581.503344105788
 20
-623.4543550274231
 30
0.0
 11
1611.245592167804
 21
-623.4543550274233
 31
0.0
  0
LINE
  5
8CED
330
18
100
AcDbEntity
  8
FERRO
 62
   250
100
AcDbLine
 10
1573.602343242283
 20
-622.4562930119193
 30
0.0
 11
1605.540327738407
 21
-622.4562930119195
 31
0.0
  0
ARC
  5
8CF2
330
18
100
AcDbEntity
  8
FERRO
 62
   250
100
AcDbCircle
 10
1588.489778214315
 20
-653.2195112618625
 30
0.0
 40
1.996124031007745
100
AcDbArc
 50
179.9999999999997
 51
269.9999999999998
  0
LINE
  5
8CF3
330
18
100
AcDbEntity
  8
FERRO
 62
   250
100
AcDbLine
 10
1586.493654183307
 20
-650.1638477556761
 30
0.0
 11
1586.493654183307
 21
-653.2195112618625
 31
0.0
  0
ARC
  5
8CF5
330
18
100
AcDbEntity
  8
FERRO
 62
   250
100
AcDbCircle
 10
1581.503344105788
 20
-624.452417042927
 30
0.0
 40
0.9980620155038728
100
AcDbArc
 50
90.0
 51
180.0
  0
ARC
  5
8CF6
330
18
100
AcDbEntity
  8
FERRO
 62
   250
100
AcDbCircle
 10
1584.497530152299
 20
-640.9204402987409
 30
0.0
 40
8.483527131782741
100
AcDbArc
 50
61.9275130641467
 51
118.0724869358531
  0
ARC
  5
8CF7
330
18
100
AcDbEntity
  8
FERRO
 62
   250
100
AcDbCircle
 10
1584.497530152299
 20
-641.9185023142449
 30
0.0
 40
8.483527131782869
100
AcDbArc
 50
241.9275130641469
 51
298.0724869358531
  0
LINE
  5
8CF9
330
18
100
AcDbEntity
  8
FERRO
 62
   250
100
AcDbLine
 10
1580.505282090284
 20
-633.4349751824619
 30
0.0
 11
1580.505282090284
 21
-649.4039674305239
 31
0.0
  0
LINE
  5
8CFA
330
18
100
AcDbEntity
  8
FERRO
 62
   250
100
AcDbLine
 10
1580.505282090284
 20
-624.452417042927
 30
0.0
 11
1580.505282090284
 21
-632.436913166958
 31
0.0
  0
LINE
  5
8CFB
330
18
100
AcDbEntity
  8
FERRO
 62
   250
100
AcDbLine
 10
1588.489778214315
 20
-633.4349751824619
 30
0.0
 11
1588.489778214315
 21
-649.4039674305239
 31
0.0
  0
LINE
  5
8CFC
330
18
100
AcDbEntity
  8
FERRO
 62
   250
100
AcDbLine
 10
1586.383821241598
 20
-622.4915844192841
 30
0.0
 11
1586.383821241598
 21
-623.4543550274233
 31
0.0
  0
ARC
  5
8CFE
330
18
100
AcDbEntity
  8
FERRO
 62
   250
100
AcDbCircle
 10
1604.458770462377
 20
-653.2195112618627
 30
0.0
 40
1.996124031007745
100
AcDbArc
 50
269.9999999999997
 51
0.0
  0
LINE
  5
8CFF
330
18
100
AcDbEntity
  8
FERRO
 62
   250
100
AcDbLine
 10
1606.454894493385
 20
-650.1638477556761
 30
0.0
 11
1606.454894493385
 21
-653.2195112618627
 31
0.0
  0
LINE
  5
8D00
330
18
100
AcDbEntity
  8
FERRO
 62
   250
100
AcDbLine
 10
1612.443266586408
 20
-633.434975182462
 30
0.0
 11
1612.443266586408
 21
-649.403967430524
 31
0.0
  0
LINE
  5
8D01
330
18
100
AcDbEntity
  8
FERRO
 62
   250
100
AcDbLine
 10
1604.458770462377
 20
-633.4349751824619
 30
0.0
 11
1604.458770462377
 21
-649.403967430524
 31
0.0
  0
ARC
  5
8D02
330
18
100
AcDbEntity
  8
FERRO
 62
   250
100
AcDbCircle
 10
1608.451018524392
 20
-641.9185023142448
 30
0.0
 40
8.483527131782969
100
AcDbArc
 50
241.9275130641473
 51
298.0724869358531
  0
ARC
  5
8D03
330
18
100
AcDbEntity
  8
FERRO
 62
   250
100
AcDbCircle
 10
1608.451018524392
 20
-640.9204402987411
 30
0.0
 40
8.483527131782969
100
AcDbArc
 50
61.92751306414726
 51
118.0724869358527
  0
LINE
  5
8D04
330
18
100
AcDbEntity
  8
FERRO
 62
   250
100
AcDbLine
 10
1606.345061551675
 20
-622.4915844192841
 30
0.0
 11
1606.345061551675
 21
-623.4543550274233
 31
0.0
  0
LINE
  5
8D05
330
18
100
AcDbEntity
  8
FERRO
 62
   250
100
AcDbLine
 10
1612.443266586408
 20
-624.6520294460281
 30
0.0
 11
1612.443266586408
 21
-632.4369131669582
 31
0.0
  0
ARC
  5
8D06
330
18
100
AcDbEntity
  8
FERRO
 62
   250
100
AcDbCircle
 10
1611.245592167804
 20
-624.6520294460281
 30
0.0
 40
1.197674418604647
100
AcDbArc
 50
0.0
 51
89.99999999999976
  0
ARC
  5
8D07
330
18
100
AcDbEntity
  8
FERRO
 62
   250
100
AcDbCircle
 10
1609.583744077592
 20
-620.8946851944779
 30
0.0
 40
1.596899224806196
100
AcDbArc
 50
270.0
 51
0.0
  0
LINE
  5
8D08
102
{ACAD_REACTORS
330
A340
102
}
330
18
100
AcDbEntity
  8
FERRO
 62
   250
100
AcDbLine
 10
1576.596529288794
 20
-461.4719456041349
 30
0.0
 11
1611.52869983143
 21
-461.4719456041349
 31
0.0
  0
LINE
  5
8D09
330
18
100
AcDbEntity
  8
FERRO
 62
   250
100
AcDbLine
 10
1551.773235054835
 20
-532.6660030239355
 30
0.0
 11
1609.583744077592
 21
-532.6660030239355
 31
0.0
  0
LINE
  5
8D0A
330
18
100
AcDbEntity
  8
FERRO
 62
   250
100
AcDbLine
 10
1586.383821241597
 20
-534.6621270549433
 30
0.0
 11
1586.383821241597
 21
-461.4719456041349
 31
0.0
  0
LINE
  5
8D0B
102
{ACAD_REACTORS
330
8E15
102
}
330
18
100
AcDbEntity
  8
FERRO
 62
   250
100
AcDbLine
 10
1548.978661411424
 20
-567.3868666931473
 30
0.0
 11
1548.978661411424
 21
-521.4760139799692
 31
0.0
  0
LINE
  5
8D0C
102
{ACAD_REACTORS
330
A340
102
}
330
18
100
AcDbEntity
  8
FERRO
 62
   250
100
AcDbLine
 10
1576.596529288794
 20
-453.4874494801041
 30
0.0
 11
1545.156606808174
 21
-453.487449480104
 31
0.0
  0
LINE
  5
8D0D
330
18
100
AcDbEntity
  8
FERRO
 62
   250
100
AcDbLine
 10
1529.965095519951
 20
-508.5012077784189
 30
0.0
 11
1552.272266062587
 21
-508.501207778419
 31
0.0
  0
LINE
  5
8D0E
330
18
100
AcDbEntity
  8
FERRO
 62
   250
100
AcDbLine
 10
1527.769359085843
 20
-507.3035333598142
 30
0.0
 11
1553.469940481191
 21
-507.3035333598142
 31
0.0
  0
LINE
  5
8D0F
330
18
100
AcDbEntity
  8
FERRO
 62
   250
100
AcDbLine
 10
1528.268390093594
 20
-509.000238786171
 30
0.0
 11
1528.268390093594
 21
-513.9905488636903
 31
0.0
  0
LINE
  5
8D10
330
18
100
AcDbEntity
  8
FERRO
 62
   250
100
AcDbLine
 10
1528.754539741171
 20
-508.501207778419
 30
0.0
 11
1529.576473165704
 21
-514.0903550652406
 31
0.0
  0
LINE
  5
8D11
330
18
100
AcDbEntity
  8
FERRO
 62
   250
100
AcDbLine
 10
1529.965095519951
 20
-508.501207778419
 30
0.0
 11
1530.963157535455
 21
-515.2880294838452
 31
0.0
  0
LINE
  5
8D12
330
18
100
AcDbEntity
  8
FERRO
 62
   250
100
AcDbLine
 10
1527.769359085843
 20
-507.3035333598142
 30
0.0
 11
1527.769359085843
 21
-508.501207778419
 31
0.0
  0
LINE
  5
8D13
330
18
100
AcDbEntity
  8
FERRO
 62
   250
100
AcDbLine
 10
1527.769359085843
 20
-508.501207778419
 30
0.0
 11
1528.754539741171
 21
-508.501207778419
 31
0.0
  0
LINE
  5
8D14
330
18
100
AcDbEntity
  8
FERRO
 62
   250
100
AcDbLine
 10
1550.974785442432
 20
-519.4798899489614
 30
0.0
 11
1550.974785442432
 21
-509.4992697939228
 31
0.0
  0
LINE
  5
8D15
330
18
100
AcDbEntity
  8
FERRO
 62
   250
100
AcDbLine
 10
1552.272266062587
 20
-532.2550837474111
 30
0.0
 11
1552.272266062587
 21
-508.501207778419
 31
0.0
  0
LINE
  5
8D16
330
18
100
AcDbEntity
  8
FERRO
 62
   250
100
AcDbLine
 10
1553.469940481191
 20
-532.2550837474111
 30
0.0
 11
1553.469940481191
 21
-507.3035333598142
 31
0.0
  0
LINE
  5
8D17
330
18
100
AcDbEntity
  8
FERRO
 62
   250
100
AcDbLine
 10
1552.272266062587
 20
-532.2550837474111
 30
0.0
 11
1553.469940481191
 21
-532.2550837474111
 31
0.0
  0
LINE
  5
8D18
330
18
100
AcDbEntity
  8
FERRO
 62
   250
100
AcDbLine
 10
1550.974785442432
 20
-509.4992697939228
 30
0.0
 11
1551.773235054835
 21
-509.4992697939228
 31
0.0
  0
LINE
  5
8D19
330
18
100
AcDbEntity
  8
FERRO
 62
   250
100
AcDbLine
 10
1543.160482777167
 20
-451.4913254490961
 30
0.0
 11
1536.924219775059
 21
-451.4913254490962
 31
0.0
  0
ARC
  5
8D1A
330
18
100
AcDbEntity
  8
FERRO
 62
   250
100
AcDbCircle
 10
1534.928095744051
 20
-469.9554727359177
 30
0.0
 40
1.996124031007745
100
AcDbArc
 50
270.0000000000003
 51
0.0000000000000254
  0
LINE
  5
8D1B
102
{ACAD_REACTORS
330
A45C
102
}
330
18
100
AcDbEntity
  8
FERRO
 62
   250
100
AcDbLine
 10
1548.440911799021
 20
-474.3674868481861
 30
0.0
 11
1548.440911799021
 21
-455.4043085536129
 31
0.0
  0
LINE
  5
8D1C
102
{ACAD_REACTORS
330
A45C
102
}
330
18
100
AcDbEntity
  8
FERRO
 62
   250
100
AcDbLine
 10
1545.446725752509
 20
-471.373300801675
 30
0.0
 11
1545.446725752509
 21
-455.4043085536129
 31
0.0
  0
ARC
  5
8D1D
102
{ACAD_REACTORS
330
A45C
102
}
330
18
100
AcDbEntity
  8
FERRO
 62
   250
100
AcDbCircle
 10
1546.444787768013
 20
-474.3674868481861
 30
0.0
 40
1.996124031007745
100
AcDbArc
 50
270.0000000000001
 51
0.0
  0
ARC
  5
8D1E
102
{ACAD_REACTORS
330
A45C
102
}
330
18
100
AcDbEntity
  8
FERRO
 62
   250
100
AcDbCircle
 10
1543.450601721502
 20
-471.373300801675
 30
0.0
 40
1.996124031007745
100
AcDbArc
 50
270.0000000000001
 51
359.9999999999998
  0
LINE
  5
8D1F
102
{ACAD_REACTORS
330
A45C
102
}
330
18
100
AcDbEntity
  8
FERRO
 62
   250
100
AcDbLine
 10
1545.446725752509
 20
-455.4043085536129
 30
0.0
 11
1548.440911799021
 21
-455.4043085536129
 31
0.0
  0
LINE
  5
8D20
330
18
100
AcDbEntity
  8
FERRO
 62
   250
100
AcDbLine
 10
1545.156606808174
 20
-453.4874494801041
 30
0.0
 11
1545.156606808174
 21
-453.487449480104
 31
0.0
  0
ARC
  5
8D21
330
18
100
AcDbEntity
  8
FERRO
 62
   250
100
AcDbCircle
 10
1543.160482777167
 20
-453.487449480104
 30
0.0
 40
1.996124031007745
100
AcDbArc
 50
0.0000000000000649
 51
89.99999999999996
  0
ARC
  5
8D22
330
18
100
AcDbEntity
  8
FERRO
 62
   250
100
AcDbCircle
 10
1609.583744077592
 20
-534.2629022487416
 30
0.0
 40
1.596899224806196
100
AcDbArc
 50
359.9999999999999
 51
90.00000000000005
  0
LINE
  5
8D23
330
18
100
AcDbEntity
  8
FERRO
 62
   250
100
AcDbLine
 10
1606.345061551675
 20
-532.6660030239355
 30
0.0
 11
1606.345061551675
 21
-461.4719456041349
 31
0.0
  0
LINE
  5
8D24
330
18
100
AcDbEntity
  8
FERRO
 62
   250
100
AcDbLine
 10
1611.180643302398
 20
-562.6078634890519
 30
0.0
 11
1611.180643302398
 21
-534.2629022487416
 31
0.0
  0
LINE
  5
8D25
102
{ACAD_REACTORS
330
A340
102
}
330
18
100
AcDbEntity
  8
FERRO
 62
   250
100
AcDbLine
 10
1611.52869983143
 20
-411.5688448289413
 30
0.0
 11
1561.125599056236
 21
-411.5688448289413
 31
0.0
  0
ARC
  5
8D26
102
{ACAD_REACTORS
330
A45C
102
}
330
18
100
AcDbEntity
  8
FERRO
 62
   250
100
AcDbCircle
 10
1558.42153195406
 20
-360.5884170807451
 30
0.0
 40
1.996124031007745
100
AcDbArc
 50
0.0
 51
90.0
  0
ARC
  5
8D27
330
18
100
AcDbEntity
  8
FERRO
 62
   250
100
AcDbCircle
 10
1534.928095744051
 20
-404.0833797126624
 30
0.0
 40
1.996124031007745
100
AcDbArc
 50
0.0000000000000254
 51
90.00000000000035
  0
LINE
  5
8D28
330
18
100
AcDbEntity
  8
FERRO
 62
   250
100
AcDbLine
 10
1553.141102932205
 20
-403.5843487049104
 30
0.0
 11
1553.141102932205
 21
-401.5882246739026
 31
0.0
  0
ARC
  5
8D29
102
{ACAD_REACTORS
330
A340
102
}
330
18
100
AcDbEntity
  8
FERRO
 62
   250
100
AcDbCircle
 10
1540.166296730655
 20
-406.578534751422
 30
0.0
 40
4.990310077519364
100
AcDbArc
 50
0.0
 51
90.00000000000003
  0
LINE
  5
8D2A
330
18
100
AcDbEntity
  8
FERRO
 62
   250
100
AcDbLine
 10
1543.160482777166
 20
-422.5475269994839
 30
0.0
 11
1536.924219775059
 21
-422.5475269994839
 31
0.0
  0
ARC
  5
8D2B
102
{ACAD_REACTORS
330
A340
102
}
330
18
100
AcDbEntity
  8
FERRO
 62
   250
100
AcDbCircle
 10
1561.125599056236
 20
-403.5843487049104
 30
0.0
 40
7.984496124030982
100
AcDbArc
 50
180.0000000000001
 51
270.0
  0
LINE
  5
8D2C
330
18
100
AcDbEntity
  8
FERRO
 62
   250
100
AcDbLine
 10
1545.156606808174
 20
-420.5514029684762
 30
0.0
 11
1545.156606808174
 21
-411.5688448289413
 31
0.0
  0
ARC
  5
8D2D
330
18
100
AcDbEntity
  8
FERRO
 62
   250
100
AcDbCircle
 10
1543.160482777166
 20
-420.5514029684762
 30
0.0
 40
1.996124031007745
100
AcDbArc
 50
270.0
 51
0.0000000000000649
  0
LINE
  5
8D2E
330
18
100
AcDbEntity
  8
FERRO
 62
   250
100
AcDbLine
 10
1537.671141691895
 20
-389.6114804878562
 30
0.0
 11
1537.671141691895
 21
-378.6327983173136
 31
0.0
  0
LINE
  5
8D2F
330
18
100
AcDbEntity
  8
FERRO
 62
   250
100
AcDbLine
 10
1540.665327738407
 20
-389.6114804878562
 30
0.0
 11
1540.665327738407
 21
-378.6327983173136
 31
0.0
  0
LINE
  5
8D30
330
18
100
AcDbEntity
  8
FERRO
 62
   250
100
AcDbLine
 10
1531.682769598872
 20
-389.6114804878562
 30
0.0
 11
1531.682769598872
 21
-378.6327983173136
 31
0.0
  0
LINE
  5
8D31
330
18
100
AcDbEntity
  8
FERRO
 62
   250
100
AcDbLine
 10
1534.676955645384
 20
-389.6114804878562
 30
0.0
 11
1534.676955645384
 21
-378.6327983173136
 31
0.0
  0
LINE
  5
8D32
330
18
100
AcDbEntity
  8
FERRO
 62
   250
100
AcDbLine
 10
1528.68858355236
 20
-389.6114804878562
 30
0.0
 11
1528.68858355236
 21
-378.6327983173136
 31
0.0
  0
LINE
  5
8D33
330
18
100
AcDbEntity
  8
FERRO
 62
   250
100
AcDbLine
 10
1525.694397505849
 20
-389.6114804878562
 30
0.0
 11
1525.694397505849
 21
-378.6327983173136
 31
0.0
  0
LINE
  5
8D34
330
18
100
AcDbEntity
  8
FERRO
 62
   250
100
AcDbLine
 10
1550.645947893445
 20
-389.6114804878562
 30
0.0
 11
1550.645947893445
 21
-378.6327983173136
 31
0.0
  0
LINE
  5
8D35
330
18
100
AcDbEntity
  8
FERRO
 62
   250
100
AcDbLine
 10
1552.642071924453
 20
-389.6114804878562
 30
0.0
 11
1552.642071924453
 21
-378.6327983173136
 31
0.0
  0
LINE
  5
8D36
330
18
100
AcDbEntity
  8
FERRO
 62
   250
100
AcDbLine
 10
1554.139164947709
 20
-389.6114804878562
 30
0.0
 11
1554.139164947709
 21
-378.6327983173136
 31
0.0
  0
LINE
  5
8D37
330
18
100
AcDbEntity
  8
FERRO
 62
   250
100
AcDbLine
 10
1555.636257970965
 20
-389.611480487856
 30
0.0
 11
1555.636257970965
 21
-378.6327983173136
 31
0.0
  0
LINE
  5
8D38
330
18
100
AcDbEntity
  8
FERRO
 62
   250
100
AcDbLine
 10
1543.659513784919
 20
-389.6114804878562
 30
0.0
 11
1543.659513784919
 21
-378.6327983173136
 31
0.0
  0
LINE
  5
8D39
330
18
100
AcDbEntity
  8
FERRO
 62
   250
100
AcDbLine
 10
1546.154668823678
 20
-389.6114804878562
 30
0.0
 11
1546.154668823678
 21
-378.6327983173136
 31
0.0
  0
LINE
  5
8D3A
330
18
100
AcDbEntity
  8
FERRO
 62
   250
100
AcDbLine
 10
1548.649823862438
 20
-389.6114804878562
 30
0.0
 11
1548.649823862438
 21
-378.6327983173136
 31
0.0
  0
LINE
  5
8D3B
102
{ACAD_REACTORS
330
A45C
102
}
330
18
100
AcDbEntity
  8
FERRO
 62
   250
100
AcDbLine
 10
1557.423469938556
 20
-388.5341535148537
 30
0.0
 11
1557.423469938556
 21
-363.5826031272568
 31
0.0
  0
LINE
  5
8D3C
102
{ACAD_REACTORS
330
A45C
102
}
330
18
100
AcDbEntity
  8
FERRO
 62
   250
100
AcDbLine
 10
1560.417655985067
 20
-388.5341535148537
 30
0.0
 11
1560.417655985067
 21
-360.5884170807451
 31
0.0
  0
ARC
  5
8D3D
102
{ACAD_REACTORS
330
A340
102
}
330
18
100
AcDbEntity
  8
FERRO
 62
   250
100
AcDbCircle
 10
1545.156606808174
 20
-401.5882246739026
 30
0.0
 40
7.984496124030982
100
AcDbArc
 50
0.0
 51
86.98303869018394
  0
LINE
  5
8D3E
102
{ACAD_REACTORS
330
A340
102
}
330
18
100
AcDbEntity
  8
FERRO
 62
   250
100
AcDbLine
 10
1542.828080272173
 20
-391.607604518864
 30
0.0
 11
1553.640133939957
 21
-391.6076045188638
 31
0.0
  0
ARC
  5
8D3F
330
18
100
AcDbEntity
  8
FERRO
 62
   250
100
AcDbCircle
 10
1542.828080272173
 20
-393.1046975421198
 30
0.0
 40
1.497093023255809
100
AcDbArc
 50
19.20471295721829
 51
37.00920684444243
  0
LINE
  5
8D40
102
{ACAD_REACTORS
330
A340
102
}
330
18
100
AcDbEntity
  8
FERRO
 62
   250
100
AcDbLine
 10
1544.24185904405
 20
-392.6122372853754
 30
0.0
 11
1543.718031661452
 21
-391.6314825267899
 31
0.0
  0
ARC
  5
8D41
102
{ACAD_REACTORS
330
A340
102
}
330
18
100
AcDbEntity
  8
FERRO
 62
   250
100
AcDbCircle
 10
1545.655637815926
 20
-392.1197770286312
 30
0.0
 40
1.497093023255809
100
AcDbArc
 50
199.2047129572181
 51
266.983038690184
  0
ARC
  5
8D42
330
18
100
AcDbEntity
  8
FERRO
 62
   250
100
AcDbCircle
 10
1553.640133939957
 20
-389.611480487856
 30
0.0
 40
1.996124031007745
100
AcDbArc
 50
270.0000000000005
 51
0.0
  0
LINE
  5
8D43
102
{ACAD_REACTORS
330
A45C
102
}
330
18
100
AcDbEntity
  8
FERRO
 62
   250
100
AcDbLine
 10
1557.423469938556
 20
-388.5341535148537
 30
0.0
 11
1560.417655985067
 21
-388.5341535148537
 31
0.0
  0
ARC
  5
8D44
330
18
100
AcDbEntity
  8
FERRO
 62
   250
100
AcDbCircle
 10
1553.640133939957
 20
-378.6327983173136
 30
0.0
 40
1.996124031007745
100
AcDbArc
 50
359.9999999999997
 51
90.00000000000017
  0
ARC
  5
8D45
102
{ACAD_REACTORS
330
A45C
102
}
330
18
100
AcDbEntity
  8
FERRO
 62
   250
100
AcDbCircle
 10
1555.427345907548
 20
-363.5826031272568
 30
0.0
 40
1.996124031007745
100
AcDbArc
 50
0.0
 51
90.0000000000001
  0
INSERT
  5
8DD8
330
18
100
AcDbEntity
  8
ALLUMINIO
 62
     1
100
AcDbBlockReference
  2
WMF3
 10
668.4959233042757
 20
-188.290246797548
 30
0.0
 41
2.245639534883713
 42
2.245639534883713
 43
2.245639534883713
  0
INSERT
  5
8DD9
330
18
100
AcDbEntity
  8
ALLUMINIO
 62
     1
100
AcDbBlockReference
  2
WMF4
 10
662.9001315493505
 20
-192.016252429962
 30
0.0
 41
2.245639534883713
 42
2.245639534883713
 43
2.245639534883713
  0
SPLINE
  5
8E11
102
{ACAD_REACTORS
330
8E12
102
}
330
18
100
AcDbEntity
  8
FERRO
 62
   250
100
AcDbSpline
210
0.0
220
0.0
230
1.0
 70
  1064
 71
     3
 72
    14
 73
    10
 74
     8
 42
0.000000001
 43
0.0000000001
 44
0.0000000001
 40
0.0
 40
0.0
 40
0.0
 40
0.0
 40
0.7984496124036014
 40
8.908202522487943
 40
21.45967816068344
 40
34.54223542954313
 40
41.51422583996161
 40
53.00823388162552
 40
53.80668349402867
 40
53.80668349402867
 40
53.80668349402867
 40
53.80668349402867
 10
1499.773235054835
 20
-677.1966092653299
 30
0.0
 10
1500.040148362761
 20
-677.1904233113917
 30
0.0
 10
1503.018066776165
 20
-677.1214073965236
 30
0.0
 10
1509.505039161096
 20
-682.5199063318767
 30
0.0
 10
1520.755317324108
 20
-673.7311542930939
 30
0.0
 10
1530.885718591021
 20
-680.4186658280416
 30
0.0
 10
1541.673146411057
 20
-681.4748627663499
 30
0.0
 10
1547.399140125781
 20
-677.1312880254044
 30
0.0
 10
1551.506447250932
 20
-677.1926251473741
 30
0.0
 10
1551.773235054835
 20
-677.1966092653299
 30
0.0
 11
1499.773235054835
 21
-677.1966092653299
 31
0.0
 11
1500.571684667239
 21
-677.1966092653299
 31
0.0
 11
1508.261414676261
 21
-679.7726808192579
 31
0.0
 11
1520.438672431922
 21
-676.7306528364144
 31
0.0
 11
1533.050830402655
 21
-680.2072569286679
 31
0.0
 11
1540.009263794865
 21
-680.641831443736
 31
0.0
 11
1550.974785442432
 21
-677.1966092653299
 31
0.0
 11
1551.773235054835
 21
-677.1966092653299
 31
0.0
  0
HATCH
  5
8E12
330
18
100
AcDbEntity
  8
AREA166
 62
   166
100
AcDbHatch
 10
0.0
 20
0.0
 30
0.0
210
0.0
220
0.0
230
1.0
  2
HONEY,_O
 70
     0
 71
     1
 91
        1
 92
        5
 93
        4
 72
     4
 94
        3
 73
     0
 74
     0
 95
       12
 96
        8
 40
0.7984496124031699
 40
0.7984496124031699
 40
0.7984496124031699
 40
0.7984496124036014
 40
8.908202522487943
 40
21.45967816068344
 40
34.54223542954313
 40
41.51422583996161
 40
53.00823388162537
 40
53.00823388162537
 40
53.00823388162537
 40
53.00823388162552
 10
1500.571684667239
 20
-677.1966092653301
 10
1503.259427366368
 20
-677.3222691871906
 10
1509.505039161096
 20
-682.5199063318767
 10
1520.755317324108
 20
-673.7311542930939
 10
1530.885718591021
 20
-680.4186658280416
 10
1541.673146411057
 20
-681.4748627663499
 10
1547.161816043261
 20
-677.311315273356
 10
1550.974785442432
 20
-677.19660926533
 72
     1
 10
1550.974785442432
 20
-677.1966092653301
 11
1550.974785442432
 21
-569.3829907241551
 72
     1
 10
1550.974785442432
 20
-569.3829907241551
 11
1500.571684667238
 21
-569.3829907241551
 72
     1
 10
1500.571684667238
 20
-569.3829907241551
 11
1500.571684667238
 21
-677.1966092653298
 97
        4
330
8C92
330
8C9B
330
8E11
330
8CE1
 75
     1
 76
     1
 52
0.0
 41
1.399999999999999
 77
     0
 78
     3
 53
0.0
 43
-42.02905577161732
 44
0.0
 45
6.667499999999999
 46
3.849481999999999
 79
     2
 49
4.444999999999999
 49
-8.889999999999998
 53
120.0
 43
-42.02905577161732
 44
0.0
 45
-6.667499203410927
 46
3.849483379732746
 79
     2
 49
4.444999999999997
 49
-8.889999999999995
 53
60.0
 43
-42.02905577161732
 44
0.0
 45
0.0000007965890726
 46
7.698965379732743
 79
     2
 49
-8.889999999999998
 49
4.444999999999999
 47
1.104821592196026
 98
        1
 10
1515.561840109826
 20
-604.2256800443475
  0
LINE
  5
8E13
102
{ACAD_REACTORS
330
8E15
102
}
330
18
100
AcDbEntity
  8
FERRO
 62
   250
100
AcDbLine
 10
1500.571684667238
 20
-519.4798899489614
 30
0.0
 11
1500.571684667238
 21
-569.3829907241551
 31
0.0
  0
LINE
  5
8E14
102
{ACAD_REACTORS
330
8E15
102
}
330
18
100
AcDbEntity
  8
FERRO
 62
   250
100
AcDbLine
 10
1550.974785442432
 20
-519.4798899489614
 30
0.0
 11
1550.974785442432
 21
-569.3829907241551
 31
0.0
  0
HATCH
  5
8E15
330
18
100
AcDbEntity
  8
AREA166
 62
   250
100
AcDbHatch
 10
0.0
 20
0.0
 30
0.0
210
0.0
220
0.0
230
1.0
  2
SOLID
 70
     1
 71
     1
 91
        2
 92
        7
 72
     0
 73
     1
 93
        4
 10
1500.571684667238
 20
-569.3829907241551
 10
1550.974785442432
 20
-569.3829907241551
 10
1550.974785442432
 20
-519.4798899489614
 10
1500.571684667238
 20
-519.4798899489614
 97
        4
330
8C90
330
8E13
330
8C92
330
8E14
 92
       22
 72
     0
 73
     1
 93
        4
 10
1502.567808698246
 20
-521.4760139799692
 10
1548.978661411424
 20
-521.4760139799692
 10
1548.978661411424
 20
-567.3868666931473
 10
1502.567808698246
 20
-567.3868666931473
 97
        4
330
8C91
330
8D0B
330
8C93
330
8C9D
 75
     0
 76
     1
 47
0.7805578409277633
 98
        2
 10
1501.544656237028
 20
-554.9488364917943
 10
1501.544656237028
 20
-554.9488364917943
  0
INSERT
  5
8F1B
330
18
100
AcDbEntity
  8
AREA
 62
     1
100
AcDbBlockReference
  2
WMF3
 10
1173.742395918546
 20
394.8670251580704
 30
0.0
  0
INSERT
  5
8F1C
330
18
100
AcDbEntity
  8
AREA
 62
     1
100
AcDbBlockReference
  2
WMF4
 10
1171.250548198553
 20
393.2078071159339
 30
0.0
  0
INSERT
  5
8F1E
330
18
100
AcDbEntity
  8
AREA
 62
     1
100
AcDbBlockReference
  2
WMF3
 10
1173.869010405577
 20
396.9123355019608
 30
0.0
  0
INSERT
  5
8F1F
330
18
100
AcDbEntity
  8
AREA
 62
     1
100
AcDbBlockReference
  2
WMF4
 10
1171.377162685585
 20
395.2531174598243
 30
0.0
  0
INSERT
  5
8F20
330
18
100
AcDbEntity
  8
AREA
 62
     1
100
AcDbBlockReference
  2
WMF3
 10
1173.869010405577
 20
396.9123355019608
 30
0.0
  0
INSERT
  5
8F21
330
18
100
AcDbEntity
  8
AREA
 62
     1
100
AcDbBlockReference
  2
WMF4
 10
1171.377162685585
 20
395.2531174598243
 30
0.0
  0
INSERT
  5
9079
330
18
100
AcDbEntity
  8
AREA
 62
     1
100
AcDbBlockReference
  2
WMF3
 10
1038.937020049797
 20
-791.2034078923266
 30
0.0
  0
INSERT
  5
907A
330
18
100
AcDbEntity
  8
AREA
 62
     1
100
AcDbBlockReference
  2
WMF4
 10
1036.445172329804
 20
-792.862625934463
 30
0.0
  0
INSERT
  5
907C
330
18
100
AcDbEntity
  8
AREA
 62
     1
100
AcDbBlockReference
  2
WMF3
 10
1039.063634536828
 20
-789.1580975484361
 30
0.0
  0
INSERT
  5
907D
330
18
100
AcDbEntity
  8
AREA
 62
     1
100
AcDbBlockReference
  2
WMF4
 10
1036.571786816835
 20
-790.8173155905727
 30
0.0
  0
INSERT
  5
907E
330
18
100
AcDbEntity
  8
AREA
 62
     1
100
AcDbBlockReference
  2
WMF3
 10
1039.063634536828
 20
-789.1580975484361
 30
0.0
  0
INSERT
  5
907F
330
18
100
AcDbEntity
  8
AREA
 62
     1
100
AcDbBlockReference
  2
WMF4
 10
1036.571786816835
 20
-790.8173155905727
 30
0.0
  0
INSERT
  5
9E04
330
18
100
AcDbEntity
  8
AREA
 62
     1
100
AcDbBlockReference
  2
WMF3
 10
2060.696351223306
 20
-755.2071482055043
 30
0.0
  0
INSERT
  5
9E05
330
18
100
AcDbEntity
  8
AREA
 62
     1
100
AcDbBlockReference
  2
WMF4
 10
2058.204503503314
 20
-756.8663662476408
 30
0.0
  0
INSERT
  5
9E06
330
18
100
AcDbEntity
  8
AREA
 62
     1
100
AcDbBlockReference
  2
WMF3
 10
2060.822965710338
 20
-753.161837861614
 30
0.0
  0
INSERT
  5
9E07
330
18
100
AcDbEntity
  8
AREA
 62
     1
100
AcDbBlockReference
  2
WMF4
 10
2058.331117990345
 20
-754.8210559037504
 30
0.0
  0
INSERT
  5
9E08
330
18
100
AcDbEntity
  8
AREA
 62
     1
100
AcDbBlockReference
  2
WMF3
 10
2060.822965710338
 20
-753.161837861614
 30
0.0
  0
INSERT
  5
9E09
330
18
100
AcDbEntity
  8
AREA
 62
     1
100
AcDbBlockReference
  2
WMF4
 10
2058.331117990345
 20
-754.8210559037504
 30
0.0
  0
INSERT
  5
9E9C
330
18
100
AcDbEntity
  8
AREA
 62
     1
100
AcDbBlockReference
  2
WMF3
 10
2433.320275653887
 20
-673.3966400332365
 30
0.0
  0
INSERT
  5
9E9D
330
18
100
AcDbEntity
  8
AREA
 62
     1
100
AcDbBlockReference
  2
WMF4
 10
2430.828427933894
 20
-675.0558580753729
 30
0.0
  0
INSERT
  5
9FF9
330
18
100
AcDbEntity
  8
AREA
 62
     1
100
AcDbBlockReference
  2
WMF3
 10
1433.119821130344
 20
81.45757467739054
 30
0.0
 41
3.0
 42
3.0
 43
3.0
  0
INSERT
  5
9FFA
330
18
100
AcDbEntity
  8
AREA
 62
     1
100
AcDbBlockReference
  2
WMF4
 10
1425.644277970366
 20
76.47992055098121
 30
0.0
 41
3.0
 42
3.0
 43
3.0
  0
INSERT
  5
9FFB
330
18
100
AcDbEntity
  8
AREA
 62
     1
100
AcDbBlockReference
  2
WMF3
 10
1433.499664591438
 20
87.59350570906191
 30
0.0
 41
3.0
 42
3.0
 43
3.0
  0
INSERT
  5
9FFC
330
18
100
AcDbEntity
  8
AREA
 62
     1
100
AcDbBlockReference
  2
WMF4
 10
1426.02412143146
 20
82.61585158265257
 30
0.0
 41
3.0
 42
3.0
 43
3.0
  0
INSERT
  5
9FFD
330
18
100
AcDbEntity
  8
AREA
 62
     1
100
AcDbBlockReference
  2
WMF3
 10
1433.499664591438
 20
87.59350570906191
 30
0.0
 41
3.0
 42
3.0
 43
3.0
  0
INSERT
  5
9FFE
330
18
100
AcDbEntity
  8
AREA
 62
     1
100
AcDbBlockReference
  2
WMF4
 10
1426.02412143146
 20
82.61585158265257
 30
0.0
 41
3.0
 42
3.0
 43
3.0
  0
INSERT
  5
A091
330
18
100
AcDbEntity
  8
AREA
 62
     1
100
AcDbBlockReference
  2
WMF3
 10
2550.991594422086
 20
326.8890991941942
 30
0.0
 41
3.0
 42
3.0
 43
3.0
  0
INSERT
  5
A092
330
18
100
AcDbEntity
  8
AREA
 62
     1
100
AcDbBlockReference
  2
WMF4
 10
2543.516051262108
 20
321.9114450677848
 30
0.0
 41
3.0
 42
3.0
 43
3.0
  0
LEADER
  5
A0CF
330
18
100
AcDbEntity
  8
QUOTE
100
AcDbLeader
  3
STANDARD_WS
 73
     0
 75
     1
 40
13.33333333333333
 41
35.83333333333334
 76
     3
 10
1501.735052603385
 20
-547.0477140631064
 30
0.0
 10
1467.782664032139
 20
-573.4966417511111
 30
0.0
 10
1465.782664032139
 20
-573.4966417511111
 30
0.0
340
A0D0
213
-3.989173635407496
223
0.0
233
0.0
1001
ACAD
1000
DSTYLE
1002
{
1070
    40
1040
2.0
1070
    41
1040
1.0
1070
    42
1040
1.5
1070
    43
1040
10.0
1070
    44
1040
0.0
1070
   141
1040
2.0
1070
   147
1040
1.0
1070
   176
1070
   256
1070
   177
1070
   256
1070
   178
1070
   256
1070
   341
1005
A1E5
1070
   342
1005
A1E5
1002
}
  0
MTEXT
  5
A0D0
102
{ACAD_REACTORS
330
A0CF
102
}
330
18
100
AcDbEntity
  8
QUOTE
100
AcDbMText
 10
1467.771837667546
 20
-564.8299750844444
 30
0.0
 40
5.0
 41
0.0
 71
     6
 72
     1
  1
tubolare\P50x50x2
 73
     1
 44
1.0
1001
ACAD
1000
MTEXTBEGIN
1070
    73
1070
     1
1070
    44
1040
1.0
1070
    74
1070
     0
1000
MTEXTEND
  0
DIMENSION
  5
A0DD
330
18
100
AcDbEntity
  8
QUOTE
100
AcDbDimension
  2
*D3
 10
1551.773235054835
 20
-711.3264950955617
 30
0.0
 11
1525.773235054835
 21
-706.8264950955617
 31
0.0
 70
    32
 71
     5
 42
52.0
  3
STANDARD_WS
100
AcDbAlignedDimension
 13
1499.773235054835
 23
-677.1966092653299
 33
0.0
 14
1551.773235054835
 24
-677.1966092653299
 34
0.0
100
AcDbRotatedDimension
1001
ACAD
1000
DSTYLE
1002
{
1070
    40
1040
2.0
1070
    41
1040
1.0
1070
    42
1040
1.5
1070
    43
1040
10.0
1070
    44
1040
0.0
1070
   141
1040
2.0
1070
   147
1040
1.0
1070
   176
1070
   256
1070
   177
1070
   256
1070
   178
1070
   256
1070
   341
1005
A1E5
1070
   342
1005
A1E5
1002
}
  0
DIMENSION
  5
A10E
330
18
100
AcDbEntity
  8
QUOTE
100
AcDbDimension
  2
*D4
 10
1490.136544169076
 20
-476.3636108791943
 30
0.0
 11
1485.636544169076
 21
-494.3287271582637
 31
0.0
 70
    32
  1
35
 71
     5
 42
35.93023255813944
  3
STANDARD_WS
100
AcDbAlignedDimension
 13
1477.81587071375
 23
-512.2938434373337
 33
0.0
 14
1483.804242806773
 24
-476.3636108791943
 34
0.0
 50
90.0
100
AcDbRotatedDimension
1001
ACAD
1000
DSTYLE
1002
{
1070
    40
1040
2.0
1070
    41
1040
1.0
1070
    42
1040
1.5
1070
    43
1040
10.0
1070
    44
1040
0.0
1070
   141
1040
2.0
1070
   147
1040
1.0
1070
   176
1070
   256
1070
   177
1070
   256
1070
   178
1070
   256
1070
   341
1005
A1E5
1070
   342
1005
A1E5
1002
}
  0
DIMENSION
  5
A140
330
18
100
AcDbEntity
  8
QUOTE
100
AcDbDimension
  2
*D5
 10
1498.076529628478
 20
-537.8348505563098
 30
0.0
 11
1488.076550171114
 21
-533.3348505563098
 31
0.0
 70
    32
 71
     5
 42
19.99995891472849
  3
STANDARD_WS
100
AcDbAlignedDimension
 13
1478.07657071375
 23
-512.2938434373337
 33
0.0
 14
1498.076529628478
 24
-530.3874345533561
 34
0.0
100
AcDbRotatedDimension
1001
ACAD
1000
DSTYLE
1002
{
1070
    40
1040
2.0
1070
    41
1040
1.0
1070
    42
1040
1.5
1070
    43
1040
10.0
1070
    44
1040
0.0
1070
   141
1040
2.0
1070
   147
1040
1.0
1070
   176
1070
   256
1070
   177
1070
   256
1070
   178
1070
   256
1070
   341
1005
A1E5
1070
   342
1005
A1E5
1002
}
  0
DIMENSION
  5
A15B
330
18
100
AcDbEntity
  8
QUOTE
100
AcDbDimension
  2
*D6
 10
1574.533708847739
 20
-476.363610879194
 30
0.0
 11
1574.533708847739
 21
-491.8335721195042
 31
0.0
 70
   160
  1
30
 71
     5
 42
30.93992248062017
  3
STANDARD_WS
100
AcDbAlignedDimension
 13
1550.974785442432
 23
-507.3035333598142
 33
0.0
 14
1546.184087768013
 24
-476.363610879194
 34
0.0
 50
90.0
100
AcDbRotatedDimension
1001
ACAD
1000
DSTYLE
1002
{
1070
    40
1040
2.0
1070
    41
1040
1.0
1070
    42
1040
1.5
1070
    43
1040
10.0
1070
    44
1040
0.0
1070
   141
1040
2.0
1070
   147
1040
1.0
1070
   176
1070
   256
1070
   177
1070
   256
1070
   178
1070
   256
1070
   341
1005
A1E5
1070
   342
1005
A1E5
1002
}
  0
DIMENSION
  5
A19F
330
18
100
AcDbEntity
  8
QUOTE
100
AcDbDimension
  2
*D7
 10
1635.049174612683
 20
-358.5922930497373
 30
0.0
 11
1630.549174612683
 21
-417.4779519644655
 31
0.0
 70
    32
  1
115
 71
     5
 42
117.7713178294569
  3
STANDARD_WS
100
AcDbAlignedDimension
 13
1568.541460785724
 23
-476.3636108791942
 33
0.0
 14
1558.16083195406
 24
-358.5922930497373
 34
0.0
 50
90.0
100
AcDbRotatedDimension
1001
ACAD
1000
DSTYLE
1002
{
1070
    40
1040
2.0
1070
    41
1040
1.0
1070
    42
1040
1.5
1070
    43
1040
10.0
1070
    44
1040
0.0
1070
   141
1040
2.0
1070
   147
1040
1.0
1070
   176
1070
   256
1070
   177
1070
   256
1070
   178
1070
   256
1070
   341
1005
A1E5
1070
   342
1005
A1E5
1002
}
  0
LEADER
  5
A1B7
330
18
100
AcDbEntity
  8
QUOTE
100
AcDbLeader
  3
STANDARD_WS
 73
     0
 75
     1
 40
15.0
 41
123.3333333333333
 76
     3
 10
1508.647964259255
 20
-665.0982234764817
 30
0.0
 10
1476.077147160967
 20
-687.2416036284136
 30
0.0
 10
1474.077147160967
 20
-687.2416036284136
 30
0.0
340
A1B8
213
3.31072267571676
223
0.5559353882097185
233
0.0
1001
ACAD
1000
DSTYLE
1002
{
1070
    40
1040
2.0
1070
    41
1040
1.0
1070
    42
1040
1.5
1070
    43
1040
10.0
1070
    44
1040
0.0
1070
   141
1040
2.0
1070
   147
1040
1.0
1070
   176
1070
   256
1070
   177
1070
   256
1070
   178
1070
   256
1070
   341
1005
A1E5
1070
   342
1005
A1E5
1002
}
  0
MTEXT
  5
A1B8
102
{ACAD_REACTORS
330
A1B7
102
}
330
18
100
AcDbEntity
  8
QUOTE
100
AcDbMText
 10
1468.76642448525
 20
-678.2975390166234
 30
0.0
 40
5.0
 41
0.0
 71
     6
 72
     1
  1
MATERIALE INTERNO COIBENTE\PSp.50mm
 73
     1
 44
1.0
1001
ACAD
1000
MTEXTBEGIN
1070
    73
1070
     1
1070
    44
1040
1.0
1070
    74
1070
     0
1000
MTEXTEND
  0
LINE
  5
A249
102
{ACAD_REACTORS
330
A45C
102
}
330
18
100
AcDbEntity
  8
FERRO
100
AcDbLine
 10
1478.57657071375
 20
-428.4517891737681
 30
0.0
 11
1481.570756760262
 21
-428.4517891737681
 31
0.0
  0
LINE
  5
A24A
102
{ACAD_REACTORS
330
A45C
102
}
330
18
100
AcDbEntity
  8
FERRO
100
AcDbLine
 10
1478.57657071375
 20
-433.4517891737681
 30
0.0
 11
1481.570756760262
 21
-433.4517891737681
 31
0.0
  0
HATCH
  5
A2C9
330
18
100
AcDbEntity
  8
AREA166
 62
   250
100
AcDbHatch
 10
0.0
 20
0.0
 30
0.0
210
0.0
220
0.0
230
1.0
  2
ANSI35
 70
     0
 71
     0
 91
        1
 92
        7
 72
     0
 73
     1
 93
        4
 10
1478.07657071375
 20
-331.1808586976358
 10
1347.313802129946
 20
-331.1808586976358
 10
1347.486676757272
 20
-512.2938434373338
 10
1478.076570713749
 20
-512.2938434373338
 97
        0
 75
     0
 76
     1
 52
0.0
 41
3.0
 77
     0
 78
     2
 53
45.0
 43
-41.76835577161727
 44
0.0
 45
-13.47038418160372
 46
13.47038418160373
 79
     0
 53
45.0
 43
-28.29796577161728
 44
0.0
 45
-13.47038418160372
 46
13.47038418160373
 79
     4
 49
23.8125
 49
-4.762499999999999
 49
0.0
 49
-4.762499999999999
 47
2.076066806549162
 98
        1
 10
1444.967606913056
 20
-439.1363318678347
  0
HATCH
  5
A340
330
18
100
AcDbEntity
  8
AREA166
 62
   250
100
AcDbHatch
 10
0.0
 20
0.0
 30
0.0
210
0.0
220
0.0
230
1.0
  2
DOTS
 70
     0
 71
     1
 91
        5
 92
        7
 72
     0
 73
     1
 93
        4
 10
1576.596529288795
 20
-461.4719456041349
 10
1586.383821241598
 20
-461.4719456041349
 10
1586.383821241598
 20
-411.5688448289413
 10
1576.596529288794
 20
-411.5688448289413
 97
        4
330
8D25
330
8CD9
330
8D08
330
8CD7
 92
        7
 72
     1
 73
     1
 93
        5
 10
1576.596529288794
 20
-411.5688448289413
 42
0.0
 10
1561.125599056236
 20
-411.5688448289413
 42
-0.4142135623730966
 10
1553.141102932205
 20
-403.5843487049103
 42
0.0
 10
1553.141102932205
 20
-453.4874494801041
 42
0.0
 10
1576.596529288794
 20
-453.4874494801041
 42
0.0
 97
        5
330
8D25
330
8D2B
330
8CDA
330
8D0C
330
8CD9
 92
        7
 72
     1
 73
     1
 93
       14
 10
1545.156606808174
 20
-453.487449480104
 42
0.0
 10
1553.141102932205
 20
-453.4874494801041
 42
0.0
 10
1553.141102932205
 20
-401.5882246739027
 42
0.3988737611240997
 10
1545.576843446281
 20
-393.6147950778845
 42
-0.3046733485400872
 10
1544.24185904405
 20
-392.6122372853752
 42
0.0
 10
1543.705278264862
 20
-391.6076045188641
 42
0.0
 10
1542.828080272173
 20
-391.607604518864
 42
0.0
 10
1519.206994405074
 20
-391.607604518864
 42
0.0
 10
1519.206994405074
 20
-392.8690870607004
 42
-0.2134217652833973
 10
1518.707963397322
 20
-393.984954316914
 42
0.2134217652833791
 10
1518.20893238957
 20
-395.1008215731275
 42
0.0
 10
1518.20893238957
 20
-401.5882246739026
 42
0.0
 10
1540.166296730655
 20
-401.5882246739026
 42
-0.4142135623731052
 10
1545.156606808174
 20
-406.578534751422
 42
0.0
 97
       14
330
8D3D
330
8D41
330
8D40
330
8D3E
330
8C74
330
8CD2
330
8CD3
330
8CD4
330
8CD5
330
8C66
330
8D29
330
8CDD
330
8D0C
330
8CDA
 92
        7
 72
     0
 73
     1
 93
        4
 10
1586.383821241597
 20
-461.4719456041349
 10
1606.345061551675
 20
-461.4719456041349
 10
1606.345061551675
 20
-411.5688448289413
 10
1586.383821241597
 20
-411.5688448289413
 97
        4
330
8D25
330
8CD7
330
8D08
330
8CD8
 92
        7
 72
     0
 73
     1
 93
        4
 10
1611.52869983143
 20
-411.5688448289413
 10
1606.345061551675
 20
-411.5688448289413
 10
1606.345061551675
 20
-461.4719456041349
 10
1611.52869983143
 20
-461.4719456041349
 97
        4
330
8D25
330
8CD8
330
8D08
330
8CDB
 75
     0
 76
     1
 52
0.0
 41
2.0
 77
     0
 78
     1
 53
0.0
 43
-41.76835577161727
 44
0.0
 45
1.587499999999999
 46
3.174999999999999
 79
     2
 49
0.0
 49
-3.174999999999999
 47
0.5461588974502491
 98
        5
 10
1581.202129314733
 20
-441.670788120082
 10
1573.003140084153
 20
-438.393834420699
 10
1548.406176616252
 20
-431.2937682748816
 10
1592.13411354756
 20
-435.1168807213157
 10
1609.078688474866
 20
-435.1168807213157
  0
HATCH
  5
A353
330
18
100
AcDbEntity
  8
AREA166
 62
   250
100
AcDbHatch
 10
0.0
 20
0.0
 30
0.0
210
0.0
220
0.0
230
1.0
  2
DOTS
 70
     0
 71
     0
 91
        2
 92
        7
 72
     1
 73
     1
 93
        9
 10
1611.180643302398
 20
-562.6078634890518
 42
0.0
 10
1611.180643302398
 20
-534.2629022487417
 42
0.4142135623730958
 10
1609.583744077592
 20
-532.6660030239355
 42
0.0
 10
1586.383821241597
 20
-532.6660030239357
 42
0.0
 10
1586.383821241597
 20
-534.6621270549433
 42
0.0
 10
1586.383821241597
 20
-622.4915844192841
 42
0.0
 10
1606.190333224879
 20
-622.4915844192841
 42
0.0
 10
1609.583744077592
 20
-622.4915844192841
 42
0.4142135623730951
 10
1611.180643302398
 20
-620.8946851944779
 42
0.0
 97
        0
 92
        7
 72
     0
 73
     1
 93
        5
 10
1586.383821241597
 20
-534.6621270549433
 10
1586.383821241597
 20
-532.6660030239357
 10
1551.773235054835
 20
-532.6660030239355
 10
1551.773235054835
 20
-622.491584419284
 10
1586.383821241598
 20
-622.4915844192841
 97
        0
 75
     0
 76
     1
 52
0.0
 41
2.0
 77
     0
 78
     1
 53
0.0
 43
-41.26835577161727
 44
0.0
 45
1.587499999999999
 46
3.174999999999999
 79
     2
 49
0.0
 49
-3.174999999999999
 47
0.5461588974502491
 98
        2
 10
1608.485489206816
 20
-586.4028962521383
 10
1578.422533622501
 20
-582.5797838057042
  0
LINE
  5
A417
330
18
100
AcDbEntity
  8
FERRO
 62
   250
100
AcDbLine
 10
1609.345061551675
 20
-407.6842506503455
 30
0.0
 11
1609.345061551675
 21
-411.5688448289413
 31
0.0
  0
LINE
  5
A41C
330
18
100
AcDbEntity
  8
FERRO
100
AcDbLine
 10
1609.345061551675
 20
-407.6842506503455
 30
0.0
 11
1583.603487125017
 21
-407.6842506503455
 31
0.0
  0
LINE
  5
A41D
330
18
100
AcDbEntity
  8
FERRO
 62
   250
100
AcDbLine
 10
1583.603487125017
 20
-407.6842506503455
 30
0.0
 11
1583.603487125017
 21
-411.5688448289413
 31
0.0
  0
ARC
  5
A42B
330
18
100
AcDbEntity
  8
FERRO
 62
   250
100
AcDbCircle
 10
1483.312520326153
 20
-436.9401612667915
 30
0.0
 40
4.241763565891434
100
AcDbArc
 50
331.9275130641468
 51
28.07248693585313
  0
LINE
  5
A42E
330
18
100
AcDbEntity
  8
FERRO
 62
   250
100
AcDbLine
 10
1481.570756760262
 20
-438.936285297799
 30
0.0
 11
1487.055252884293
 21
-438.9362852977991
 31
0.0
  0
LINE
  5
A42F
330
18
100
AcDbEntity
  8
FERRO
 62
   250
100
AcDbLine
 10
1481.570756760262
 20
-426.9595411117526
 30
0.0
 11
1487.055252884293
 21
-426.9595411117526
 31
0.0
  0
LINE
  5
A430
330
18
100
AcDbEntity
  8
FERRO
 62
   250
100
AcDbLine
 10
1481.570756760262
 20
-422.9672930497371
 30
0.0
 11
1487.055252884293
 21
-422.9672930497371
 31
0.0
  0
LINE
  5
A431
330
18
100
AcDbEntity
  8
FERRO
 62
   250
100
AcDbLine
 10
1481.570756760262
 20
-434.9440372357836
 30
0.0
 11
1487.055252884293
 21
-434.9440372357836
 31
0.0
  0
ARC
  5
A433
330
18
100
AcDbEntity
  8
FERRO
 62
   250
100
AcDbCircle
 10
1471.335776140106
 20
-430.9517891737681
 30
0.0
 40
16.21850775193841
100
AcDbArc
 50
345.7499673021966
 51
14.25003269780293
  0
ARC
  5
A434
330
18
100
AcDbEntity
  8
FERRO
 62
   250
100
AcDbCircle
 10
1483.312520326153
 20
-424.963417080745
 30
0.0
 40
4.241763565891484
100
AcDbArc
 50
331.9275130641472
 51
28.07248693585313
  0
LINE
  5
A437
330
18
100
AcDbEntity
  8
FERRO
100
AcDbLine
 10
1487.554283892045
 20
-424.963417080745
 30
0.0
 11
1487.554283892045
 21
-436.9401612667915
 31
0.0
  0
HATCH
  5
A45C
330
18
100
AcDbEntity
  8
AREA166
100
AcDbHatch
 10
0.0
 20
0.0
 30
0.0
210
0.0
220
0.0
230
1.0
  2
SOLID
 70
     1
 71
     1
 91
        2
 92
        7
 72
     1
 73
     1
 93
       20
 10
1505.524245132354
 20
-363.5826031272567
 42
-0.4142135623731204
 10
1507.520369163362
 20
-361.586479096249
 42
0.0
 10
1555.427345907548
 20
-361.586479096249
 42
-0.4142135623730871
 10
1557.423469938556
 20
-363.5826031272567
 42
0.0
 10
1557.423469938556
 20
-388.5341535148537
 42
0.0
 10
1560.417655985067
 20
-388.5341535148537
 42
0.0
 10
1560.417655985067
 20
-360.588417080745
 42
0.4142135623730868
 10
1558.42153195406
 20
-358.5922930497373
 42
0.0
 10
1504.526183116851
 20
-358.5922930497373
 42
0.4142135623730868
 10
1502.530059085843
 20
-360.588417080745
 42
0.0
 10
1502.530059085843
 20
-383.5438434373342
 42
-0.4142135623731367
 10
1500.533935054835
 20
-385.539967468342
 42
0.0
 10
1480.572694744758
 20
-385.539967468342
 42
0.4142135623731201
 10
1478.57657071375
 20
-387.5360914993497
 42
0.0
 10
1478.57657071375
 20
-428.4517891737682
 42
0.0
 10
1481.570756760262
 20
-428.4517891737681
 42
0.0
 10
1481.570756760262
 20
-390.5302775458612
 42
-0.41421356237307
 10
1483.566880791269
 20
-388.5341535148537
 42
0.0
 10
1503.528121101347
 20
-388.5341535148537
 42
0.4142135623730868
 10
1505.524245132354
 20
-386.5380294838459
 42
0.0
 97
       20
330
8CC3
330
8C84
330
8D45
330
8D3B
330
8D43
330
8D3C
330
8D26
330
8C85
330
8CBB
330
8CC5
330
8CC6
330
8CBD
330
8CC1
330
8C98
330
A249
330
8C97
330
8CC0
330
8CBC
330
8CC4
330
8CD0
 92
        7
 72
     1
 73
     1
 93
       12
 10
1481.570756760262
 20
-433.4517891737682
 42
0.0
 10
1478.57657071375
 20
-433.451789173768
 42
0.0
 10
1478.57657071375
 20
-474.3674868481866
 42
0.4142135623731204
 10
1480.572694744758
 20
-476.3636108791943
 42
0.0
 10
1546.444787768013
 20
-476.363610879194
 42
0.4142135623730864
 10
1548.440911799021
 20
-474.3674868481863
 42
0.0
 10
1548.440911799021
 20
-455.4043085536129
 42
0.0
 10
1545.446725752509
 20
-455.404308553613
 42
0.0
 10
1545.446725752509
 20
-471.373300801675
 42
-0.4142135623731022
 10
1543.450601721502
 20
-473.3694248326826
 42
0.0
 10
1483.566880791269
 20
-473.3694248326826
 42
-0.414213562373087
 10
1481.570756760262
 20
-471.3733008016749
 42
0.0
 97
       12
330
A24A
330
8C98
330
8CA1
330
8C95
330
8D1D
330
8D1B
330
8D1F
330
8D1C
330
8D1E
330
8C94
330
8CA0
330
8C97
 75
     0
 76
     1
 47
0.4652814969495133
 98
        2
 10
1504.163927813099
 20
-380.2632976982477
 10
1480.415326818153
 20
-443.5415823275985
  0
LINE
  5
A45D
330
18
100
AcDbEntity
  8
FERRO
100
AcDbLine
 10
1487.554283892045
 20
-426.9595411117526
 30
0.0
 11
1489.253809754179
 21
-426.9595411117526
 31
0.0
  0
LINE
  5
A45E
330
18
100
AcDbEntity
  8
FERRO
100
AcDbLine
 10
1489.253809754179
 20
-426.9595411117526
 30
0.0
 11
1489.253809754179
 21
-434.9440372357835
 31
0.0
  0
LINE
  5
A45F
330
18
100
AcDbEntity
  8
FERRO
100
AcDbLine
 10
1487.554283892045
 20
-434.9440372357835
 30
0.0
 11
1489.253809754179
 21
-434.9440372357835
 31
0.0
  0
LINE
  5
A460
330
18
100
AcDbEntity
  8
FERRO
100
AcDbLine
 10
1489.253809754179
 20
-426.9595411117526
 30
0.0
 11
1490.003809754179
 21
-428.4595411117526
 31
0.0
  0
LINE
  5
A461
330
18
100
AcDbEntity
  8
FERRO
100
AcDbLine
 10
1490.003809754179
 20
-428.4595411117526
 30
0.0
 11
1490.003809754179
 21
-433.4440372357836
 31
0.0
  0
LINE
  5
A462
330
18
100
AcDbEntity
  8
FERRO
100
AcDbLine
 10
1489.253809754179
 20
-434.9440372357836
 30
0.0
 11
1490.003809754179
 21
-433.4440372357836
 31
0.0
  0
LINE
  5
A49B
330
18
100
AcDbEntity
  8
FERRO
  6
Continuous
 62
   250
100
AcDbLine
 10
1556.568567076813
 20
-397.4805519062572
 30
0.0
 11
1557.735021875443
 21
-410.8131912634223
 31
0.0
  0
LINE
  5
A49C
330
18
100
AcDbEntity
  8
FERRO
  6
Continuous
 62
   250
100
AcDbLine
 10
1546.031777239321
 20
-391.7816254172258
 30
0.0
 11
1546.197147894411
 21
-393.6718206542407
 31
0.0
  0
SPLINE
  5
A49F
330
18
100
AcDbEntity
  8
FERRO
 62
   250
100
AcDbSpline
210
0.0
220
0.0
230
1.0
 70
  1064
 71
     3
 72
     9
 73
     5
 74
     3
 42
0.000000001
 43
0.0000000001
 44
0.0000000001
 40
0.0
 40
0.0
 40
0.0
 40
0.0
 40
6.992894068003495
 40
10.61232496082149
 40
10.61232496082149
 40
10.61232496082149
 40
10.61232496082149
 10
1553.469940481191
 20
-677.7572731473271
 30
0.0
 10
1555.560410295282
 20
-676.4132390137041
 30
0.0
 10
1558.732880058468
 20
-674.3735503174737
 30
0.0
 10
1562.265207698288
 20
-675.2769077907747
 30
0.0
 10
1563.469940481191
 20
-675.5850061535929
 30
0.0
 11
1553.469940481191
 21
-677.7572731473271
 31
0.0
 11
1559.897601292646
 21
-675.0030502189481
 31
0.0
 11
1563.469940481191
 21
-675.5850061535929
 31
0.0
  0
LINE
  5
A4A0
330
18
100
AcDbEntity
  8
FERRO
  6
Continuous
 62
   250
100
AcDbLine
 10
1563.469940481192
 20
-622.4915844192841
 30
0.0
 11
1563.469940481191
 21
-675.5850061535929
 31
0.0
  0
LINE
  5
A4A1
330
18
100
AcDbEntity
  8
FERRO
  6
Continuous
 62
   250
100
AcDbLine
 10
1553.469940481191
 20
-622.491584419284
 30
0.0
 11
1553.469940481191
 21
-677.7572731473271
 31
0.0
  0
LINE
  5
A4CA
330
18
100
AcDbEntity
  8
FERRO
  6
Continuous
 62
   250
100
AcDbLine
 10
1563.469940481191
 20
-476.363610879194
 30
0.0
 11
1563.469940481191
 21
-532.6660030239355
 31
0.0
  0
LINE
  5
A4CB
330
18
100
AcDbEntity
  8
FERRO
  6
Continuous
 62
   250
100
AcDbLine
 10
1553.469940481192
 20
-476.363610879194
 30
0.0
 11
1553.469940481192
 21
-532.6660030239355
 31
0.0
  0
LINE
  5
A4CC
330
18
100
AcDbEntity
  8
FERRO
  6
Continuous
 62
   250
100
AcDbLine
 10
1556.568567076813
 20
-397.4805519062572
 30
0.0
 11
1546.031777239321
 21
-391.7816254172258
 31
0.0
  0
LINE
  5
A4CD
330
18
100
AcDbEntity
  8
FERRO
100
AcDbLine
 10
1563.469940481191
 20
-476.363610879194
 30
0.0
 11
1561.468535693782
 21
-453.4874494801041
 31
0.0
  0
LINE
  5
A4CE
330
18
100
AcDbEntity
  8
FERRO
100
AcDbLine
 10
1553.507993500274
 20
-477.2351683066706
 30
0.0
 11
1551.430337318349
 21
-453.4874494801039
 31
0.0
  0
MTEXT
  5
A513
102
{ACAD_REACTORS
330
A514
102
}
330
18
100
AcDbEntity
  8
QUOTE
100
AcDbMText
 10
1620.336493320774
 20
-512.9011359282453
 30
0.0
 40
5.0
 41
0.0
 71
     4
 72
     1
  1
asta cariglione\P{\fTimes New Roman|b0|i0|c0|p18;     (solo in caso di \P   portone manuale) }
 73
     1
 44
1.0
1001
ACAD
1000
MTEXTBEGIN
1070
    73
1070
     1
1070
    44
1040
1.0
1070
    74
1070
     0
1000
MTEXTEND
  0
LEADER
  5
A514
330
18
100
AcDbEntity
  8
QUOTE
100
AcDbLeader
  3
STANDARD_WS
 73
     0
 74
     0
 40
23.49795722182168
 41
64.16666666666666
 76
     2
 10
1563.469940481191
 20
-515.9374999999999
 30
0.0
 10
1618.336493320773
 20
-526.6501145391562
 30
0.0
340
A513
1001
ACAD
1000
DSTYLE
1002
{
1070
    40
1040
2.0
1070
    41
1040
1.0
1070
    42
1040
1.5
1070
    43
1040
10.0
1070
    44
1040
0.0
1070
   141
1040
2.0
1070
   147
1040
1.0
1070
   176
1070
   256
1070
   177
1070
   256
1070
   178
1070
   256
1070
   341
1005
A1E5
1070
   342
1005
A1E5
1002
}
  0
MTEXT
  5
A588
330
18
100
AcDbEntity
  8
QUOTE
 62
   140
100
AcDbMText
 10
1314.153685916297
 20
-707.5404772321334
 30
0.0
 40
12.0
 41
0.0
 71
     1
 72
     1
  1
{\C12;LATO ESTERNO}
 11
0.0000000000000001
 21
1.0
 31
0.0
 73
     1
 44
1.0
1001
ACAD
1000
MTEXTBEGIN
1070
    73
1070
     1
1070
    44
1040
1.0
1070
    74
1070
     0
1000
MTEXTEND
  0
MTEXT
  5
A589
330
18
100
AcDbEntity
  8
QUOTE
 62
   140
100
AcDbMText
 10
1669.545788608377
 20
-707.5404772321334
 30
0.0
 40
12.0
 41
0.0
 71
     1
 72
     1
  1
{\C12;LATO INTERNO}
 11
0.0000000000000001
 21
1.0
 31
0.0
 73
     1
 44
1.0
1001
ACAD
1000
MTEXTBEGIN
1070
    73
1070
     1
1070
    44
1040
1.0
1070
    74
1070
     0
1000
MTEXTEND
  0
HATCH
  5
A5C9
330
18
100
AcDbEntity
  8
AREA166
100
AcDbHatch
 10
0.0
 20
0.0
 30
0.0
210
0.0
220
0.0
230
1.0
  2
HOUND
 70
     0
 71
     0
 91
        3
 92
        5
 93
        4
 72
     1
 10
1563.469940481191
 20
-622.4915844192841
 11
1553.469940481191
 21
-622.4915844192841
 72
     1
 10
1553.469940481191
 20
-622.4915844192841
 11
1553.469940481191
 21
-677.7572731473274
 72
     4
 94
        3
 73
     0
 74
     0
 95
        9
 96
        5
 40
0.0
 40
0.0
 40
0.0
 40
0.0
 40
6.992894068003495
 40
10.61232496082149
 40
10.61232496082149
 40
10.61232496082149
 40
10.61232496082149
 10
1553.469940481191
 20
-677.7572731473271
 10
1555.560410295282
 20
-676.4132390137041
 10
1558.732880058468
 20
-674.3735503174737
 10
1562.265207698288
 20
-675.2769077907747
 10
1563.469940481191
 20
-675.5850061535929
 72
     1
 10
1563.469940481191
 20
-675.585006153593
 11
1563.469940481191
 21
-622.4915844192841
 97
        0
 92
        7
 72
     0
 73
     1
 93
        6
 10
1563.469940481191
 20
-476.3636108791929
 10
1561.468535693782
 20
-453.4874494801041
 10
1551.430337318349
 20
-453.4874494801041
 10
1553.469940481191
 20
-476.800220308279
 10
1553.469940481192
 20
-532.6660030239355
 10
1563.469940481192
 20
-532.6660030239355
 97
        0
 92
        7
 72
     1
 73
     1
 93
        6
 10
1556.568567076813
 20
-397.480551906257
 42
0.0
 10
1546.031777239321
 20
-391.7816254172258
 42
0.0
 10
1546.197147894411
 20
-393.6718206542407
 42
-0.3764326513371587
 10
1553.141102932205
 20
-401.5882246739026
 42
0.0
 10
1553.141102932205
 20
-403.5843487049104
 42
0.2908666095708124
 10
1557.735021875443
 20
-410.8131912634223
 42
0.0
 97
        0
 75
     0
 76
     1
 52
0.0
 41
2.5
 77
     0
 78
     2
 53
0.0
 43
0.0
 44
0.0
 45
15.875
 46
3.96875
 79
     2
 49
63.5
 49
-31.75
 53
90.0
 43
0.0
 44
0.0
 45
-3.96875
 46
-15.875
 79
     2
 49
63.5
 49
-31.75
 47
0.9070816616427597
 98
        3
 10
1558.819092099326
 20
-653.0491135404049
 10
1556.095640488081
 20
-516.0797821815294
 10
1555.18782258223
 20
-402.6945745462598
  0
LINE
  5
A5F4
102
{ACAD_REACTORS
330
AA56
102
}
330
18
100
AcDbEntity
  8
FERRO
100
AcDbLine
 10
1478.07657071375
 20
-476.363610879194
 30
0.0
 11
1478.07657071375
 21
-696.059412772264
 31
0.0
  0
LINE
  5
A5F5
102
{ACAD_REACTORS
330
AA56
102
}
330
18
100
AcDbEntity
  8
FERRO
100
AcDbLine
 10
1548.07657071375
 20
-476.363610879194
 30
0.0
 11
1548.07657071375
 21
-507.3035333598143
 31
0.0
  0
LINE
  5
A5F6
102
{ACAD_REACTORS
330
AA56
102
}
330
18
100
AcDbEntity
  8
FERRO
100
AcDbLine
 10
1548.07657071375
 20
-677.709845747717
 30
0.0
 11
1548.07657071375
 21
-695.4547739997281
 31
0.0
  0
LINE
  5
A5F7
102
{ACAD_REACTORS
330
AA56
102
}
330
18
100
AcDbEntity
  8
FERRO
100
AcDbLine
 10
1548.07657071375
 20
-476.363610879194
 30
0.0
 11
1478.07657071375
 21
-476.363610879194
 31
0.0
  0
SPLINE
  5
A5F8
102
{ACAD_REACTORS
330
AA56
102
}
330
18
100
AcDbEntity
  8
FERRO
 62
   250
100
AcDbSpline
210
0.0
220
0.0
230
1.0
 70
  1064
 71
     3
 72
    12
 73
     8
 74
     6
 42
0.000000001
 43
0.0000000001
 44
0.0000000001
 40
0.0
 40
0.0
 40
0.0
 40
0.0
 40
19.23541033748121
 40
32.3179676063409
 40
46.53848194208817
 40
58.04620890633465
 40
71.79305771479511
 40
71.79305771479511
 40
71.79305771479511
 40
71.79305771479511
 10
1478.07657071375
 20
-696.059412772264
 30
0.0
 10
1484.391551158894
 20
-693.6657117330421
 30
0.0
 10
1495.001531912108
 20
-689.6439855890406
 30
0.0
 10
1509.647623037596
 20
-696.3021893056224
 30
0.0
 10
1523.029276379719
 20
-697.3859849877755
 30
0.0
 10
1535.27051317958
 20
-690.4045523583338
 30
0.0
 10
1543.562814135748
 20
-693.6747202171034
 30
0.0
 10
1548.07657071375
 20
-695.4547739997281
 30
0.0
 11
1478.07657071375
 21
-696.059412772264
 31
0.0
 11
1496.865917595584
 21
-691.9409841149492
 31
0.0
 11
1509.478075566317
 21
-695.4175882072027
 31
0.0
 11
1523.691948119708
 21
-695.8521627222708
 31
0.0
 11
1534.671849031149
 21
-692.4069405438647
 31
0.0
 11
1548.07657071375
 21
-695.4547739997281
 31
0.0
  0
MTEXT
  5
AA1B
330
18
100
AcDbEntity
  8
QUOTE
100
AcDbMText
 10
1484.156979751956
 20
-582.258663742996
 30
0.0
 40
5.0
 41
0.0
 71
     3
 72
     1
  1
piantone laterale
 11
0.0000000000000001
 21
1.0
 31
0.0
 73
     1
 44
1.0
1001
ACAD
1000
MTEXTBEGIN
1070
    73
1070
     1
1070
    44
1040
1.0
1070
    74
1070
     0
1000
MTEXTEND
  0
LINE
  5
AA1C
102
{ACAD_REACTORS
330
AA56
102
}
330
18
100
AcDbEntity
  8
FERRO
  6
TRATTEGGIATA2
100
AcDbLine
 10
1480.07657071375
 20
-476.363610879194
 30
0.0
 11
1480.07657071375
 21
-695.3048453010909
 31
0.0
  0
LINE
  5
AA1D
102
{ACAD_REACTORS
330
AA56
102
}
330
18
100
AcDbEntity
  8
FERRO
  6
TRATTEGGIATA2
100
AcDbLine
 10
1546.07657071375
 20
-678.4317060931477
 30
0.0
 11
1546.07657071375
 21
-694.6732670414462
 31
0.0
  0
LINE
  5
AA1E
102
{ACAD_REACTORS
330
AA56
102
}
330
18
100
AcDbEntity
  8
FERRO
  6
TRATTEGGIATA2
100
AcDbLine
 10
1546.07657071375
 20
-476.363610879194
 30
0.0
 11
1546.07657071375
 21
-507.3035333598143
 31
0.0
  0
VIEWPORT
  5
32
102
{ACAD_XDICTIONARY
360
AACE
102
}
330
15
100
AcDbEntity
 67
     1
  8
0
100
AcDbViewport
 10
7.258166969147005
 20
4.25
 30
0.0
 40
14.51633393829401
 41
8.5
 68
     2
 69
     1
 12
7.258166969147005
 22
4.25
 13
0.0
 23
0.0
 14
10.0
 24
10.0
 15
10.0
 25
10.0
 16
0.0
 26
0.0
 36
1.0
 17
0.0
 27
0.0
 37
0.0
 42
50.0
 43
0.0
 44
0.0
 45
8.5
 50
0.0
 51
0.0
 72
   100
 90
    32800
  1

281
     0
 71
     1
 74
     0
110
0.0
120
0.0
130
0.0
111
1.0
121
0.0
131
0.0
112
0.0
122
1.0
132
0.0
 79
     0
146
0.0
  0
VIEWPORT
  5
35
102
{ACAD_XDICTIONARY
360
AAD0
102
}
330
15
100
AcDbEntity
 67
     1
  8
QUOTE
100
AcDbViewport
 10
5.5
 20
4.25
 30
0.0
 40
11.0
 41
8.5
 68
     1
 69
     2
 12
148.5
 22
105.0
 13
0.0
 23
0.0
 14
7.0
 24
7.0
 15
7.0
 25
7.0
 16
0.0
 26
0.0
 36
1.0
 17
0.0
 27
0.0
 37
0.0
 42
50.0
 43
0.0
 44
0.0
 45
234.0126404494382
 50
0.0
 51
0.0
 72
   100
 90
    32800
  1

281
     0
 71
     1
 74
     0
110
0.0
120
0.0
130
0.0
111
1.0
121
0.0
131
0.0
112
0.0
122
1.0
132
0.0
 79
     0
146
0.0
  0
ENDSEC
  0
SECTION
  2
OBJECTS
  0
DICTIONARY
  5
C
330
0
100
AcDbDictionary
281
     1
  3
ACAD_CIP_PREVIOUS_PRODUCT_INFO
350
AAAE
  3
ACAD_COLOR
350
AA8C
  3
ACAD_DETAILVIEWSTYLE
350
AAA5
  3
ACAD_GROUP
350
D
  3
ACAD_LAYOUT
350
A1BD
  3
ACAD_MATERIAL
350
AA5A
  3
ACAD_MLEADERSTYLE
350
AAA1
  3
ACAD_MLINESTYLE
350
1B
  3
ACAD_PLOTSETTINGS
350
A1BE
  3
ACAD_PLOTSTYLENAME
350
A1BB
  3
ACAD_SCALELIST
350
AA8F
  3
ACAD_SECTIONVIEWSTYLE
350
AAA3
  3
ACAD_TABLESTYLE
350
AA8D
  3
ACAD_VISUALSTYLE
350
AA73
  3
ACDB_RECOMPOSE_DATA
350
AACC
  3
ACDBVARIABLEDICTIONARY
350
36
  3
CONTENTDICTIONARY
350
23
  3
DWGPROPS
350
AACD
  0
DICTIONARY
  5
AAAF
330
E
100
AcDbDictionary
280
     1
281
     1
  3
ADSK_XREC_LAYER_RECONCILED
360
AAB0
  0
DICTIONARY
  5
AAB1
330
33
100
AcDbDictionary
280
     1
281
     1
  3
ADSK_XREC_LAYER_RECONCILED
360
AAB2
  0
DICTIONARY
  5
AAB3
330
42
100
AcDbDictionary
280
     1
281
     1
  3
ADSK_XREC_LAYER_RECONCILED
360
AAB4
  0
DICTIONARY
  5
AAB5
330
43
100
AcDbDictionary
280
     1
281
     1
  3
ADSK_XREC_LAYER_RECONCILED
360
AAB6
  0
DICTIONARY
  5
AAB7
330
59
100
AcDbDictionary
280
     1
281
     1
  3
ADSK_XREC_LAYER_RECONCILED
360
AAB8
  0
DICTIONARY
  5
AAB9
330
5AF
100
AcDbDictionary
280
     1
281
     1
  3
ADSK_XREC_LAYER_RECONCILED
360
AABA
  0
DICTIONARY
  5
AABB
330
185F
100
AcDbDictionary
280
     1
281
     1
  3
ADSK_XREC_LAYER_RECONCILED
360
AABC
  0
DICTIONARY
  5
AABD
330
2DBD
100
AcDbDictionary
280
     1
281
     1
  3
ADSK_XREC_LAYER_RECONCILED
360
AABE
  0
DICTIONARY
  5
AABF
330
2DBE
100
AcDbDictionary
280
     1
281
     1
  3
ADSK_XREC_LAYER_RECONCILED
360
AAC0
  0
DICTIONARY
  5
AACE
330
32
100
AcDbDictionary
280
     1
281
     1
  3
ACAD_XREC_ROUNDTRIP
360
AACF
  0
DICTIONARY
  5
AAD0
330
35
100
AcDbDictionary
280
     1
281
     1
  3
ACAD_XREC_ROUNDTRIP
360
AAD1
  0
XRECORD
  5
AAAE
102
{ACAD_REACTORS
330
C
102
}
330
C
100
AcDbXrecord
280
     1
300
ACDLT
300
2013
300
ACDLT_F_S
  0
DICTIONARY
  5
AA8C
102
{ACAD_REACTORS
330
C
102
}
330
C
100
AcDbDictionary
281
     1
  0
DICTIONARY
  5
AAA5
102
{ACAD_REACTORS
330
C
102
}
330
C
100
AcDbDictionary
281
     1
  3
Metric50
350
AAA6
  0
DICTIONARY
  5
D
102
{ACAD_REACTORS
330
C
102
}
330
C
100
AcDbDictionary
281
     1
  3
*A1
350
AA56
  0
DICTIONARY
  5
A1BD
102
{ACAD_REACTORS
330
C
102
}
330
C
100
AcDbDictionary
281
     1
  3
Layout1
350
A1C0
  3
Model
350
A1BF
  0
DICTIONARY
  5
AA5A
102
{ACAD_REACTORS
330
C
102
}
330
C
100
AcDbDictionary
281
     1
  3
ByBlock
350
AA63
  3
ByLayer
350
AA5B
  3
Global
350
AA6B
  0
DICTIONARY
  5
AAA1
102
{ACAD_REACTORS
330
C
102
}
330
C
100
AcDbDictionary
281
     1
  3
Standard
350
AAA2
  0
DICTIONARY
  5
1B
102
{ACAD_REACTORS
330
C
102
}
330
C
100
AcDbDictionary
281
     1
  3
STANDARD
350
1C
  0
DICTIONARY
  5
A1BE
102
{ACAD_REACTORS
330
C
102
}
330
C
100
AcDbDictionary
281
     1
  0
ACDBDICTIONARYWDFLT
  5
A1BB
102
{ACAD_REACTORS
330
C
102
}
330
C
100
AcDbDictionary
281
     1
  3
Normal
350
A1BC
100
AcDbDictionaryWithDefault
340
A1BC
  0
DICTIONARY
  5
AA8F
102
{ACAD_REACTORS
330
C
102
}
330
C
100
AcDbDictionary
281
     1
  3
A0
350
AA90
  3
A1
350
AA91
  3
A2
350
AA92
  3
A3
350
AA93
  3
A4
350
AA94
  3
A5
350
AA95
  3
A6
350
AA96
  3
A7
350
AA97
  3
A8
350
AA98
  3
A9
350
AA99
  3
B0
350
AA9A
  3
B1
350
AA9B
  3
B2
350
AA9C
  3
B3
350
AA9D
  3
B4
350
AA9E
  3
B5
350
AA9F
  3
B6
350
AAA0
  0
DICTIONARY
  5
AAA3
102
{ACAD_REACTORS
330
C
102
}
330
C
100
AcDbDictionary
281
     1
  3
Metric50
350
AAA4
  0
DICTIONARY
  5
AA8D
102
{ACAD_REACTORS
330
C
102
}
330
C
100
AcDbDictionary
281
     1
  3
Standard
350
AA8E
  0
DICTIONARY
  5
AA73
102
{ACAD_REACTORS
330
C
102
}
330
C
100
AcDbDictionary
281
     1
  3
2dWireframe
350
AA79
  3
Basic
350
AA78
  3
Brighten
350
AA7F
  3
ColorChange
350
AA83
  3
Conceptual
350
AA7C
  3
Dim
350
AA7E
  3
EdgeColorOff
350
AA8B
  3
Facepattern
350
AA82
  3
Flat
350
AA74
  3
FlatWithEdges
350
AA75
  3
Gouraud
350
AA76
  3
GouraudWithEdges
350
AA77
  3
Hidden
350
AA7B
  3
JitterOff
350
AA89
  3
Linepattern
350
AA81
  3
OverhangOff
350
AA8A
  3
Realistic
350
AA7D
  3
Shaded
350
AA88
  3
Shaded with edges
350
AA87
  3
Shades of Gray
350
AA84
  3
Sketchy
350
AA85
  3
Thicken
350
AA80
  3
Wireframe
350
AA7A
  3
X-Ray
350
AA86
  0
XRECORD
  5
AACC
102
{ACAD_REACTORS
330
C
102
}
330
C
100
AcDbXrecord
280
     1
 90
        1
330
AA8E
  0
DICTIONARY
  5
36
102
{ACAD_REACTORS
330
C
102
}
330
C
100
AcDbDictionary
281
     1
  3
CANNOSCALE
350
AAC5
  3
CMLEADERSTYLE
350
AAC2
  3
CTABLESTYLE
350
AAC1
  3
CVIEWDETAILSTYLE
350
AAC3
  3
CVIEWSECTIONSTYLE
350
AAC4
  3
DIMADEC
350
37
  3
DIMASSOC
350
AAC7
  3
INDEXCTL
350
AAC6
  3
SORTENTS
350
10E
  3
XCLIPFRAME
350
AAC8
  0
DICTIONARY
  5
23
102
{ACAD_REACTORS
330
C
102
}
330
C
100
AcDbDictionary
281
     1
  0
XRECORD
  5
AACD
102
{ACAD_REACTORS
330
C
102
}
330
C
100
AcDbXrecord
280
     1
  1
DWGPROPS COOKIE
  2

  3

  4

  6

  7

  8
demom
  9

300
=
301
=
302
=
303
=
304
=
305
=
306
=
307
=
308
=
309
=
 40
0.2300830555555556
 41
2451513.764827315
 42
2457730.483726123
  1

 90
        0
  0
XRECORD
  5
AAB0
102
{ACAD_REACTORS
330
AAAF
102
}
330
AAAF
100
AcDbXrecord
280
     1
290
     1
  0
XRECORD
  5
AAB2
102
{ACAD_REACTORS
330
AAB1
102
}
330
AAB1
100
AcDbXrecord
280
     1
290
     1
  0
XRECORD
  5
AAB4
102
{ACAD_REACTORS
330
AAB3
102
}
330
AAB3
100
AcDbXrecord
280
     1
290
     1
  0
XRECORD
  5
AAB6
102
{ACAD_REACTORS
330
AAB5
102
}
330
AAB5
100
AcDbXrecord
280
     1
290
     1
  0
XRECORD
  5
AAB8
102
{ACAD_REACTORS
330
AAB7
102
}
330
AAB7
100
AcDbXrecord
280
     1
290
     1
  0
XRECORD
  5
AABA
102
{ACAD_REACTORS
330
AAB9
102
}
330
AAB9
100
AcDbXrecord
280
     1
290
     1
  0
XRECORD
  5
AABC
102
{ACAD_REACTORS
330
AABB
102
}
330
AABB
100
AcDbXrecord
280
     1
290
     1
  0
XRECORD
  5
AABE
102
{ACAD_REACTORS
330
AABD
102
}
330
AABD
100
AcDbXrecord
280
     1
290
     1
  0
XRECORD
  5
AAC0
102
{ACAD_REACTORS
330
AABF
102
}
330
AABF
100
AcDbXrecord
280
     1
290
     1
  0
XRECORD
  5
AACF
102
{ACAD_REACTORS
330
AACE
102
}
330
AACE
100
AcDbXrecord
280
     1
102
SHADEPLOT
 70
     0
  0
XRECORD
  5
AAD1
102
{ACAD_REACTORS
330
AAD0
102
}
330
AAD0
100
AcDbXrecord
280
     1
102
SHADEPLOT
 70
     0
  0
ACDBDETAILVIEWSTYLE
  5
AAA6
102
{ACAD_REACTORS
330
AAA5
102
}
330
AAA5
100
AcDbModelDocViewStyle
 70
     0
  3
Metric50
290
     0
100
AcDbDetailViewStyle
 70
     0
 71
     0
 90
        3
 71
     1
340
F
 40
5.0
340
0
 40
5.0
300

 40
0.0
280
     1
 71
     2
340
14
 90
       25
 71
     3
340
F
 40
5.0
 90
        0
 40
15.0
 90
        1
300
%<\AcVar ViewDetailId>% (%<\AcVar ViewScale \f "%sn">%)
 71
     4
340
14
 90
       25
340
14
 90
       25
280
     0
  0
GROUP
  5
AA56
102
{ACAD_REACTORS
330
D
102
}
330
D
100
AcDbGroup
300

 70
     1
 71
     1
340
A5F8
340
AA1C
340
A5F4
340
AA1D
340
A5F6
340
A5F5
340
AA1E
340
A5F7
  0
LAYOUT
  5
A1C0
102
{ACAD_XDICTIONARY
360
AAD4
102
}
102
{ACAD_REACTORS
330
A1BD
102
}
330
A1BD
100
AcDbPlotSettings
  1

  2
EPSON Stylus COLOR 1520
  4

  6

 40
0.0
 41
0.0
 42
0.0
 43
0.0
 44
0.0
 45
0.0
 46
0.0
 47
0.0
 48
0.0
 49
0.0
140
0.0
141
0.0
142
1.0
143
1.0
 70
   688
 72
     0
 73
     0
 74
     5
  7
aclt.ctb
 75
    16
147
1.0
148
0.0
149
0.0
100
AcDbLayout
  1
Layout1
 70
     1
 71
     1
 10
0.0
 20
0.0
 11
11.0
 21
8.5
 12
0.0
 22
0.0
 32
0.0
 14
0.0
 24
0.0
 34
0.0
 15
11.0
 25
8.5
 35
0.0
146
0.0
 13
0.0
 23
0.0
 33
0.0
 16
1.0
 26
0.0
 36
0.0
 17
0.0
 27
1.0
 37
0.0
 76
     0
330
15
331
35
  0
LAYOUT
  5
A1BF
102
{ACAD_XDICTIONARY
360
AAD2
102
}
102
{ACAD_REACTORS
330
A1BD
102
}
330
A1BD
100
AcDbPlotSettings
  1

  2
HP LaserJet 4100 PCL 6
  4
A4
  6

 40
4.233333110809326
 41
4.910679340362548
 42
4.910659790039062
 43
4.23333740234375
 44
209.9733276367187
 45
296.9259948730469
 46
0.27
 47
14.72
 48
1300.087527047214
 49
-806.5952382327449
140
1700.659999301007
141
-289.8970897818431
142
1.0
143
2.0
 70
 11940
 72
     1
 73
     0
 74
     4
  7
aclt.ctb
 75
     0
147
0.5
148
-1300.087527047214
149
806.5952382327449
100
AcDbLayout
  1
Model
 70
     1
 71
     0
 10
0.0
 20
0.0
 11
12.0
 21
9.0
 12
0.0
 22
0.0
 32
0.0
 14
0.0
 24
0.0
 34
0.0
 15
0.0
 25
0.0
 35
0.0
146
0.0
 13
0.0
 23
0.0
 33
0.0
 16
1.0
 26
0.0
 36
0.0
 17
0.0
 27
1.0
 37
0.0
 76
     0
330
18
331
AA58
  0
MATERIAL
  5
AA63
102
{ACAD_XDICTIONARY
360
AA64
102
}
102
{ACAD_REACTORS
330
AA5A
102
}
330
AA5A
100
AcDbMaterial
  1
ByBlock
 72
     0
 43
0.0208333333333333
 43
0.0
 43
0.0
 43
0.0
 43
0.0
 43
0.0208333333333333
 43
0.0
 43
0.0
 43
0.0
 43
0.0
 43
1.0
 43
0.0
 43
0.0
 43
0.0
 43
0.0
 43
1.0
 77
     0
 47
0.0208333333333333
 47
0.0
 47
0.0
 47
0.0
 47
0.0
 47
0.0208333333333333
 47
0.0
 47
0.0
 47
0.0
 47
0.0
 47
1.0
 47
0.0
 47
0.0
 47
0.0
 47
0.0
 47
1.0
171
     0
 49
0.0208333333333333
 49
0.0
 49
0.0
 49
0.0
 49
0.0
 49
0.0208333333333333
 49
0.0
 49
0.0
 49
0.0
 49
0.0
 49
1.0
 49
0.0
 49
0.0
 49
0.0
 49
0.0
 49
1.0
175
     0
142
0.0208333333333333
142
0.0
142
0.0
142
0.0
142
0.0
142
0.0208333333333333
142
0.0
142
0.0
142
0.0
142
0.0
142
1.0
142
0.0
142
0.0
142
0.0
142
0.0
142
1.0
179
     0
144
0.0208333333333333
144
0.0
144
0.0
144
0.0
144
0.0
144
0.0208333333333333
144
0.0
144
0.0
144
0.0
144
0.0
144
1.0
144
0.0
144
0.0
144
0.0
144
0.0
144
1.0
147
0.0208333333333333
147
0.0
147
0.0
147
0.0
147
0.0
147
0.0208333333333333
147
0.0
147
0.0
147
0.0
147
0.0
147
1.0
147
0.0
147
0.0
147
0.0
147
0.0
147
1.0
  0
MATERIAL
  5
AA5B
102
{ACAD_XDICTIONARY
360
AA5C
102
}
102
{ACAD_REACTORS
330
AA5A
102
}
330
AA5A
100
AcDbMaterial
  1
ByLayer
 72
     0
 43
0.0208333333333333
 43
0.0
 43
0.0
 43
0.0
 43
0.0
 43
0.0208333333333333
 43
0.0
 43
0.0
 43
0.0
 43
0.0
 43
1.0
 43
0.0
 43
0.0
 43
0.0
 43
0.0
 43
1.0
 77
     0
 47
0.0208333333333333
 47
0.0
 47
0.0
 47
0.0
 47
0.0
 47
0.0208333333333333
 47
0.0
 47
0.0
 47
0.0
 47
0.0
 47
1.0
 47
0.0
 47
0.0
 47
0.0
 47
0.0
 47
1.0
171
     0
 49
0.0208333333333333
 49
0.0
 49
0.0
 49
0.0
 49
0.0
 49
0.0208333333333333
 49
0.0
 49
0.0
 49
0.0
 49
0.0
 49
1.0
 49
0.0
 49
0.0
 49
0.0
 49
0.0
 49
1.0
175
     0
142
0.0208333333333333
142
0.0
142
0.0
142
0.0
142
0.0
142
0.0208333333333333
142
0.0
142
0.0
142
0.0
142
0.0
142
1.0
142
0.0
142
0.0
142
0.0
142
0.0
142
1.0
179
     0
144
0.0208333333333333
144
0.0
144
0.0
144
0.0
144
0.0
144
0.0208333333333333
144
0.0
144
0.0
144
0.0
144
0.0
144
1.0
144
0.0
144
0.0
144
0.0
144
0.0
144
1.0
147
0.0208333333333333
147
0.0
147
0.0
147
0.0
147
0.0
147
0.0208333333333333
147
0.0
147
0.0
147
0.0
147
0.0
147
1.0
147
0.0
147
0.0
147
0.0
147
0.0
147
1.0
  0
MATERIAL
  5
AA6B
102
{ACAD_XDICTIONARY
360
AA6C
102
}
102
{ACAD_REACTORS
330
AA5A
102
}
330
AA5A
100
AcDbMaterial
  1
Global
 72
     0
 43
0.0208333333333333
 43
0.0
 43
0.0
 43
0.0
 43
0.0
 43
0.0208333333333333
 43
0.0
 43
0.0
 43
0.0
 43
0.0
 43
1.0
 43
0.0
 43
0.0
 43
0.0
 43
0.0
 43
1.0
 77
     0
 47
0.0208333333333333
 47
0.0
 47
0.0
 47
0.0
 47
0.0
 47
0.0208333333333333
 47
0.0
 47
0.0
 47
0.0
 47
0.0
 47
1.0
 47
0.0
 47
0.0
 47
0.0
 47
0.0
 47
1.0
171
     0
 49
0.0208333333333333
 49
0.0
 49
0.0
 49
0.0
 49
0.0
 49
0.0208333333333333
 49
0.0
 49
0.0
 49
0.0
 49
0.0
 49
1.0
 49
0.0
 49
0.0
 49
0.0
 49
0.0
 49
1.0
175
     0
142
0.0208333333333333
142
0.0
142
0.0
142
0.0
142
0.0
142
0.0208333333333333
142
0.0
142
0.0
142
0.0
142
0.0
142
1.0
142
0.0
142
0.0
142
0.0
142
0.0
142
1.0
179
     0
144
0.0208333333333333
144
0.0
144
0.0
144
0.0
144
0.0
144
0.0208333333333333
144
0.0
144
0.0
144
0.0
144
0.0
144
1.0
144
0.0
144
0.0
144
0.0
144
0.0
144
1.0
147
0.0208333333333333
147
0.0
147
0.0
147
0.0
147
0.0
147
0.0208333333333333
147
0.0
147
0.0
147
0.0
147
0.0
147
1.0
147
0.0
147
0.0
147
0.0
147
0.0
147
1.0
  0
MLEADERSTYLE
  5
AAA2
102
{ACAD_XDICTIONARY
360
AB0B
102
}
102
{ACAD_REACTORS
330
AAA1
102
}
330
AAA1
100
AcDbMLeaderStyle
170
     2
171
     1
172
     0
 90
        2
 40
0.0
 41
0.0
173
     1
 91
-1056964608
340
12
 92
       -2
290
     1
 42
2.0
291
     1
 43
0.36
  3
Standard
 44
4.0
300

342
F
174
     1
178
     6
175
     1
176
     0
 93
-1056964608
 45
4.0
292
     0
297
     0
 46
4.0
 94
-1056964608
 47
1.0
 49
1.0
140
1.0
293
     1
141
0.0
294
     1
177
     0
142
1.0
295
     0
296
     0
143
0.125
1001
ACAD_MLEADERVER
1070
     2
  0
MLINESTYLE
  5
1C
102
{ACAD_REACTORS
330
1B
102
}
330
1B
100
AcDbMlineStyle
  2
STANDARD
 70
     0
  3

 62
   256
 51
90.0
 52
90.0
 71
     2
 49
0.5
 62
   256
  6
BYLAYER
 49
-0.5
 62
   256
  6
BYLAYER
  0
ACDBPLACEHOLDER
  5
A1BC
102
{ACAD_REACTORS
330
A1BB
102
}
330
A1BB
  0
SCALE
  5
AA90
102
{ACAD_REACTORS
330
AA8F
102
}
330
AA8F
100
AcDbScale
 70
     0
300
1:1
140
1.0
141
1.0
290
     1
  0
SCALE
  5
AA91
102
{ACAD_REACTORS
330
AA8F
102
}
330
AA8F
100
AcDbScale
 70
     0
300
1:2
140
1.0
141
2.0
290
     0
  0
SCALE
  5
AA92
102
{ACAD_REACTORS
330
AA8F
102
}
330
AA8F
100
AcDbScale
 70
     0
300
1:4
140
1.0
141
4.0
290
     0
  0
SCALE
  5
AA93
102
{ACAD_REACTORS
330
AA8F
102
}
330
AA8F
100
AcDbScale
 70
     0
300
1:5
140
1.0
141
5.0
290
     0
  0
SCALE
  5
AA94
102
{ACAD_REACTORS
330
AA8F
102
}
330
AA8F
100
AcDbScale
 70
     0
300
1:8
140
1.0
141
8.0
290
     0
  0
SCALE
  5
AA95
102
{ACAD_REACTORS
330
AA8F
102
}
330
AA8F
100
AcDbScale
 70
     0
300
1:10
140
1.0
141
10.0
290
     0
  0
SCALE
  5
AA96
102
{ACAD_REACTORS
330
AA8F
102
}
330
AA8F
100
AcDbScale
 70
     0
300
1:16
140
1.0
141
16.0
290
     0
  0
SCALE
  5
AA97
102
{ACAD_REACTORS
330
AA8F
102
}
330
AA8F
100
AcDbScale
 70
     0
300
1:20
140
1.0
141
20.0
290
     0
  0
SCALE
  5
AA98
102
{ACAD_REACTORS
330
AA8F
102
}
330
AA8F
100
AcDbScale
 70
     0
300
1:30
140
1.0
141
30.0
290
     0
  0
SCALE
  5
AA99
102
{ACAD_REACTORS
330
AA8F
102
}
330
AA8F
100
AcDbScale
 70
     0
300
1:40
140
1.0
141
40.0
290
     0
  0
SCALE
  5
AA9A
102
{ACAD_REACTORS
330
AA8F
102
}
330
AA8F
100
AcDbScale
 70
     0
300
1:50
140
1.0
141
50.0
290
     0
  0
SCALE
  5
AA9B
102
{ACAD_REACTORS
330
AA8F
102
}
330
AA8F
100
AcDbScale
 70
     0
300
1:100
140
1.0
141
100.0
290
     0
  0
SCALE
  5
AA9C
102
{ACAD_REACTORS
330
AA8F
102
}
330
AA8F
100
AcDbScale
 70
     0
300
2:1
140
2.0
141
1.0
290
     0
  0
SCALE
  5
AA9D
102
{ACAD_REACTORS
330
AA8F
102
}
330
AA8F
100
AcDbScale
 70
     0
300
4:1
140
4.0
141
1.0
290
     0
  0
SCALE
  5
AA9E
102
{ACAD_REACTORS
330
AA8F
102
}
330
AA8F
100
AcDbScale
 70
     0
300
8:1
140
8.0
141
1.0
290
     0
  0
SCALE
  5
AA9F
102
{ACAD_REACTORS
330
AA8F
102
}
330
AA8F
100
AcDbScale
 70
     0
300
10:1
140
10.0
141
1.0
290
     0
  0
SCALE
  5
AAA0
102
{ACAD_REACTORS
330
AA8F
102
}
330
AA8F
100
AcDbScale
 70
     0
300
100:1
140
100.0
141
1.0
290
     0
  0
ACDBSECTIONVIEWSTYLE
  5
AAA4
102
{ACAD_REACTORS
330
AAA3
102
}
330
AAA3
100
AcDbModelDocViewStyle
 70
     0
  3
Metric50
290
     0
100
AcDbSectionViewStyle
 70
     0
 71
     0
 90
      102
 71
     1
340
F
 40
5.0
340
0
340
0
 40
5.0
300
I, O, Q, S, X, Z
 40
10.0
 90
        0
 40
2.5
 90
        0
 71
     2
340
14
 90
       25
340
14
 90
       50
 40
5.0
 40
2.5
 40
5.0
 71
     3
340
F
 40
5.0
 90
        0
 40
15.0
 90
        1
300
%<\AcVar ViewSectionStartId>%-%<\AcVar ViewSectionEndId>% (%<\AcVar ViewScale \f "%sn">%)
 71
     4
300
ANSI31
 40
1.0
 90
        0
290
     0
290
     0
 90
        6
 40
0.0
 40
1.570796326794896
 40
0.2617993877991494
 40
1.308996938995747
 40
-0.2617993877991494
 40
1.832595714594046
  0
TABLESTYLE
  5
AA8E
102
{ACAD_XDICTIONARY
360
AACA
102
}
102
{ACAD_REACTORS
330
AA8D
102
}
330
AA8D
100
AcDbTableStyle
  3
Standard
 70
     0
 71
     0
 40
1.5
 41
1.5
280
     0
281
     0
  7
STANDARD
140
4.5
170
     2
 62
     0
 63
     7
283
     0
274
    -2
284
     1
 64
     0
275
    -2
285
     1
 65
     0
276
    -2
286
     1
 66
     0
277
    -2
287
     1
 67
     0
278
    -2
288
     1
 68
     0
279
    -2
289
     1
 69
     0
  7
STANDARD
140
6.0
170
     5
 62
     0
 63
     7
283
     0
274
    -2
284
     1
 64
     0
275
    -2
285
     1
 65
     0
276
    -2
286
     1
 66
     0
277
    -2
287
     1
 67
     0
278
    -2
288
     1
 68
     0
279
    -2
289
     1
 69
     0
  7
STANDARD
140
4.5
170
     5
 62
     0
 63
     7
283
     0
274
    -2
284
     1
 64
     0
275
    -2
285
     1
 65
     0
276
    -2
286
     1
 66
     0
277
    -2
287
     1
 67
     0
278
    -2
288
     1
 68
     0
279
    -2
289
     1
 69
     0
  0
VISUALSTYLE
  5
AA79
102
{ACAD_XDICTIONARY
360
AAE3
102
}
102
{ACAD_REACTORS
330
AA73
102
}
330
AA73
100
AcDbVisualStyle
  2
2dWireframe
 70
     4
 71
     0
 72
     2
 73
     0
 90
        0
 40
-0.6
 41
-30.0
 62
     5
 63
     7
 74
     1
 91
        4
 64
     7
 65
   257
 75
     1
175
     1
 42
1.0
 92
        0
 66
   257
 43
1.0
 76
     1
 77
     6
 78
     2
 67
     7
 79
     5
170
     0
171
     0
290
     0
174
     0
 93
        1
 44
0.0
173
     0
291
     0
 45
0.0
1001
ACAD
1000
AcDbSavedByObjectVersion
1070
     0
  0
VISUALSTYLE
  5
AA78
102
{ACAD_XDICTIONARY
360
AAE1
102
}
102
{ACAD_REACTORS
330
AA73
102
}
330
AA73
100
AcDbVisualStyle
  2
Basic
 70
     7
 71
     1
 72
     0
 73
     1
 90
        0
 40
-0.6
 41
-30.0
 62
     5
 63
     7
 74
     0
 91
        4
 64
     7
 65
   257
 75
     1
175
     1
 42
1.0
 92
        8
 66
     7
 43
1.0
 76
     1
 77
     6
 78
     2
 67
     7
 79
     5
170
     0
171
     0
290
     0
174
     0
 93
        1
 44
0.0
173
     0
291
     1
 45
0.0
1001
ACAD
1000
AcDbSavedByObjectVersion
1070
     0
  0
VISUALSTYLE
  5
AA7F
102
{ACAD_XDICTIONARY
360
AAEF
102
}
102
{ACAD_REACTORS
330
AA73
102
}
330
AA73
100
AcDbVisualStyle
  2
Brighten
 70
    12
 71
     2
 72
     2
 73
     0
 90
        0
 40
-0.6
 41
-30.0
 62
     5
 63
     7
 74
     1
 91
        4
 64
     7
 65
   257
 75
     1
175
     1
 42
1.0
 92
        8
 66
     7
 43
1.0
 76
     1
 77
     6
 78
     2
 67
     7
 79
     5
170
     0
171
     0
290
     0
174
     0
 93
        1
 44
50.0
173
     0
291
     1
 45
0.0
1001
ACAD
1000
AcDbSavedByObjectVersion
1070
     0
  0
VISUALSTYLE
  5
AA83
102
{ACAD_XDICTIONARY
360
AAF7
102
}
102
{ACAD_REACTORS
330
AA73
102
}
330
AA73
100
AcDbVisualStyle
  2
ColorChange
 70
    16
 71
     2
 72
     2
 73
     3
 90
        0
 40
-0.6
 41
-30.0
 62
     5
 63
     8
 74
     1
 91
        4
 64
     7
 65
   257
 75
     1
175
     1
 42
1.0
 92
        8
 66
     8
 43
1.0
 76
     1
 77
     6
 78
     2
 67
     7
 79
     5
170
     0
171
     0
290
     0
174
     0
 93
        1
 44
0.0
173
     0
291
     1
 45
0.0
1001
ACAD
1000
AcDbSavedByObjectVersion
1070
     0
  0
VISUALSTYLE
  5
AA7C
102
{ACAD_XDICTIONARY
360
AAE9
102
}
102
{ACAD_REACTORS
330
AA73
102
}
330
AA73
100
AcDbVisualStyle
  2
Conceptual
 70
     9
 71
     3
 72
     2
 73
     0
 90
        0
 40
-0.6
 41
-30.0
 62
     5
 63
     7
 74
     2
 91
        2
 64
     7
 65
   257
 75
     1
175
     1
 42
179.0
 92
        8
 66
     7
 43
1.0
 76
     1
 77
     6
 78
     2
 67
     7
 79
     3
170
     0
171
     0
290
     0
174
     0
 93
        1
 44
0.0
173
     0
291
     0
 45
0.0
1001
ACAD
1000
AcDbSavedByObjectVersion
1070
     0
  0
VISUALSTYLE
  5
AA7E
102
{ACAD_XDICTIONARY
360
AAED
102
}
102
{ACAD_REACTORS
330
AA73
102
}
330
AA73
100
AcDbVisualStyle
  2
Dim
 70
    11
 71
     2
 72
     2
 73
     0
 90
        0
 40
-0.6
 41
-30.0
 62
     5
 63
     7
 74
     1
 91
        4
 64
     7
 65
   257
 75
     1
175
     1
 42
1.0
 92
        8
 66
     7
 43
1.0
 76
     1
 77
     6
 78
     2
 67
     7
 79
     5
170
     0
171
     0
290
     0
174
     0
 93
        1
 44
-50.0
173
     0
291
     1
 45
0.0
1001
ACAD
1000
AcDbSavedByObjectVersion
1070
     0
  0
VISUALSTYLE
  5
AA8B
102
{ACAD_XDICTIONARY
360
AB07
102
}
102
{ACAD_REACTORS
330
AA73
102
}
330
AA73
100
AcDbVisualStyle
  2
EdgeColorOff
 70
    22
 71
     2
 72
     2
 73
     0
 90
        0
 40
-0.6
 41
-30.0
 62
     5
 63
     7
 74
     1
 91
        4
 64
     7
 65
   257
 75
     1
175
     1
 42
1.0
 92
        8
 66
     7
 43
1.0
 76
     1
 77
     6
 78
     2
 67
     7
 79
     5
170
     0
171
     0
290
     0
174
     0
 93
        1
 44
0.0
173
     0
291
     1
 45
0.0
1001
ACAD
1000
AcDbSavedByObjectVersion
1070
     0
  0
VISUALSTYLE
  5
AA82
102
{ACAD_XDICTIONARY
360
AAF5
102
}
102
{ACAD_REACTORS
330
AA73
102
}
330
AA73
100
AcDbVisualStyle
  2
Facepattern
 70
    15
 71
     2
 72
     2
 73
     0
 90
        0
 40
-0.6
 41
-30.0
 62
     5
 63
     7
 74
     1
 91
        4
 64
     7
 65
   257
 75
     1
175
     1
 42
1.0
 92
        8
 66
     7
 43
1.0
 76
     1
 77
     6
 78
     2
 67
     7
 79
     5
170
     0
171
     0
290
     0
174
     0
 93
        1
 44
0.0
173
     0
291
     1
 45
0.0
1001
ACAD
1000
AcDbSavedByObjectVersion
1070
     0
  0
VISUALSTYLE
  5
AA74
102
{ACAD_XDICTIONARY
360
AAD9
102
}
102
{ACAD_REACTORS
330
AA73
102
}
330
AA73
100
AcDbVisualStyle
  2
Flat
 70
     0
 71
     2
 72
     1
 73
     1
 90
        2
 40
-0.6
 41
30.0
 62
     5
 63
     7
 74
     0
 91
        0
 64
     7
 65
   257
 75
     1
175
     1
 42
1.0
 92
        8
 66
     7
 43
1.0
 76
     1
 77
     6
 78
     2
 67
     7
 79
     5
170
     0
171
     0
290
     0
174
     0
 93
       13
 44
0.0
173
     0
291
     1
 45
0.0
1001
ACAD
1000
AcDbSavedByObjectVersion
1070
     0
  0
VISUALSTYLE
  5
AA75
102
{ACAD_XDICTIONARY
360
AADB
102
}
102
{ACAD_REACTORS
330
AA73
102
}
330
AA73
100
AcDbVisualStyle
  2
FlatWithEdges
 70
     1
 71
     2
 72
     1
 73
     1
 90
        2
 40
-0.6
 41
30.0
 62
     5
 63
     7
 74
     1
 91
        0
 64
     7
 65
   257
 75
     1
175
     1
 42
1.0
 92
        0
 66
   257
 43
1.0
 76
     1
 77
     6
 78
     2
 67
     7
 79
     5
170
     0
171
     0
290
     0
174
     0
 93
       13
 44
0.0
173
     0
291
     1
 45
0.0
1001
ACAD
1000
AcDbSavedByObjectVersion
1070
     0
  0
VISUALSTYLE
  5
AA76
102
{ACAD_XDICTIONARY
360
AADD
102
}
102
{ACAD_REACTORS
330
AA73
102
}
330
AA73
100
AcDbVisualStyle
  2
Gouraud
 70
     2
 71
     2
 72
     2
 73
     1
 90
        2
 40
-0.6
 41
30.0
 62
     5
 63
     7
 74
     0
 91
        0
 64
     7
 65
   257
 75
     1
175
     1
 42
1.0
 92
        0
 66
     7
 43
1.0
 76
     1
 77
     6
 78
     2
 67
     7
 79
     5
170
     0
171
     0
290
     0
174
     0
 93
       13
 44
0.0
173
     0
291
     1
 45
0.0
1001
ACAD
1000
AcDbSavedByObjectVersion
1070
     0
  0
VISUALSTYLE
  5
AA77
102
{ACAD_XDICTIONARY
360
AADF
102
}
102
{ACAD_REACTORS
330
AA73
102
}
330
AA73
100
AcDbVisualStyle
  2
GouraudWithEdges
 70
     3
 71
     2
 72
     2
 73
     1
 90
        2
 40
-0.6
 41
30.0
 62
     5
 63
     7
 74
     1
 91
        0
 64
     7
 65
   257
 75
     1
175
     1
 42
1.0
 92
        0
 66
   257
 43
1.0
 76
     1
 77
     6
 78
     2
 67
     7
 79
     5
170
     0
171
     0
290
     0
174
     0
 93
       13
 44
0.0
173
     0
291
     1
 45
0.0
1001
ACAD
1000
AcDbSavedByObjectVersion
1070
     0
  0
VISUALSTYLE
  5
AA7B
102
{ACAD_XDICTIONARY
360
AAE7
102
}
102
{ACAD_REACTORS
330
AA73
102
}
330
AA73
100
AcDbVisualStyle
  2
Hidden
 70
     6
 71
     1
 72
     2
 73
     2
 90
        0
 40
-0.6
 41
-30.0
 62
     5
 63
     7
 74
     2
 91
        2
 64
     7
 65
   257
 75
     2
175
     1
 42
40.0
 92
        0
 66
   257
 43
1.0
 76
     1
 77
     6
 78
     2
 67
     7
 79
     3
170
     0
171
     0
290
     0
174
     0
 93
        1
 44
0.0
173
     0
291
     0
 45
0.0
1001
ACAD
1000
AcDbSavedByObjectVersion
1070
     0
  0
VISUALSTYLE
  5
AA89
102
{ACAD_XDICTIONARY
360
AB03
102
}
102
{ACAD_REACTORS
330
AA73
102
}
330
AA73
100
AcDbVisualStyle
  2
JitterOff
 70
    20
 71
     2
 72
     2
 73
     0
 90
        0
 40
-0.6
 41
-30.0
 62
     5
 63
     7
 74
     1
 91
        4
 64
     7
 65
   257
 75
     1
175
     1
 42
1.0
 92
       10
 66
     7
 43
1.0
 76
     1
 77
     6
 78
     2
 67
     7
 79
     5
170
     0
171
     0
290
     0
174
     0
 93
        1
 44
0.0
173
     0
291
     1
 45
0.0
1001
ACAD
1000
AcDbSavedByObjectVersion
1070
     0
  0
VISUALSTYLE
  5
AA81
102
{ACAD_XDICTIONARY
360
AAF3
102
}
102
{ACAD_REACTORS
330
AA73
102
}
330
AA73
100
AcDbVisualStyle
  2
Linepattern
 70
    14
 71
     2
 72
     2
 73
     0
 90
        0
 40
-0.6
 41
-30.0
 62
     5
 63
     7
 74
     1
 91
        4
 64
     7
 65
   257
 75
     7
175
     7
 42
1.0
 92
        8
 66
     7
 43
1.0
 76
     1
 77
     6
 78
     2
 67
     7
 79
     5
170
     0
171
     0
290
     0
174
     0
 93
        1
 44
0.0
173
     0
291
     1
 45
0.0
1001
ACAD
1000
AcDbSavedByObjectVersion
1070
     0
  0
VISUALSTYLE
  5
AA8A
102
{ACAD_XDICTIONARY
360
AB05
102
}
102
{ACAD_REACTORS
330
AA73
102
}
330
AA73
100
AcDbVisualStyle
  2
OverhangOff
 70
    21
 71
     2
 72
     2
 73
     0
 90
        0
 40
-0.6
 41
-30.0
 62
     5
 63
     7
 74
     1
 91
        4
 64
     7
 65
   257
 75
     1
175
     1
 42
1.0
 92
        9
 66
     7
 43
1.0
 76
     1
 77
     6
 78
     2
 67
     7
 79
     5
170
     0
171
     0
290
     0
174
     0
 93
        1
 44
0.0
173
     0
291
     1
 45
0.0
1001
ACAD
1000
AcDbSavedByObjectVersion
1070
     0
  0
VISUALSTYLE
  5
AA7D
102
{ACAD_XDICTIONARY
360
AAEB
102
}
102
{ACAD_REACTORS
330
AA73
102
}
330
AA73
100
AcDbVisualStyle
  2
Realistic
 70
     8
 71
     2
 72
     3
 73
     0
 90
        2
 40
-0.6
 41
30.0
 62
     5
 63
     7
 74
     0
 91
        0
 64
     7
 65
   257
 75
     1
175
     1
 42
1.0
 92
        8
 66
   257
 43
1.0
 76
     1
 77
     6
 78
     2
 67
     7
 79
     3
170
     0
171
     0
290
     0
174
     0
 93
       13
 44
0.0
173
     0
291
     0
 45
0.0
1001
ACAD
1000
AcDbSavedByObjectVersion
1070
     0
  0
VISUALSTYLE
  5
AA88
102
{ACAD_XDICTIONARY
360
AB01
102
}
102
{ACAD_REACTORS
330
AA73
102
}
330
AA73
100
AcDbVisualStyle
  2
Shaded
 70
    27
 71
     2
 72
     2
 73
     1
 90
        2
 40
-0.6
 41
30.0
 62
     5
 63
     7
 74
     0
 91
        4
 64
     7
 65
   257
 75
     1
175
     1
 42
1.0
 92
        8
 66
   257
 43
1.0
 76
     1
 77
     6
 78
     2
 67
     8
 79
     3
170
     0
171
     0
290
     0
174
     0
 93
        5
 44
0.0
173
     0
291
     0
 45
0.0
1001
ACAD
1000
AcDbSavedByObjectVersion
1070
     0
  0
VISUALSTYLE
  5
AA87
102
{ACAD_XDICTIONARY
360
AAFF
102
}
102
{ACAD_REACTORS
330
AA73
102
}
330
AA73
100
AcDbVisualStyle
  2
Shaded with edges
 70
    26
 71
     2
 72
     2
 73
     1
 90
        2
 40
-0.6
 41
30.0
 62
     5
 63
     7
 74
     1
 91
       10
 64
     7
 65
   257
 75
     2
175
     1
 42
1.0
 92
        8
 66
   257
 43
1.0
 76
     1
 77
     6
 78
     2
 67
     7
 79
     3
170
     0
171
     0
290
     0
174
     0
 93
        5
 44
0.0
173
     0
291
     0
 45
0.0
1001
ACAD
1000
AcDbSavedByObjectVersion
1070
     0
  0
VISUALSTYLE
  5
AA84
102
{ACAD_XDICTIONARY
360
AAF9
102
}
102
{ACAD_REACTORS
330
AA73
102
}
330
AA73
100
AcDbVisualStyle
  2
Shades of Gray
 70
    23
 71
     2
 72
     2
 73
     3
 90
        0
 40
-0.6
 41
-30.0
 62
     5
 63
     7
 74
     2
 91
        2
 64
     7
 65
     7
 75
     1
175
     1
 42
40.0
 92
        8
 66
     7
 43
1.0
 76
     1
 77
     6
 78
     2
 67
     7
 79
     3
170
     0
171
     0
290
     0
174
     0
 93
        1
 44
0.0
173
     0
291
     0
 45
0.0
1001
ACAD
1000
AcDbSavedByObjectVersion
1070
     0
  0
VISUALSTYLE
  5
AA85
102
{ACAD_XDICTIONARY
360
AAFB
102
}
102
{ACAD_REACTORS
330
AA73
102
}
330
AA73
100
AcDbVisualStyle
  2
Sketchy
 70
    24
 71
     1
 72
     2
 73
     2
 90
        0
 40
-0.6
 41
-30.0
 62
     5
 63
     7
 74
     2
 91
        2
 64
     7
 65
     7
 75
     1
175
     1
 42
40.0
 92
       11
 66
     7
 43
1.0
 76
     1
 77
     6
 78
     2
 67
     7
 79
     6
170
     0
171
     0
290
     0
174
     0
 93
        1
 44
0.0
173
     0
291
     0
 45
0.0
1001
ACAD
1000
AcDbSavedByObjectVersion
1070
     0
  0
VISUALSTYLE
  5
AA80
102
{ACAD_XDICTIONARY
360
AAF1
102
}
102
{ACAD_REACTORS
330
AA73
102
}
330
AA73
100
AcDbVisualStyle
  2
Thicken
 70
    13
 71
     2
 72
     2
 73
     0
 90
        0
 40
-0.6
 41
-30.0
 62
     5
 63
     7
 74
     1
 91
        4
 64
     7
 65
   257
 75
     1
175
     1
 42
1.0
 92
       12
 66
     7
 43
1.0
 76
     1
 77
     6
 78
     2
 67
     7
 79
     5
170
     0
171
     0
290
     0
174
     0
 93
        1
 44
0.0
173
     0
291
     1
 45
0.0
1001
ACAD
1000
AcDbSavedByObjectVersion
1070
     0
  0
VISUALSTYLE
  5
AA7A
102
{ACAD_XDICTIONARY
360
AAE5
102
}
102
{ACAD_REACTORS
330
AA73
102
}
330
AA73
100
AcDbVisualStyle
  2
Wireframe
 70
     5
 71
     0
 72
     2
 73
     0
 90
        0
 40
-0.6
 41
-30.0
 62
     5
 63
     7
 74
     1
 91
        4
 64
     7
 65
   257
 75
     1
175
     1
 42
1.0
 92
        0
 66
   257
 43
1.0
 76
     1
 77
     6
 78
     2
 67
     7
 79
     3
170
     0
171
     0
290
     0
174
     0
 93
        1
 44
0.0
173
     0
291
     0
 45
0.0
1001
ACAD
1000
AcDbSavedByObjectVersion
1070
     0
  0
VISUALSTYLE
  5
AA86
102
{ACAD_XDICTIONARY
360
AAFD
102
}
102
{ACAD_REACTORS
330
AA73
102
}
330
AA73
100
AcDbVisualStyle
  2
X-Ray
 70
    25
 71
     2
 72
     2
 73
     1
 90
        1
 40
0.5
 41
-30.0
 62
     5
 63
     7
 74
     1
 91
        0
 64
     7
 65
   257
 75
     1
175
     1
 42
1.0
 92
        8
 66
     7
 43
1.0
 76
     1
 77
     6
 78
     2
 67
     7
 79
     3
170
     0
171
     0
290
     0
174
     0
 93
       13
 44
0.0
173
     0
291
     0
 45
0.0
1001
ACAD
1000
AcDbSavedByObjectVersion
1070
     0
  0
DICTIONARYVAR
  5
AAC5
102
{ACAD_REACTORS
330
36
102
}
330
36
100
DictionaryVariables
280
     0
  1
1:1
  0
DICTIONARYVAR
  5
AAC2
102
{ACAD_REACTORS
330
36
102
}
330
36
100
DictionaryVariables
280
     0
  1
STANDARD
  0
DICTIONARYVAR
  5
AAC1
102
{ACAD_REACTORS
330
36
102
}
330
36
100
DictionaryVariables
280
     0
  1
STANDARD
  0
DICTIONARYVAR
  5
AAC3
102
{ACAD_REACTORS
330
36
102
}
330
36
100
DictionaryVariables
280
     0
  1
Metric50
  0
DICTIONARYVAR
  5
AAC4
102
{ACAD_REACTORS
330
36
102
}
330
36
100
DictionaryVariables
280
     0
  1
Metric50
  0
DICTIONARYVAR
  5
37
102
{ACAD_REACTORS
330
36
102
}
330
36
100
DictionaryVariables
280
     0
  1
0
  0
DICTIONARYVAR
  5
AAC7
102
{ACAD_REACTORS
330
36
102
}
330
36
100
DictionaryVariables
280
     0
  1
1
  0
DICTIONARYVAR
  5
AAC6
102
{ACAD_REACTORS
330
36
102
}
330
36
100
DictionaryVariables
280
     0
  1
0
  0
DICTIONARYVAR
  5
10E
102
{ACAD_REACTORS
330
36
102
}
330
36
100
DictionaryVariables
280
     0
  1
96
  0
DICTIONARYVAR
  5
AAC8
102
{ACAD_REACTORS
330
36
102
}
330
36
100
DictionaryVariables
280
     0
  1
2
  0
DICTIONARY
  5
AAD4
330
A1C0
100
AcDbDictionary
280
     1
281
     1
  3
ACAD_XREC_ROUNDTRIP
360
AAD5
  0
DICTIONARY
  5
AAD2
330
A1BF
100
AcDbDictionary
280
     1
281
     1
  3
ACAD_XREC_ROUNDTRIP
360
AAD3
  0
DICTIONARY
  5
AA64
330
AA63
100
AcDbDictionary
280
     1
281
     1
  3
ACAD_XREC_ROUNDTRIP
360
AAD7
  3
BUMPTILE
360
AA66
  3
DIFFUSETILE
360
AA65
  3
OPACITYTILE
360
AA69
  3
REFLECTIONTILE
360
AA68
  3
REFRACTIONTILE
360
AA6A
  3
SPECULARTILE
360
AA67
  0
DICTIONARY
  5
AA5C
330
AA5B
100
AcDbDictionary
280
     1
281
     1
  3
ACAD_XREC_ROUNDTRIP
360
AAD6
  3
BUMPTILE
360
AA5E
  3
DIFFUSETILE
360
AA5D
  3
OPACITYTILE
360
AA61
  3
REFLECTIONTILE
360
AA60
  3
REFRACTIONTILE
360
AA62
  3
SPECULARTILE
360
AA5F
  0
DICTIONARY
  5
AA6C
330
AA6B
100
AcDbDictionary
280
     1
281
     1
  3
ACAD_XREC_ROUNDTRIP
360
AAD8
  3
BUMPTILE
360
AA6E
  3
DIFFUSETILE
360
AA6D
  3
OPACITYTILE
360
AA71
  3
REFLECTIONTILE
360
AA70
  3
REFRACTIONTILE
360
AA72
  3
SPECULARTILE
360
AA6F
  0
DICTIONARY
  5
AB0B
330
AAA2
100
AcDbDictionary
280
     1
281
     1
  3
ACAD_XREC_ROUNDTRIP
360
AB0C
  0
DICTIONARY
  5
AACA
330
AA8E
100
AcDbDictionary
280
     1
281
     1
  3
ACAD_ROUNDTRIP_2008_TABLESTYLE_CELLSTYLEMAP
360
AACB
  3
ACAD_XREC_ROUNDTRIP
360
AB09
  0
DICTIONARY
  5
AAE3
330
AA79
100
AcDbDictionary
280
     1
281
     1
  3
ACAD_XREC_ROUNDTRIP
360
AAE4
  0
DICTIONARY
  5
AAE1
330
AA78
100
AcDbDictionary
280
     1
281
     1
  3
ACAD_XREC_ROUNDTRIP
360
AAE2
  0
DICTIONARY
  5
AAEF
330
AA7F
100
AcDbDictionary
280
     1
281
     1
  3
ACAD_XREC_ROUNDTRIP
360
AAF0
  0
DICTIONARY
  5
AAF7
330
AA83
100
AcDbDictionary
280
     1
281
     1
  3
ACAD_XREC_ROUNDTRIP
360
AAF8
  0
DICTIONARY
  5
AAE9
330
AA7C
100
AcDbDictionary
280
     1
281
     1
  3
ACAD_XREC_ROUNDTRIP
360
AAEA
  0
DICTIONARY
  5
AAED
330
AA7E
100
AcDbDictionary
280
     1
281
     1
  3
ACAD_XREC_ROUNDTRIP
360
AAEE
  0
DICTIONARY
  5
AB07
330
AA8B
100
AcDbDictionary
280
     1
281
     1
  3
ACAD_XREC_ROUNDTRIP
360
AB08
  0
DICTIONARY
  5
AAF5
330
AA82
100
AcDbDictionary
280
     1
281
     1
  3
ACAD_XREC_ROUNDTRIP
360
AAF6
  0
DICTIONARY
  5
AAD9
330
AA74
100
AcDbDictionary
280
     1
281
     1
  3
ACAD_XREC_ROUNDTRIP
360
AADA
  0
DICTIONARY
  5
AADB
330
AA75
100
AcDbDictionary
280
     1
281
     1
  3
ACAD_XREC_ROUNDTRIP
360
AADC
  0
DICTIONARY
  5
AADD
330
AA76
100
AcDbDictionary
280
     1
281
     1
  3
ACAD_XREC_ROUNDTRIP
360
AADE
  0
DICTIONARY
  5
AADF
330
AA77
100
AcDbDictionary
280
     1
281
     1
  3
ACAD_XREC_ROUNDTRIP
360
AAE0
  0
DICTIONARY
  5
AAE7
330
AA7B
100
AcDbDictionary
280
     1
281
     1
  3
ACAD_XREC_ROUNDTRIP
360
AAE8
  0
DICTIONARY
  5
AB03
330
AA89
100
AcDbDictionary
280
     1
281
     1
  3
ACAD_XREC_ROUNDTRIP
360
AB04
  0
DICTIONARY
  5
AAF3
330
AA81
100
AcDbDictionary
280
     1
281
     1
  3
ACAD_XREC_ROUNDTRIP
360
AAF4
  0
DICTIONARY
  5
AB05
330
AA8A
100
AcDbDictionary
280
     1
281
     1
  3
ACAD_XREC_ROUNDTRIP
360
AB06
  0
DICTIONARY
  5
AAEB
330
AA7D
100
AcDbDictionary
280
     1
281
     1
  3
ACAD_XREC_ROUNDTRIP
360
AAEC
  0
DICTIONARY
  5
AB01
330
AA88
100
AcDbDictionary
280
     1
281
     1
  3
ACAD_XREC_ROUNDTRIP
360
AB02
  0
DICTIONARY
  5
AAFF
330
AA87
100
AcDbDictionary
280
     1
281
     1
  3
ACAD_XREC_ROUNDTRIP
360
AB00
  0
DICTIONARY
  5
AAF9
330
AA84
100
AcDbDictionary
280
     1
281
     1
  3
ACAD_XREC_ROUNDTRIP
360
AAFA
  0
DICTIONARY
  5
AAFB
330
AA85
100
AcDbDictionary
280
     1
281
     1
  3
ACAD_XREC_ROUNDTRIP
360
AAFC
  0
DICTIONARY
  5
AAF1
330
AA80
100
AcDbDictionary
280
     1
281
     1
  3
ACAD_XREC_ROUNDTRIP
360
AAF2
  0
DICTIONARY
  5
AAE5
330
AA7A
100
AcDbDictionary
280
     1
281
     1
  3
ACAD_XREC_ROUNDTRIP
360
AAE6
  0
DICTIONARY
  5
AAFD
330
AA86
100
AcDbDictionary
280
     1
281
     1
  3
ACAD_XREC_ROUNDTRIP
360
AAFE
  0
XRECORD
  5
AAD5
102
{ACAD_REACTORS
330
AAD4
102
}
330
AAD4
100
AcDbXrecord
280
     1
102
SHADEPLOT
 70
     0
102
SHADEPLOTRESLEVEL
 70
     2
102
SHADEPLOTCUSTOMDPI
 70
   300
  0
XRECORD
  5
AAD3
102
{ACAD_REACTORS
330
AAD2
102
}
330
AAD2
100
AcDbXrecord
280
     1
102
SHADEPLOT
 70
     0
102
SHADEPLOTRESLEVEL
 70
     2
102
SHADEPLOTCUSTOMDPI
 70
   300
  0
XRECORD
  5
AAD7
102
{ACAD_REACTORS
330
AA64
102
}
330
AA64
100
AcDbXrecord
280
     1
102
MATERIAL
148
0.0
149
0.0
149
0.0
 93
        0
 94
      127
282
     0
 72
     0
 77
     0
171
     0
175
     0
179
     0
273
     0
  0
XRECORD
  5
AA66
102
{ACAD_REACTORS
330
AA64
102
}
330
AA64
100
AcDbXrecord
280
     1
270
     1
271
     1
  0
XRECORD
  5
AA65
102
{ACAD_REACTORS
330
AA64
102
}
330
AA64
100
AcDbXrecord
280
     1
270
     1
271
     1
  0
XRECORD
  5
AA69
102
{ACAD_REACTORS
330
AA64
102
}
330
AA64
100
AcDbXrecord
280
     1
270
     1
271
     1
  0
XRECORD
  5
AA68
102
{ACAD_REACTORS
330
AA64
102
}
330
AA64
100
AcDbXrecord
280
     1
270
     1
271
     1
  0
XRECORD
  5
AA6A
102
{ACAD_REACTORS
330
AA64
102
}
330
AA64
100
AcDbXrecord
280
     1
270
     1
271
     1
  0
XRECORD
  5
AA67
102
{ACAD_REACTORS
330
AA64
102
}
330
AA64
100
AcDbXrecord
280
     1
270
     1
271
     1
  0
XRECORD
  5
AAD6
102
{ACAD_REACTORS
330
AA5C
102
}
330
AA5C
100
AcDbXrecord
280
     1
102
MATERIAL
148
0.0
149
0.0
149
0.0
 93
        0
 94
      127
282
     0
 72
     0
 77
     0
171
     0
175
     0
179
     0
273
     0
  0
XRECORD
  5
AA5E
102
{ACAD_REACTORS
330
AA5C
102
}
330
AA5C
100
AcDbXrecord
280
     1
270
     1
271
     1
  0
XRECORD
  5
AA5D
102
{ACAD_REACTORS
330
AA5C
102
}
330
AA5C
100
AcDbXrecord
280
     1
270
     1
271
     1
  0
XRECORD
  5
AA61
102
{ACAD_REACTORS
330
AA5C
102
}
330
AA5C
100
AcDbXrecord
280
     1
270
     1
271
     1
  0
XRECORD
  5
AA60
102
{ACAD_REACTORS
330
AA5C
102
}
330
AA5C
100
AcDbXrecord
280
     1
270
     1
271
     1
  0
XRECORD
  5
AA62
102
{ACAD_REACTORS
330
AA5C
102
}
330
AA5C
100
AcDbXrecord
280
     1
270
     1
271
     1
  0
XRECORD
  5
AA5F
102
{ACAD_REACTORS
330
AA5C
102
}
330
AA5C
100
AcDbXrecord
280
     1
270
     1
271
     1
  0
XRECORD
  5
AAD8
102
{ACAD_REACTORS
330
AA6C
102
}
330
AA6C
100
AcDbXrecord
280
     1
102
MATERIAL
148
0.0
149
0.0
149
0.0
 93
        0
 94
      127
282
     0
 72
     0
 77
     0
171
     0
175
     0
179
     0
273
     0
  0
XRECORD
  5
AA6E
102
{ACAD_REACTORS
330
AA6C
102
}
330
AA6C
100
AcDbXrecord
280
     1
270
     1
271
     1
  0
XRECORD
  5
AA6D
102
{ACAD_REACTORS
330
AA6C
102
}
330
AA6C
100
AcDbXrecord
280
     1
270
     1
271
     1
  0
XRECORD
  5
AA71
102
{ACAD_REACTORS
330
AA6C
102
}
330
AA6C
100
AcDbXrecord
280
     1
270
     1
271
     1
  0
XRECORD
  5
AA70
102
{ACAD_REACTORS
330
AA6C
102
}
330
AA6C
100
AcDbXrecord
280
     1
270
     1
271
     1
  0
XRECORD
  5
AA72
102
{ACAD_REACTORS
330
AA6C
102
}
330
AA6C
100
AcDbXrecord
280
     1
270
     1
271
     1
  0
XRECORD
  5
AA6F
102
{ACAD_REACTORS
330
AA6C
102
}
330
AA6C
100
AcDbXrecord
280
     1
270
     1
271
     1
  0
XRECORD
  5
AB0C
102
{ACAD_REACTORS
330
AB0B
102
}
330
AB0B
100
AcDbXrecord
280
     1
102
ACAD_ROUNDTRIP_2012_MLEADER_STYLE
298
     1
  0
CELLSTYLEMAP
  5
AACB
102
{ACAD_REACTORS
330
AACA
102
}
330
AACA
100
AcDbCellStyleMap
 90
        3
300
CELLSTYLE
  1
TABLEFORMAT_BEGIN
 90
        5
170
     1
 91
        0
 92
    32768
 62
   257
 93
        1
300
CONTENTFORMAT
  1
CONTENTFORMAT_BEGIN
 90
        0
 91
        0
 92
      512
 93
        0
300

 40
0.0
140
1.0
 94
        5
 62
     0
340
F
144
6.0
309
CONTENTFORMAT_END
171
     1
301
MARGIN
  1
CELLMARGIN_BEGIN
 40
1.5
 40
1.5
 40
1.5
 40
1.5
 40
4.5
 40
4.5
309
CELLMARGIN_END
 94
        6
 95
        1
302
GRIDFORMAT
  1
GRIDFORMAT_BEGIN
 90
        0
 91
        1
 62
     0
 92
       -2
340
0
 93
        0
 40
1.125
309
GRIDFORMAT_END
 95
        2
302
GRIDFORMAT
  1
GRIDFORMAT_BEGIN
 90
        0
 91
        1
 62
     0
 92
       -2
340
0
 93
        0
 40
1.125
309
GRIDFORMAT_END
 95
        4
302
GRIDFORMAT
  1
GRIDFORMAT_BEGIN
 90
        0
 91
        1
 62
     0
 92
       -2
340
0
 93
        0
 40
1.125
309
GRIDFORMAT_END
 95
        8
302
GRIDFORMAT
  1
GRIDFORMAT_BEGIN
 90
        0
 91
        1
 62
     0
 92
       -2
340
0
 93
        0
 40
1.125
309
GRIDFORMAT_END
 95
       16
302
GRIDFORMAT
  1
GRIDFORMAT_BEGIN
 90
        0
 91
        1
 62
     0
 92
       -2
340
0
 93
        0
 40
1.125
309
GRIDFORMAT_END
 95
       32
302
GRIDFORMAT
  1
GRIDFORMAT_BEGIN
 90
        0
 91
        1
 62
     0
 92
       -2
340
0
 93
        0
 40
1.125
309
GRIDFORMAT_END
309
TABLEFORMAT_END
  1
CELLSTYLE_BEGIN
 90
        1
 91
        1
300
_TITLE
309
CELLSTYLE_END
300
CELLSTYLE
  1
TABLEFORMAT_BEGIN
 90
        5
170
     1
 91
        0
 92
        0
 62
   257
 93
        1
300
CONTENTFORMAT
  1
CONTENTFORMAT_BEGIN
 90
        0
 91
        0
 92
      512
 93
        0
300

 40
0.0
140
1.0
 94
        5
 62
     0
340
F
144
4.5
309
CONTENTFORMAT_END
171
     1
301
MARGIN
  1
CELLMARGIN_BEGIN
 40
1.5
 40
1.5
 40
1.5
 40
1.5
 40
4.5
 40
4.5
309
CELLMARGIN_END
 94
        6
 95
        1
302
GRIDFORMAT
  1
GRIDFORMAT_BEGIN
 90
        0
 91
        1
 62
     0
 92
       -2
340
0
 93
        0
 40
1.125
309
GRIDFORMAT_END
 95
        2
302
GRIDFORMAT
  1
GRIDFORMAT_BEGIN
 90
        0
 91
        1
 62
     0
 92
       -2
340
0
 93
        0
 40
1.125
309
GRIDFORMAT_END
 95
        4
302
GRIDFORMAT
  1
GRIDFORMAT_BEGIN
 90
        0
 91
        1
 62
     0
 92
       -2
340
0
 93
        0
 40
1.125
309
GRIDFORMAT_END
 95
        8
302
GRIDFORMAT
  1
GRIDFORMAT_BEGIN
 90
        0
 91
        1
 62
     0
 92
       -2
340
0
 93
        0
 40
1.125
309
GRIDFORMAT_END
 95
       16
302
GRIDFORMAT
  1
GRIDFORMAT_BEGIN
 90
        0
 91
        1
 62
     0
 92
       -2
340
0
 93
        0
 40
1.125
309
GRIDFORMAT_END
 95
       32
302
GRIDFORMAT
  1
GRIDFORMAT_BEGIN
 90
        0
 91
        1
 62
     0
 92
       -2
340
0
 93
        0
 40
1.125
309
GRIDFORMAT_END
309
TABLEFORMAT_END
  1
CELLSTYLE_BEGIN
 90
        2
 91
        1
300
_HEADER
309
CELLSTYLE_END
300
CELLSTYLE
  1
TABLEFORMAT_BEGIN
 90
        5
170
     1
 91
        0
 92
        0
 62
   257
 93
        1
300
CONTENTFORMAT
  1
CONTENTFORMAT_BEGIN
 90
        0
 91
        0
 92
      512
 93
        0
300

 40
0.0
140
1.0
 94
        2
 62
     0
340
F
144
4.5
309
CONTENTFORMAT_END
171
     1
301
MARGIN
  1
CELLMARGIN_BEGIN
 40
1.5
 40
1.5
 40
1.5
 40
1.5
 40
4.5
 40
4.5
309
CELLMARGIN_END
 94
        6
 95
        1
302
GRIDFORMAT
  1
GRIDFORMAT_BEGIN
 90
        0
 91
        1
 62
     0
 92
       -2
340
0
 93
        0
 40
1.125
309
GRIDFORMAT_END
 95
        2
302
GRIDFORMAT
  1
GRIDFORMAT_BEGIN
 90
        0
 91
        1
 62
     0
 92
       -2
340
0
 93
        0
 40
1.125
309
GRIDFORMAT_END
 95
        4
302
GRIDFORMAT
  1
GRIDFORMAT_BEGIN
 90
        0
 91
        1
 62
     0
 92
       -2
340
0
 93
        0
 40
1.125
309
GRIDFORMAT_END
 95
        8
302
GRIDFORMAT
  1
GRIDFORMAT_BEGIN
 90
        0
 91
        1
 62
     0
 92
       -2
340
0
 93
        0
 40
1.125
309
GRIDFORMAT_END
 95
       16
302
GRIDFORMAT
  1
GRIDFORMAT_BEGIN
 90
        0
 91
        1
 62
     0
 92
       -2
340
0
 93
        0
 40
1.125
309
GRIDFORMAT_END
 95
       32
302
GRIDFORMAT
  1
GRIDFORMAT_BEGIN
 90
        0
 91
        1
 62
     0
 92
       -2
340
0
 93
        0
 40
1.125
309
GRIDFORMAT_END
309
TABLEFORMAT_END
  1
CELLSTYLE_BEGIN
 90
        3
 91
        2
300
_DATA
309
CELLSTYLE_END
  0
XRECORD
  5
AB09
102
{ACAD_REACTORS
330
AACA
102
}
330
AACA
100
AcDbXrecord
280
     1
102
ACAD_ROUNDTRIP_PRE2007_TABLESTYLE
 90
      512
 91
        0
  1

 92
      512
 93
        0
  2

 94
      512
 95
        0
  3

  0
XRECORD
  5
AAE4
102
{ACAD_REACTORS
330
AAE3
102
}
330
AAE3
100
AcDbXrecord
280
     1
102
RTVSPost2010Prop28
280
     1
102
RTVSPost2010PropOp28
 70
     1
102
RTVSPost2010Prop29
280
     1
102
RTVSPost2010PropOp29
 70
     1
102
RTVSPost2010Prop30
280
     0
102
RTVSPost2010PropOp30
 70
     1
102
RTVSPost2010Prop31
280
     0
102
RTVSPost2010PropOp31
 70
     1
102
RTVSPost2010Prop32
280
     0
102
RTVSPost2010PropOp32
 70
     1
102
RTVSPost2010Prop33
280
     0
102
RTVSPost2010PropOp33
 70
     1
102
RTVSPost2010Prop34
280
     0
102
RTVSPost2010PropOp34
 70
     1
102
RTVSPost2010Prop35
280
     0
102
RTVSPost2010PropOp35
 70
     1
102
RTVSPost2010Prop36
280
     0
102
RTVSPost2010PropOp36
 70
     1
102
RTVSPost2010Prop37
 90
       50
102
RTVSPost2010PropOp37
 70
     1
102
RTVSPost2010Prop38
140
0.0
102
RTVSPost2010PropOp38
 70
     1
102
RTVSPost2010Prop39
140
1.0
102
RTVSPost2010PropOp39
 70
     1
102
RTVSPost2010Prop40
 90
        0
102
RTVSPost2010PropOp40
 70
     1
102
RTVSPost2010Prop41ColorIndex
 90
       18
102
RTVSPost2010Prop41ColorRGB
 90
        0
102
RTVSPost2010PropOp41
 70
     1
102
RTVSPost2010Prop42
 90
       50
102
RTVSPost2010PropOp42
 70
     1
102
RTVSPost2010Prop43
 90
        3
102
RTVSPost2010PropOp43
 70
     1
102
RTVSPost2010Prop44ColorIndex
 90
        5
102
RTVSPost2010Prop44ColorRGB
 90
      255
102
RTVSPost2010PropOp44
 70
     1
102
RTVSPost2010Prop45
280
     0
102
RTVSPost2010PropOp45
 70
     1
102
RTVSPost2010Prop46
 90
       50
102
RTVSPost2010PropOp46
 70
     1
102
RTVSPost2010Prop47
 90
       50
102
RTVSPost2010PropOp47
 70
     1
102
RTVSPost2010Prop48
 90
       50
102
RTVSPost2010PropOp48
 70
     1
102
RTVSPost2010Prop49
280
     0
102
RTVSPost2010PropOp49
 70
     1
102
RTVSPost2010Prop50
 90
       50
102
RTVSPost2010PropOp50
 70
     1
102
RTVSPost2010Prop51ColorIndex
 90
      256
102
RTVSPost2010Prop51ColorRGB
 90
-16777216
102
RTVSPost2010PropOp51
 70
     0
102
RTVSPost2010Prop52
140
1.0
102
RTVSPost2010PropOp52
 70
     0
102
RTVSPost2010Prop53
 90
        2
102
RTVSPost2010PropOp53
 70
     1
102
RTVSPost2010Prop54
  1
strokes_ogs.tif
102
RTVSPost2010PropOp54
 70
     1
102
RTVSPost2010Prop55
280
     0
102
RTVSPost2010PropOp55
 70
     1
102
RTVSPost2010Prop56
140
1.0
102
RTVSPost2010PropOp56
 70
     1
102
RTVSPost2010Prop57
140
1.0
102
RTVSPost2010PropOp57
 70
     1
102
RTVSPropertyOp0
 70
     1
102
RTVSPropertyOp1
 70
     1
102
RTVSPropertyOp2
 70
     1
102
RTVSPropertyOp3
 70
     1
102
RTVSPropertyOp4
 70
     1
102
RTVSPropertyOp5
 70
     1
102
RTVSPropertyOp6
 70
     1
102
RTVSPropertyOp7
 70
     1
102
RTVSPropertyOp8
 70
     1
102
RTVSPropertyOp9
 70
     1
102
RTVSPropertyOp10
 70
     1
102
RTVSPropertyOp11
 70
     1
102
RTVSPropertyOp12
 70
     1
102
RTVSPropertyOp13
 70
     1
102
RTVSPropertyOp14
 70
     1
102
RTVSPropertyOp15
 70
     1
102
RTVSPropertyOp16
 70
     1
102
RTVSPropertyOp17
 70
     1
102
RTVSPropertyOp18
 70
     1
102
RTVSPropertyOp19
 70
     1
102
RTVSPropertyOp20
 70
     1
102
RTVSPropertyOp21
 70
     1
102
RTVSPropertyOp22
 70
     1
102
RTVSPropertyOp23
 70
     1
102
RTVSPropertyOp24
 70
     1
102
RTVSPropertyOp25
 70
     1
102
RTVSPropertyOp26
 70
     1
102
RTVSPropertyOp27
 70
     1
102
RTVSPropertyOp28
 70
     1
102
RTVSPropertyOp29
 70
     1
102
RTVSPropertyOp30
 70
     1
102
RTVSPropertyOp31
 70
     1
102
RTVSPropertyOp32
 70
     1
102
RTVSPropertyOp33
 70
     1
102
RTVSPropertyOp34
 70
     1
102
RTVSPropertyOp35
 70
     1
102
RTVSPropertyOp36
 70
     1
102
RTVSPropertyOp37
 70
     1
102
RTVSPropertyOp38
 70
     1
102
RTVSPropertyOp39
 70
     1
102
RTVSPropertyOp40
 70
     1
102
RTVSPropertyOp41
 70
     1
102
RTVSPropertyOp42
 70
     1
102
RTVSPropertyOp43
 70
     1
102
RTVSPropertyOp44
 70
     1
102
RTVSPropertyOp45
 70
     1
102
RTVSPropertyOp46
 70
     1
102
RTVSPropertyOp47
 70
     1
102
RTVSPropertyOp48
 70
     1
102
RTVSPropertyOp49
 70
     1
102
RTVSPropertyOp50
 70
     1
102
RTVSPropertyOp51
 70
     0
102
RTVSPropertyOp52
 70
     0
102
RTVSPropertyOp53
 70
     1
102
RTVSPropertyOp54
 70
     1
102
RTVSPropertyOp55
 70
     1
102
RTVSPropertyOp56
 70
     1
102
RTVSPropertyOp57
 70
     1
102
RTVSPropertyOp58
 70
     1
102
RTVSPropertyOp59
 70
     1
102
RTVSPropertyOp60
 70
     1
102
RTVSPropertyOp61
 70
     1
102
RTVSPropertyOp62
 70
     1
  0
XRECORD
  5
AAE2
102
{ACAD_REACTORS
330
AAE1
102
}
330
AAE1
100
AcDbXrecord
280
     1
102
RTVSPost2010Prop28
280
     0
102
RTVSPost2010PropOp28
 70
     1
102
RTVSPost2010Prop29
280
     1
102
RTVSPost2010PropOp29
 70
     1
102
RTVSPost2010Prop30
280
     1
102
RTVSPost2010PropOp30
 70
     1
102
RTVSPost2010Prop31
280
     0
102
RTVSPost2010PropOp31
 70
     1
102
RTVSPost2010Prop32
280
     0
102
RTVSPost2010PropOp32
 70
     1
102
RTVSPost2010Prop33
280
     0
102
RTVSPost2010PropOp33
 70
     1
102
RTVSPost2010Prop34
280
     0
102
RTVSPost2010PropOp34
 70
     1
102
RTVSPost2010Prop35
280
     0
102
RTVSPost2010PropOp35
 70
     1
102
RTVSPost2010Prop36
280
     0
102
RTVSPost2010PropOp36
 70
     1
102
RTVSPost2010Prop37
 90
       50
102
RTVSPost2010PropOp37
 70
     1
102
RTVSPost2010Prop38
140
0.0
102
RTVSPost2010PropOp38
 70
     1
102
RTVSPost2010Prop39
140
1.0
102
RTVSPost2010PropOp39
 70
     1
102
RTVSPost2010Prop40
 90
        0
102
RTVSPost2010PropOp40
 70
     1
102
RTVSPost2010Prop41ColorIndex
 90
       18
102
RTVSPost2010Prop41ColorRGB
 90
        0
102
RTVSPost2010PropOp41
 70
     1
102
RTVSPost2010Prop42
 90
       50
102
RTVSPost2010PropOp42
 70
     1
102
RTVSPost2010Prop43
 90
        3
102
RTVSPost2010PropOp43
 70
     1
102
RTVSPost2010Prop44ColorIndex
 90
        5
102
RTVSPost2010Prop44ColorRGB
 90
      255
102
RTVSPost2010PropOp44
 70
     1
102
RTVSPost2010Prop45
280
     0
102
RTVSPost2010PropOp45
 70
     1
102
RTVSPost2010Prop46
 90
       50
102
RTVSPost2010PropOp46
 70
     1
102
RTVSPost2010Prop47
 90
       50
102
RTVSPost2010PropOp47
 70
     1
102
RTVSPost2010Prop48
 90
       50
102
RTVSPost2010PropOp48
 70
     1
102
RTVSPost2010Prop49
280
     0
102
RTVSPost2010PropOp49
 70
     1
102
RTVSPost2010Prop50
 90
       50
102
RTVSPost2010PropOp50
 70
     1
102
RTVSPost2010Prop51ColorIndex
 90
      256
102
RTVSPost2010Prop51ColorRGB
 90
-16777216
102
RTVSPost2010PropOp51
 70
     0
102
RTVSPost2010Prop52
140
1.0
102
RTVSPost2010PropOp52
 70
     0
102
RTVSPost2010Prop53
 90
        2
102
RTVSPost2010PropOp53
 70
     1
102
RTVSPost2010Prop54
  1
strokes_ogs.tif
102
RTVSPost2010PropOp54
 70
     1
102
RTVSPost2010Prop55
280
     0
102
RTVSPost2010PropOp55
 70
     1
102
RTVSPost2010Prop56
140
1.0
102
RTVSPost2010PropOp56
 70
     1
102
RTVSPost2010Prop57
140
1.0
102
RTVSPost2010PropOp57
 70
     1
102
RTVSPropertyOp0
 70
     1
102
RTVSPropertyOp1
 70
     1
102
RTVSPropertyOp2
 70
     1
102
RTVSPropertyOp3
 70
     1
102
RTVSPropertyOp4
 70
     1
102
RTVSPropertyOp5
 70
     1
102
RTVSPropertyOp6
 70
     1
102
RTVSPropertyOp7
 70
     1
102
RTVSPropertyOp8
 70
     1
102
RTVSPropertyOp9
 70
     1
102
RTVSPropertyOp10
 70
     1
102
RTVSPropertyOp11
 70
     1
102
RTVSPropertyOp12
 70
     1
102
RTVSPropertyOp13
 70
     1
102
RTVSPropertyOp14
 70
     1
102
RTVSPropertyOp15
 70
     1
102
RTVSPropertyOp16
 70
     1
102
RTVSPropertyOp17
 70
     1
102
RTVSPropertyOp18
 70
     1
102
RTVSPropertyOp19
 70
     1
102
RTVSPropertyOp20
 70
     1
102
RTVSPropertyOp21
 70
     1
102
RTVSPropertyOp22
 70
     1
102
RTVSPropertyOp23
 70
     1
102
RTVSPropertyOp24
 70
     1
102
RTVSPropertyOp25
 70
     1
102
RTVSPropertyOp26
 70
     1
102
RTVSPropertyOp27
 70
     1
102
RTVSPropertyOp28
 70
     1
102
RTVSPropertyOp29
 70
     1
102
RTVSPropertyOp30
 70
     1
102
RTVSPropertyOp31
 70
     1
102
RTVSPropertyOp32
 70
     1
102
RTVSPropertyOp33
 70
     1
102
RTVSPropertyOp34
 70
     1
102
RTVSPropertyOp35
 70
     1
102
RTVSPropertyOp36
 70
     1
102
RTVSPropertyOp37
 70
     1
102
RTVSPropertyOp38
 70
     1
102
RTVSPropertyOp39
 70
     1
102
RTVSPropertyOp40
 70
     1
102
RTVSPropertyOp41
 70
     1
102
RTVSPropertyOp42
 70
     1
102
RTVSPropertyOp43
 70
     1
102
RTVSPropertyOp44
 70
     1
102
RTVSPropertyOp45
 70
     1
102
RTVSPropertyOp46
 70
     1
102
RTVSPropertyOp47
 70
     1
102
RTVSPropertyOp48
 70
     1
102
RTVSPropertyOp49
 70
     1
102
RTVSPropertyOp50
 70
     1
102
RTVSPropertyOp51
 70
     0
102
RTVSPropertyOp52
 70
     0
102
RTVSPropertyOp53
 70
     1
102
RTVSPropertyOp54
 70
     1
102
RTVSPropertyOp55
 70
     1
102
RTVSPropertyOp56
 70
     1
102
RTVSPropertyOp57
 70
     1
102
RTVSPropertyOp58
 70
     1
102
RTVSPropertyOp59
 70
     1
102
RTVSPropertyOp60
 70
     1
102
RTVSPropertyOp61
 70
     1
102
RTVSPropertyOp62
 70
     1
  0
XRECORD
  5
AAF0
102
{ACAD_REACTORS
330
AAEF
102
}
330
AAEF
100
AcDbXrecord
280
     1
102
RTVSPost2010Prop28
280
     0
102
RTVSPost2010PropOp28
 70
     1
102
RTVSPost2010Prop29
280
     1
102
RTVSPost2010PropOp29
 70
     1
102
RTVSPost2010Prop30
280
     1
102
RTVSPost2010PropOp30
 70
     1
102
RTVSPost2010Prop31
280
     0
102
RTVSPost2010PropOp31
 70
     1
102
RTVSPost2010Prop32
280
     0
102
RTVSPost2010PropOp32
 70
     1
102
RTVSPost2010Prop33
280
     0
102
RTVSPost2010PropOp33
 70
     1
102
RTVSPost2010Prop34
280
     0
102
RTVSPost2010PropOp34
 70
     1
102
RTVSPost2010Prop35
280
     0
102
RTVSPost2010PropOp35
 70
     1
102
RTVSPost2010Prop36
280
     0
102
RTVSPost2010PropOp36
 70
     1
102
RTVSPost2010Prop37
 90
       50
102
RTVSPost2010PropOp37
 70
     1
102
RTVSPost2010Prop38
140
0.0
102
RTVSPost2010PropOp38
 70
     1
102
RTVSPost2010Prop39
140
1.0
102
RTVSPost2010PropOp39
 70
     1
102
RTVSPost2010Prop40
 90
        0
102
RTVSPost2010PropOp40
 70
     1
102
RTVSPost2010Prop41ColorIndex
 90
       18
102
RTVSPost2010Prop41ColorRGB
 90
        0
102
RTVSPost2010PropOp41
 70
     1
102
RTVSPost2010Prop42
 90
       50
102
RTVSPost2010PropOp42
 70
     1
102
RTVSPost2010Prop43
 90
        3
102
RTVSPost2010PropOp43
 70
     1
102
RTVSPost2010Prop44ColorIndex
 90
        5
102
RTVSPost2010Prop44ColorRGB
 90
      255
102
RTVSPost2010PropOp44
 70
     1
102
RTVSPost2010Prop45
280
     0
102
RTVSPost2010PropOp45
 70
     1
102
RTVSPost2010Prop46
 90
       50
102
RTVSPost2010PropOp46
 70
     1
102
RTVSPost2010Prop47
 90
       50
102
RTVSPost2010PropOp47
 70
     1
102
RTVSPost2010Prop48
 90
       50
102
RTVSPost2010PropOp48
 70
     1
102
RTVSPost2010Prop49
280
     0
102
RTVSPost2010PropOp49
 70
     1
102
RTVSPost2010Prop50
 90
       50
102
RTVSPost2010PropOp50
 70
     1
102
RTVSPost2010Prop51ColorIndex
 90
      256
102
RTVSPost2010Prop51ColorRGB
 90
-16777216
102
RTVSPost2010PropOp51
 70
     0
102
RTVSPost2010Prop52
140
1.0
102
RTVSPost2010PropOp52
 70
     0
102
RTVSPost2010Prop53
 90
        2
102
RTVSPost2010PropOp53
 70
     1
102
RTVSPost2010Prop54
  1
strokes_ogs.tif
102
RTVSPost2010PropOp54
 70
     1
102
RTVSPost2010Prop55
280
     0
102
RTVSPost2010PropOp55
 70
     1
102
RTVSPost2010Prop56
140
1.0
102
RTVSPost2010PropOp56
 70
     1
102
RTVSPost2010Prop57
140
1.0
102
RTVSPost2010PropOp57
 70
     1
102
RTVSPropertyOp0
 70
     1
102
RTVSPropertyOp1
 70
     1
102
RTVSPropertyOp2
 70
     1
102
RTVSPropertyOp3
 70
     1
102
RTVSPropertyOp4
 70
     1
102
RTVSPropertyOp5
 70
     1
102
RTVSPropertyOp6
 70
     1
102
RTVSPropertyOp7
 70
     1
102
RTVSPropertyOp8
 70
     1
102
RTVSPropertyOp9
 70
     1
102
RTVSPropertyOp10
 70
     1
102
RTVSPropertyOp11
 70
     1
102
RTVSPropertyOp12
 70
     1
102
RTVSPropertyOp13
 70
     1
102
RTVSPropertyOp14
 70
     1
102
RTVSPropertyOp15
 70
     1
102
RTVSPropertyOp16
 70
     1
102
RTVSPropertyOp17
 70
     1
102
RTVSPropertyOp18
 70
     1
102
RTVSPropertyOp19
 70
     1
102
RTVSPropertyOp20
 70
     1
102
RTVSPropertyOp21
 70
     1
102
RTVSPropertyOp22
 70
     1
102
RTVSPropertyOp23
 70
     1
102
RTVSPropertyOp24
 70
     1
102
RTVSPropertyOp25
 70
     1
102
RTVSPropertyOp26
 70
     1
102
RTVSPropertyOp27
 70
     1
102
RTVSPropertyOp28
 70
     1
102
RTVSPropertyOp29
 70
     1
102
RTVSPropertyOp30
 70
     1
102
RTVSPropertyOp31
 70
     1
102
RTVSPropertyOp32
 70
     1
102
RTVSPropertyOp33
 70
     1
102
RTVSPropertyOp34
 70
     1
102
RTVSPropertyOp35
 70
     1
102
RTVSPropertyOp36
 70
     1
102
RTVSPropertyOp37
 70
     1
102
RTVSPropertyOp38
 70
     1
102
RTVSPropertyOp39
 70
     1
102
RTVSPropertyOp40
 70
     1
102
RTVSPropertyOp41
 70
     1
102
RTVSPropertyOp42
 70
     1
102
RTVSPropertyOp43
 70
     1
102
RTVSPropertyOp44
 70
     1
102
RTVSPropertyOp45
 70
     1
102
RTVSPropertyOp46
 70
     1
102
RTVSPropertyOp47
 70
     1
102
RTVSPropertyOp48
 70
     1
102
RTVSPropertyOp49
 70
     1
102
RTVSPropertyOp50
 70
     1
102
RTVSPropertyOp51
 70
     0
102
RTVSPropertyOp52
 70
     0
102
RTVSPropertyOp53
 70
     1
102
RTVSPropertyOp54
 70
     1
102
RTVSPropertyOp55
 70
     1
102
RTVSPropertyOp56
 70
     1
102
RTVSPropertyOp57
 70
     1
102
RTVSPropertyOp58
 70
     1
102
RTVSPropertyOp59
 70
     1
102
RTVSPropertyOp60
 70
     1
102
RTVSPropertyOp61
 70
     1
102
RTVSPropertyOp62
 70
     1
  0
XRECORD
  5
AAF8
102
{ACAD_REACTORS
330
AAF7
102
}
330
AAF7
100
AcDbXrecord
280
     1
102
RTVSPost2010Prop28
280
     0
102
RTVSPost2010PropOp28
 70
     1
102
RTVSPost2010Prop29
280
     1
102
RTVSPost2010PropOp29
 70
     1
102
RTVSPost2010Prop30
280
     1
102
RTVSPost2010PropOp30
 70
     1
102
RTVSPost2010Prop31
280
     0
102
RTVSPost2010PropOp31
 70
     1
102
RTVSPost2010Prop32
280
     0
102
RTVSPost2010PropOp32
 70
     1
102
RTVSPost2010Prop33
280
     0
102
RTVSPost2010PropOp33
 70
     1
102
RTVSPost2010Prop34
280
     0
102
RTVSPost2010PropOp34
 70
     1
102
RTVSPost2010Prop35
280
     0
102
RTVSPost2010PropOp35
 70
     1
102
RTVSPost2010Prop36
280
     0
102
RTVSPost2010PropOp36
 70
     1
102
RTVSPost2010Prop37
 90
       50
102
RTVSPost2010PropOp37
 70
     1
102
RTVSPost2010Prop38
140
0.0
102
RTVSPost2010PropOp38
 70
     1
102
RTVSPost2010Prop39
140
1.0
102
RTVSPost2010PropOp39
 70
     1
102
RTVSPost2010Prop40
 90
        0
102
RTVSPost2010PropOp40
 70
     1
102
RTVSPost2010Prop41ColorIndex
 90
       18
102
RTVSPost2010Prop41ColorRGB
 90
        0
102
RTVSPost2010PropOp41
 70
     1
102
RTVSPost2010Prop42
 90
       50
102
RTVSPost2010PropOp42
 70
     1
102
RTVSPost2010Prop43
 90
        3
102
RTVSPost2010PropOp43
 70
     1
102
RTVSPost2010Prop44ColorIndex
 90
        5
102
RTVSPost2010Prop44ColorRGB
 90
      255
102
RTVSPost2010PropOp44
 70
     1
102
RTVSPost2010Prop45
280
     0
102
RTVSPost2010PropOp45
 70
     1
102
RTVSPost2010Prop46
 90
       50
102
RTVSPost2010PropOp46
 70
     1
102
RTVSPost2010Prop47
 90
       50
102
RTVSPost2010PropOp47
 70
     1
102
RTVSPost2010Prop48
 90
       50
102
RTVSPost2010PropOp48
 70
     1
102
RTVSPost2010Prop49
280
     0
102
RTVSPost2010PropOp49
 70
     1
102
RTVSPost2010Prop50
 90
       50
102
RTVSPost2010PropOp50
 70
     1
102
RTVSPost2010Prop51ColorIndex
 90
      256
102
RTVSPost2010Prop51ColorRGB
 90
-16777216
102
RTVSPost2010PropOp51
 70
     0
102
RTVSPost2010Prop52
140
1.0
102
RTVSPost2010PropOp52
 70
     0
102
RTVSPost2010Prop53
 90
        2
102
RTVSPost2010PropOp53
 70
     1
102
RTVSPost2010Prop54
  1
strokes_ogs.tif
102
RTVSPost2010PropOp54
 70
     1
102
RTVSPost2010Prop55
280
     0
102
RTVSPost2010PropOp55
 70
     1
102
RTVSPost2010Prop56
140
1.0
102
RTVSPost2010PropOp56
 70
     1
102
RTVSPost2010Prop57
140
1.0
102
RTVSPost2010PropOp57
 70
     1
102
RTVSPropertyOp0
 70
     1
102
RTVSPropertyOp1
 70
     1
102
RTVSPropertyOp2
 70
     1
102
RTVSPropertyOp3
 70
     1
102
RTVSPropertyOp4
 70
     1
102
RTVSPropertyOp5
 70
     1
102
RTVSPropertyOp6
 70
     1
102
RTVSPropertyOp7
 70
     1
102
RTVSPropertyOp8
 70
     1
102
RTVSPropertyOp9
 70
     1
102
RTVSPropertyOp10
 70
     1
102
RTVSPropertyOp11
 70
     1
102
RTVSPropertyOp12
 70
     1
102
RTVSPropertyOp13
 70
     1
102
RTVSPropertyOp14
 70
     1
102
RTVSPropertyOp15
 70
     1
102
RTVSPropertyOp16
 70
     1
102
RTVSPropertyOp17
 70
     1
102
RTVSPropertyOp18
 70
     1
102
RTVSPropertyOp19
 70
     1
102
RTVSPropertyOp20
 70
     1
102
RTVSPropertyOp21
 70
     1
102
RTVSPropertyOp22
 70
     1
102
RTVSPropertyOp23
 70
     1
102
RTVSPropertyOp24
 70
     1
102
RTVSPropertyOp25
 70
     1
102
RTVSPropertyOp26
 70
     1
102
RTVSPropertyOp27
 70
     1
102
RTVSPropertyOp28
 70
     1
102
RTVSPropertyOp29
 70
     1
102
RTVSPropertyOp30
 70
     1
102
RTVSPropertyOp31
 70
     1
102
RTVSPropertyOp32
 70
     1
102
RTVSPropertyOp33
 70
     1
102
RTVSPropertyOp34
 70
     1
102
RTVSPropertyOp35
 70
     1
102
RTVSPropertyOp36
 70
     1
102
RTVSPropertyOp37
 70
     1
102
RTVSPropertyOp38
 70
     1
102
RTVSPropertyOp39
 70
     1
102
RTVSPropertyOp40
 70
     1
102
RTVSPropertyOp41
 70
     1
102
RTVSPropertyOp42
 70
     1
102
RTVSPropertyOp43
 70
     1
102
RTVSPropertyOp44
 70
     1
102
RTVSPropertyOp45
 70
     1
102
RTVSPropertyOp46
 70
     1
102
RTVSPropertyOp47
 70
     1
102
RTVSPropertyOp48
 70
     1
102
RTVSPropertyOp49
 70
     1
102
RTVSPropertyOp50
 70
     1
102
RTVSPropertyOp51
 70
     0
102
RTVSPropertyOp52
 70
     0
102
RTVSPropertyOp53
 70
     1
102
RTVSPropertyOp54
 70
     1
102
RTVSPropertyOp55
 70
     1
102
RTVSPropertyOp56
 70
     1
102
RTVSPropertyOp57
 70
     1
102
RTVSPropertyOp58
 70
     1
102
RTVSPropertyOp59
 70
     1
102
RTVSPropertyOp60
 70
     1
102
RTVSPropertyOp61
 70
     1
102
RTVSPropertyOp62
 70
     1
  0
XRECORD
  5
AAEA
102
{ACAD_REACTORS
330
AAE9
102
}
330
AAE9
100
AcDbXrecord
280
     1
102
RTVSPost2010Prop28
280
     0
102
RTVSPost2010PropOp28
 70
     1
102
RTVSPost2010Prop29
280
     1
102
RTVSPost2010PropOp29
 70
     1
102
RTVSPost2010Prop30
280
     1
102
RTVSPost2010PropOp30
 70
     1
102
RTVSPost2010Prop31
280
     0
102
RTVSPost2010PropOp31
 70
     1
102
RTVSPost2010Prop32
280
     0
102
RTVSPost2010PropOp32
 70
     1
102
RTVSPost2010Prop33
280
     0
102
RTVSPost2010PropOp33
 70
     1
102
RTVSPost2010Prop34
280
     0
102
RTVSPost2010PropOp34
 70
     1
102
RTVSPost2010Prop35
280
     0
102
RTVSPost2010PropOp35
 70
     1
102
RTVSPost2010Prop36
280
     0
102
RTVSPost2010PropOp36
 70
     1
102
RTVSPost2010Prop37
 90
       50
102
RTVSPost2010PropOp37
 70
     1
102
RTVSPost2010Prop38
140
0.0
102
RTVSPost2010PropOp38
 70
     1
102
RTVSPost2010Prop39
140
1.0
102
RTVSPost2010PropOp39
 70
     1
102
RTVSPost2010Prop40
 90
        0
102
RTVSPost2010PropOp40
 70
     1
102
RTVSPost2010Prop41ColorIndex
 90
       18
102
RTVSPost2010Prop41ColorRGB
 90
        0
102
RTVSPost2010PropOp41
 70
     1
102
RTVSPost2010Prop42
 90
       50
102
RTVSPost2010PropOp42
 70
     1
102
RTVSPost2010Prop43
 90
        3
102
RTVSPost2010PropOp43
 70
     1
102
RTVSPost2010Prop44ColorIndex
 90
        5
102
RTVSPost2010Prop44ColorRGB
 90
      255
102
RTVSPost2010PropOp44
 70
     1
102
RTVSPost2010Prop45
280
     0
102
RTVSPost2010PropOp45
 70
     1
102
RTVSPost2010Prop46
 90
       50
102
RTVSPost2010PropOp46
 70
     1
102
RTVSPost2010Prop47
 90
       50
102
RTVSPost2010PropOp47
 70
     1
102
RTVSPost2010Prop48
 90
       50
102
RTVSPost2010PropOp48
 70
     1
102
RTVSPost2010Prop49
280
     0
102
RTVSPost2010PropOp49
 70
     1
102
RTVSPost2010Prop50
 90
       50
102
RTVSPost2010PropOp50
 70
     1
102
RTVSPost2010Prop51ColorIndex
 90
      256
102
RTVSPost2010Prop51ColorRGB
 90
-16777216
102
RTVSPost2010PropOp51
 70
     0
102
RTVSPost2010Prop52
140
1.0
102
RTVSPost2010PropOp52
 70
     0
102
RTVSPost2010Prop53
 90
        2
102
RTVSPost2010PropOp53
 70
     1
102
RTVSPost2010Prop54
  1
strokes_ogs.tif
102
RTVSPost2010PropOp54
 70
     1
102
RTVSPost2010Prop55
280
     0
102
RTVSPost2010PropOp55
 70
     1
102
RTVSPost2010Prop56
140
1.0
102
RTVSPost2010PropOp56
 70
     1
102
RTVSPost2010Prop57
140
1.0
102
RTVSPost2010PropOp57
 70
     1
102
RTVSPropertyOp0
 70
     1
102
RTVSPropertyOp1
 70
     1
102
RTVSPropertyOp2
 70
     1
102
RTVSPropertyOp3
 70
     1
102
RTVSPropertyOp4
 70
     1
102
RTVSPropertyOp5
 70
     1
102
RTVSPropertyOp6
 70
     1
102
RTVSPropertyOp7
 70
     1
102
RTVSPropertyOp8
 70
     1
102
RTVSPropertyOp9
 70
     1
102
RTVSPropertyOp10
 70
     1
102
RTVSPropertyOp11
 70
     1
102
RTVSPropertyOp12
 70
     1
102
RTVSPropertyOp13
 70
     1
102
RTVSPropertyOp14
 70
     1
102
RTVSPropertyOp15
 70
     1
102
RTVSPropertyOp16
 70
     1
102
RTVSPropertyOp17
 70
     1
102
RTVSPropertyOp18
 70
     1
102
RTVSPropertyOp19
 70
     1
102
RTVSPropertyOp20
 70
     1
102
RTVSPropertyOp21
 70
     1
102
RTVSPropertyOp22
 70
     1
102
RTVSPropertyOp23
 70
     1
102
RTVSPropertyOp24
 70
     1
102
RTVSPropertyOp25
 70
     1
102
RTVSPropertyOp26
 70
     1
102
RTVSPropertyOp27
 70
     1
102
RTVSPropertyOp28
 70
     1
102
RTVSPropertyOp29
 70
     1
102
RTVSPropertyOp30
 70
     1
102
RTVSPropertyOp31
 70
     1
102
RTVSPropertyOp32
 70
     1
102
RTVSPropertyOp33
 70
     1
102
RTVSPropertyOp34
 70
     1
102
RTVSPropertyOp35
 70
     1
102
RTVSPropertyOp36
 70
     1
102
RTVSPropertyOp37
 70
     1
102
RTVSPropertyOp38
 70
     1
102
RTVSPropertyOp39
 70
     1
102
RTVSPropertyOp40
 70
     1
102
RTVSPropertyOp41
 70
     1
102
RTVSPropertyOp42
 70
     1
102
RTVSPropertyOp43
 70
     1
102
RTVSPropertyOp44
 70
     1
102
RTVSPropertyOp45
 70
     1
102
RTVSPropertyOp46
 70
     1
102
RTVSPropertyOp47
 70
     1
102
RTVSPropertyOp48
 70
     1
102
RTVSPropertyOp49
 70
     1
102
RTVSPropertyOp50
 70
     1
102
RTVSPropertyOp51
 70
     0
102
RTVSPropertyOp52
 70
     0
102
RTVSPropertyOp53
 70
     1
102
RTVSPropertyOp54
 70
     1
102
RTVSPropertyOp55
 70
     1
102
RTVSPropertyOp56
 70
     1
102
RTVSPropertyOp57
 70
     1
102
RTVSPropertyOp58
 70
     1
102
RTVSPropertyOp59
 70
     1
102
RTVSPropertyOp60
 70
     1
102
RTVSPropertyOp61
 70
     1
102
RTVSPropertyOp62
 70
     1
  0
XRECORD
  5
AAEE
102
{ACAD_REACTORS
330
AAED
102
}
330
AAED
100
AcDbXrecord
280
     1
102
RTVSPost2010Prop28
280
     0
102
RTVSPost2010PropOp28
 70
     1
102
RTVSPost2010Prop29
280
     1
102
RTVSPost2010PropOp29
 70
     1
102
RTVSPost2010Prop30
280
     1
102
RTVSPost2010PropOp30
 70
     1
102
RTVSPost2010Prop31
280
     0
102
RTVSPost2010PropOp31
 70
     1
102
RTVSPost2010Prop32
280
     0
102
RTVSPost2010PropOp32
 70
     1
102
RTVSPost2010Prop33
280
     0
102
RTVSPost2010PropOp33
 70
     1
102
RTVSPost2010Prop34
280
     0
102
RTVSPost2010PropOp34
 70
     1
102
RTVSPost2010Prop35
280
     0
102
RTVSPost2010PropOp35
 70
     1
102
RTVSPost2010Prop36
280
     0
102
RTVSPost2010PropOp36
 70
     1
102
RTVSPost2010Prop37
 90
       50
102
RTVSPost2010PropOp37
 70
     1
102
RTVSPost2010Prop38
140
0.0
102
RTVSPost2010PropOp38
 70
     1
102
RTVSPost2010Prop39
140
1.0
102
RTVSPost2010PropOp39
 70
     1
102
RTVSPost2010Prop40
 90
        0
102
RTVSPost2010PropOp40
 70
     1
102
RTVSPost2010Prop41ColorIndex
 90
       18
102
RTVSPost2010Prop41ColorRGB
 90
        0
102
RTVSPost2010PropOp41
 70
     1
102
RTVSPost2010Prop42
 90
       50
102
RTVSPost2010PropOp42
 70
     1
102
RTVSPost2010Prop43
 90
        3
102
RTVSPost2010PropOp43
 70
     1
102
RTVSPost2010Prop44ColorIndex
 90
        5
102
RTVSPost2010Prop44ColorRGB
 90
      255
102
RTVSPost2010PropOp44
 70
     1
102
RTVSPost2010Prop45
280
     0
102
RTVSPost2010PropOp45
 70
     1
102
RTVSPost2010Prop46
 90
       50
102
RTVSPost2010PropOp46
 70
     1
102
RTVSPost2010Prop47
 90
       50
102
RTVSPost2010PropOp47
 70
     1
102
RTVSPost2010Prop48
 90
       50
102
RTVSPost2010PropOp48
 70
     1
102
RTVSPost2010Prop49
280
     0
102
RTVSPost2010PropOp49
 70
     1
102
RTVSPost2010Prop50
 90
       50
102
RTVSPost2010PropOp50
 70
     1
102
RTVSPost2010Prop51ColorIndex
 90
      256
102
RTVSPost2010Prop51ColorRGB
 90
-16777216
102
RTVSPost2010PropOp51
 70
     0
102
RTVSPost2010Prop52
140
1.0
102
RTVSPost2010PropOp52
 70
     0
102
RTVSPost2010Prop53
 90
        2
102
RTVSPost2010PropOp53
 70
     1
102
RTVSPost2010Prop54
  1
strokes_ogs.tif
102
RTVSPost2010PropOp54
 70
     1
102
RTVSPost2010Prop55
280
     0
102
RTVSPost2010PropOp55
 70
     1
102
RTVSPost2010Prop56
140
1.0
102
RTVSPost2010PropOp56
 70
     1
102
RTVSPost2010Prop57
140
1.0
102
RTVSPost2010PropOp57
 70
     1
102
RTVSPropertyOp0
 70
     1
102
RTVSPropertyOp1
 70
     1
102
RTVSPropertyOp2
 70
     1
102
RTVSPropertyOp3
 70
     1
102
RTVSPropertyOp4
 70
     1
102
RTVSPropertyOp5
 70
     1
102
RTVSPropertyOp6
 70
     1
102
RTVSPropertyOp7
 70
     1
102
RTVSPropertyOp8
 70
     1
102
RTVSPropertyOp9
 70
     1
102
RTVSPropertyOp10
 70
     1
102
RTVSPropertyOp11
 70
     1
102
RTVSPropertyOp12
 70
     1
102
RTVSPropertyOp13
 70
     1
102
RTVSPropertyOp14
 70
     1
102
RTVSPropertyOp15
 70
     1
102
RTVSPropertyOp16
 70
     1
102
RTVSPropertyOp17
 70
     1
102
RTVSPropertyOp18
 70
     1
102
RTVSPropertyOp19
 70
     1
102
RTVSPropertyOp20
 70
     1
102
RTVSPropertyOp21
 70
     1
102
RTVSPropertyOp22
 70
     1
102
RTVSPropertyOp23
 70
     1
102
RTVSPropertyOp24
 70
     1
102
RTVSPropertyOp25
 70
     1
102
RTVSPropertyOp26
 70
     1
102
RTVSPropertyOp27
 70
     1
102
RTVSPropertyOp28
 70
     1
102
RTVSPropertyOp29
 70
     1
102
RTVSPropertyOp30
 70
     1
102
RTVSPropertyOp31
 70
     1
102
RTVSPropertyOp32
 70
     1
102
RTVSPropertyOp33
 70
     1
102
RTVSPropertyOp34
 70
     1
102
RTVSPropertyOp35
 70
     1
102
RTVSPropertyOp36
 70
     1
102
RTVSPropertyOp37
 70
     1
102
RTVSPropertyOp38
 70
     1
102
RTVSPropertyOp39
 70
     1
102
RTVSPropertyOp40
 70
     1
102
RTVSPropertyOp41
 70
     1
102
RTVSPropertyOp42
 70
     1
102
RTVSPropertyOp43
 70
     1
102
RTVSPropertyOp44
 70
     1
102
RTVSPropertyOp45
 70
     1
102
RTVSPropertyOp46
 70
     1
102
RTVSPropertyOp47
 70
     1
102
RTVSPropertyOp48
 70
     1
102
RTVSPropertyOp49
 70
     1
102
RTVSPropertyOp50
 70
     1
102
RTVSPropertyOp51
 70
     0
102
RTVSPropertyOp52
 70
     0
102
RTVSPropertyOp53
 70
     1
102
RTVSPropertyOp54
 70
     1
102
RTVSPropertyOp55
 70
     1
102
RTVSPropertyOp56
 70
     1
102
RTVSPropertyOp57
 70
     1
102
RTVSPropertyOp58
 70
     1
102
RTVSPropertyOp59
 70
     1
102
RTVSPropertyOp60
 70
     1
102
RTVSPropertyOp61
 70
     1
102
RTVSPropertyOp62
 70
     1
  0
XRECORD
  5
AB08
102
{ACAD_REACTORS
330
AB07
102
}
330
AB07
100
AcDbXrecord
280
     1
102
RTVSPost2010Prop28
280
     0
102
RTVSPost2010PropOp28
 70
     0
102
RTVSPost2010Prop29
280
     1
102
RTVSPost2010PropOp29
 70
     0
102
RTVSPost2010Prop30
280
     1
102
RTVSPost2010PropOp30
 70
     0
102
RTVSPost2010Prop31
280
     0
102
RTVSPost2010PropOp31
 70
     0
102
RTVSPost2010Prop32
280
     0
102
RTVSPost2010PropOp32
 70
     0
102
RTVSPost2010Prop33
280
     0
102
RTVSPost2010PropOp33
 70
     0
102
RTVSPost2010Prop34
280
     0
102
RTVSPost2010PropOp34
 70
     0
102
RTVSPost2010Prop35
280
     0
102
RTVSPost2010PropOp35
 70
     0
102
RTVSPost2010Prop36
280
     0
102
RTVSPost2010PropOp36
 70
     0
102
RTVSPost2010Prop37
 90
       50
102
RTVSPost2010PropOp37
 70
     0
102
RTVSPost2010Prop38
140
0.0
102
RTVSPost2010PropOp38
 70
     0
102
RTVSPost2010Prop39
140
1.0
102
RTVSPost2010PropOp39
 70
     0
102
RTVSPost2010Prop40
 90
        0
102
RTVSPost2010PropOp40
 70
     0
102
RTVSPost2010Prop41ColorIndex
 90
       18
102
RTVSPost2010Prop41ColorRGB
 90
        0
102
RTVSPost2010PropOp41
 70
     0
102
RTVSPost2010Prop42
 90
       50
102
RTVSPost2010PropOp42
 70
     0
102
RTVSPost2010Prop43
 90
        3
102
RTVSPost2010PropOp43
 70
     0
102
RTVSPost2010Prop44ColorIndex
 90
        5
102
RTVSPost2010Prop44ColorRGB
 90
      255
102
RTVSPost2010PropOp44
 70
     0
102
RTVSPost2010Prop45
280
     0
102
RTVSPost2010PropOp45
 70
     0
102
RTVSPost2010Prop46
 90
       50
102
RTVSPost2010PropOp46
 70
     0
102
RTVSPost2010Prop47
 90
       50
102
RTVSPost2010PropOp47
 70
     0
102
RTVSPost2010Prop48
 90
       50
102
RTVSPost2010PropOp48
 70
     0
102
RTVSPost2010Prop49
280
     0
102
RTVSPost2010PropOp49
 70
     0
102
RTVSPost2010Prop50
 90
       50
102
RTVSPost2010PropOp50
 70
     0
102
RTVSPost2010Prop51ColorIndex
 90
      256
102
RTVSPost2010Prop51ColorRGB
 90
-16777216
102
RTVSPost2010PropOp51
 70
     0
102
RTVSPost2010Prop52
140
1.0
102
RTVSPost2010PropOp52
 70
     0
102
RTVSPost2010Prop53
 90
        2
102
RTVSPost2010PropOp53
 70
     0
102
RTVSPost2010Prop54
  1
strokes_ogs.tif
102
RTVSPost2010PropOp54
 70
     0
102
RTVSPost2010Prop55
280
     0
102
RTVSPost2010PropOp55
 70
     0
102
RTVSPost2010Prop56
140
1.0
102
RTVSPost2010PropOp56
 70
     0
102
RTVSPost2010Prop57
140
1.0
102
RTVSPost2010PropOp57
 70
     0
102
RTVSPropertyOp0
 70
     0
102
RTVSPropertyOp1
 70
     0
102
RTVSPropertyOp2
 70
     0
102
RTVSPropertyOp3
 70
     0
102
RTVSPropertyOp4
 70
     0
102
RTVSPropertyOp5
 70
     0
102
RTVSPropertyOp6
 70
     0
102
RTVSPropertyOp7
 70
     0
102
RTVSPropertyOp8
 70
     0
102
RTVSPropertyOp9
 70
     0
102
RTVSPropertyOp10
 70
     0
102
RTVSPropertyOp11
 70
     0
102
RTVSPropertyOp12
 70
     0
102
RTVSPropertyOp13
 70
     0
102
RTVSPropertyOp14
 70
     2
102
RTVSPropertyOp15
 70
     0
102
RTVSPropertyOp16
 70
     0
102
RTVSPropertyOp17
 70
     0
102
RTVSPropertyOp18
 70
     0
102
RTVSPropertyOp19
 70
     0
102
RTVSPropertyOp20
 70
     0
102
RTVSPropertyOp21
 70
     0
102
RTVSPropertyOp22
 70
     0
102
RTVSPropertyOp23
 70
     0
102
RTVSPropertyOp24
 70
     0
102
RTVSPropertyOp25
 70
     0
102
RTVSPropertyOp26
 70
     0
102
RTVSPropertyOp27
 70
     0
102
RTVSPropertyOp28
 70
     0
102
RTVSPropertyOp29
 70
     0
102
RTVSPropertyOp30
 70
     0
102
RTVSPropertyOp31
 70
     0
102
RTVSPropertyOp32
 70
     0
102
RTVSPropertyOp33
 70
     0
102
RTVSPropertyOp34
 70
     0
102
RTVSPropertyOp35
 70
     0
102
RTVSPropertyOp36
 70
     0
102
RTVSPropertyOp37
 70
     0
102
RTVSPropertyOp38
 70
     0
102
RTVSPropertyOp39
 70
     0
102
RTVSPropertyOp40
 70
     0
102
RTVSPropertyOp41
 70
     0
102
RTVSPropertyOp42
 70
     0
102
RTVSPropertyOp43
 70
     0
102
RTVSPropertyOp44
 70
     0
102
RTVSPropertyOp45
 70
     0
102
RTVSPropertyOp46
 70
     0
102
RTVSPropertyOp47
 70
     0
102
RTVSPropertyOp48
 70
     0
102
RTVSPropertyOp49
 70
     0
102
RTVSPropertyOp50
 70
     0
102
RTVSPropertyOp51
 70
     0
102
RTVSPropertyOp52
 70
     0
102
RTVSPropertyOp53
 70
     0
102
RTVSPropertyOp54
 70
     0
102
RTVSPropertyOp55
 70
     0
102
RTVSPropertyOp56
 70
     0
102
RTVSPropertyOp57
 70
     0
102
RTVSPropertyOp58
 70
     0
102
RTVSPropertyOp59
 70
     0
102
RTVSPropertyOp60
 70
     0
102
RTVSPropertyOp61
 70
     0
102
RTVSPropertyOp62
 70
     0
  0
XRECORD
  5
AAF6
102
{ACAD_REACTORS
330
AAF5
102
}
330
AAF5
100
AcDbXrecord
280
     1
102
RTVSPost2010Prop28
280
     0
102
RTVSPost2010PropOp28
 70
     1
102
RTVSPost2010Prop29
280
     1
102
RTVSPost2010PropOp29
 70
     1
102
RTVSPost2010Prop30
280
     1
102
RTVSPost2010PropOp30
 70
     1
102
RTVSPost2010Prop31
280
     0
102
RTVSPost2010PropOp31
 70
     1
102
RTVSPost2010Prop32
280
     0
102
RTVSPost2010PropOp32
 70
     1
102
RTVSPost2010Prop33
280
     0
102
RTVSPost2010PropOp33
 70
     1
102
RTVSPost2010Prop34
280
     0
102
RTVSPost2010PropOp34
 70
     1
102
RTVSPost2010Prop35
280
     0
102
RTVSPost2010PropOp35
 70
     1
102
RTVSPost2010Prop36
280
     0
102
RTVSPost2010PropOp36
 70
     1
102
RTVSPost2010Prop37
 90
       50
102
RTVSPost2010PropOp37
 70
     1
102
RTVSPost2010Prop38
140
0.0
102
RTVSPost2010PropOp38
 70
     1
102
RTVSPost2010Prop39
140
1.0
102
RTVSPost2010PropOp39
 70
     1
102
RTVSPost2010Prop40
 90
        0
102
RTVSPost2010PropOp40
 70
     1
102
RTVSPost2010Prop41ColorIndex
 90
       18
102
RTVSPost2010Prop41ColorRGB
 90
        0
102
RTVSPost2010PropOp41
 70
     1
102
RTVSPost2010Prop42
 90
       50
102
RTVSPost2010PropOp42
 70
     1
102
RTVSPost2010Prop43
 90
        3
102
RTVSPost2010PropOp43
 70
     1
102
RTVSPost2010Prop44ColorIndex
 90
        5
102
RTVSPost2010Prop44ColorRGB
 90
      255
102
RTVSPost2010PropOp44
 70
     1
102
RTVSPost2010Prop45
280
     0
102
RTVSPost2010PropOp45
 70
     1
102
RTVSPost2010Prop46
 90
       50
102
RTVSPost2010PropOp46
 70
     1
102
RTVSPost2010Prop47
 90
       50
102
RTVSPost2010PropOp47
 70
     1
102
RTVSPost2010Prop48
 90
       50
102
RTVSPost2010PropOp48
 70
     1
102
RTVSPost2010Prop49
280
     0
102
RTVSPost2010PropOp49
 70
     1
102
RTVSPost2010Prop50
 90
       50
102
RTVSPost2010PropOp50
 70
     1
102
RTVSPost2010Prop51ColorIndex
 90
      256
102
RTVSPost2010Prop51ColorRGB
 90
-16777216
102
RTVSPost2010PropOp51
 70
     0
102
RTVSPost2010Prop52
140
1.0
102
RTVSPost2010PropOp52
 70
     0
102
RTVSPost2010Prop53
 90
        2
102
RTVSPost2010PropOp53
 70
     1
102
RTVSPost2010Prop54
  1
strokes_ogs.tif
102
RTVSPost2010PropOp54
 70
     1
102
RTVSPost2010Prop55
280
     0
102
RTVSPost2010PropOp55
 70
     1
102
RTVSPost2010Prop56
140
1.0
102
RTVSPost2010PropOp56
 70
     1
102
RTVSPost2010Prop57
140
1.0
102
RTVSPost2010PropOp57
 70
     1
102
RTVSPropertyOp0
 70
     1
102
RTVSPropertyOp1
 70
     1
102
RTVSPropertyOp2
 70
     1
102
RTVSPropertyOp3
 70
     1
102
RTVSPropertyOp4
 70
     1
102
RTVSPropertyOp5
 70
     1
102
RTVSPropertyOp6
 70
     1
102
RTVSPropertyOp7
 70
     1
102
RTVSPropertyOp8
 70
     1
102
RTVSPropertyOp9
 70
     1
102
RTVSPropertyOp10
 70
     1
102
RTVSPropertyOp11
 70
     1
102
RTVSPropertyOp12
 70
     1
102
RTVSPropertyOp13
 70
     1
102
RTVSPropertyOp14
 70
     1
102
RTVSPropertyOp15
 70
     1
102
RTVSPropertyOp16
 70
     1
102
RTVSPropertyOp17
 70
     1
102
RTVSPropertyOp18
 70
     1
102
RTVSPropertyOp19
 70
     1
102
RTVSPropertyOp20
 70
     1
102
RTVSPropertyOp21
 70
     1
102
RTVSPropertyOp22
 70
     1
102
RTVSPropertyOp23
 70
     1
102
RTVSPropertyOp24
 70
     1
102
RTVSPropertyOp25
 70
     1
102
RTVSPropertyOp26
 70
     1
102
RTVSPropertyOp27
 70
     1
102
RTVSPropertyOp28
 70
     1
102
RTVSPropertyOp29
 70
     1
102
RTVSPropertyOp30
 70
     1
102
RTVSPropertyOp31
 70
     1
102
RTVSPropertyOp32
 70
     1
102
RTVSPropertyOp33
 70
     1
102
RTVSPropertyOp34
 70
     1
102
RTVSPropertyOp35
 70
     1
102
RTVSPropertyOp36
 70
     1
102
RTVSPropertyOp37
 70
     1
102
RTVSPropertyOp38
 70
     1
102
RTVSPropertyOp39
 70
     1
102
RTVSPropertyOp40
 70
     1
102
RTVSPropertyOp41
 70
     1
102
RTVSPropertyOp42
 70
     1
102
RTVSPropertyOp43
 70
     1
102
RTVSPropertyOp44
 70
     1
102
RTVSPropertyOp45
 70
     1
102
RTVSPropertyOp46
 70
     1
102
RTVSPropertyOp47
 70
     1
102
RTVSPropertyOp48
 70
     1
102
RTVSPropertyOp49
 70
     1
102
RTVSPropertyOp50
 70
     1
102
RTVSPropertyOp51
 70
     0
102
RTVSPropertyOp52
 70
     0
102
RTVSPropertyOp53
 70
     1
102
RTVSPropertyOp54
 70
     1
102
RTVSPropertyOp55
 70
     1
102
RTVSPropertyOp56
 70
     1
102
RTVSPropertyOp57
 70
     1
102
RTVSPropertyOp58
 70
     1
102
RTVSPropertyOp59
 70
     1
102
RTVSPropertyOp60
 70
     1
102
RTVSPropertyOp61
 70
     1
102
RTVSPropertyOp62
 70
     1
  0
XRECORD
  5
AADA
102
{ACAD_REACTORS
330
AAD9
102
}
330
AAD9
100
AcDbXrecord
280
     1
102
RTVSPost2010Prop28
280
     0
102
RTVSPost2010PropOp28
 70
     1
102
RTVSPost2010Prop29
280
     1
102
RTVSPost2010PropOp29
 70
     1
102
RTVSPost2010Prop30
280
     1
102
RTVSPost2010PropOp30
 70
     1
102
RTVSPost2010Prop31
280
     0
102
RTVSPost2010PropOp31
 70
     1
102
RTVSPost2010Prop32
280
     0
102
RTVSPost2010PropOp32
 70
     1
102
RTVSPost2010Prop33
280
     0
102
RTVSPost2010PropOp33
 70
     1
102
RTVSPost2010Prop34
280
     0
102
RTVSPost2010PropOp34
 70
     1
102
RTVSPost2010Prop35
280
     0
102
RTVSPost2010PropOp35
 70
     1
102
RTVSPost2010Prop36
280
     0
102
RTVSPost2010PropOp36
 70
     1
102
RTVSPost2010Prop37
 90
       50
102
RTVSPost2010PropOp37
 70
     1
102
RTVSPost2010Prop38
140
0.0
102
RTVSPost2010PropOp38
 70
     1
102
RTVSPost2010Prop39
140
1.0
102
RTVSPost2010PropOp39
 70
     1
102
RTVSPost2010Prop40
 90
        0
102
RTVSPost2010PropOp40
 70
     1
102
RTVSPost2010Prop41ColorIndex
 90
       18
102
RTVSPost2010Prop41ColorRGB
 90
        0
102
RTVSPost2010PropOp41
 70
     1
102
RTVSPost2010Prop42
 90
       50
102
RTVSPost2010PropOp42
 70
     1
102
RTVSPost2010Prop43
 90
        3
102
RTVSPost2010PropOp43
 70
     1
102
RTVSPost2010Prop44ColorIndex
 90
        5
102
RTVSPost2010Prop44ColorRGB
 90
      255
102
RTVSPost2010PropOp44
 70
     1
102
RTVSPost2010Prop45
280
     0
102
RTVSPost2010PropOp45
 70
     1
102
RTVSPost2010Prop46
 90
       50
102
RTVSPost2010PropOp46
 70
     1
102
RTVSPost2010Prop47
 90
       50
102
RTVSPost2010PropOp47
 70
     1
102
RTVSPost2010Prop48
 90
       50
102
RTVSPost2010PropOp48
 70
     1
102
RTVSPost2010Prop49
280
     0
102
RTVSPost2010PropOp49
 70
     1
102
RTVSPost2010Prop50
 90
       50
102
RTVSPost2010PropOp50
 70
     1
102
RTVSPost2010Prop51ColorIndex
 90
      256
102
RTVSPost2010Prop51ColorRGB
 90
-16777216
102
RTVSPost2010PropOp51
 70
     0
102
RTVSPost2010Prop52
140
1.0
102
RTVSPost2010PropOp52
 70
     0
102
RTVSPost2010Prop53
 90
        2
102
RTVSPost2010PropOp53
 70
     1
102
RTVSPost2010Prop54
  1
strokes_ogs.tif
102
RTVSPost2010PropOp54
 70
     1
102
RTVSPost2010Prop55
280
     0
102
RTVSPost2010PropOp55
 70
     1
102
RTVSPost2010Prop56
140
1.0
102
RTVSPost2010PropOp56
 70
     1
102
RTVSPost2010Prop57
140
1.0
102
RTVSPost2010PropOp57
 70
     1
102
RTVSPropertyOp0
 70
     1
102
RTVSPropertyOp1
 70
     1
102
RTVSPropertyOp2
 70
     1
102
RTVSPropertyOp3
 70
     1
102
RTVSPropertyOp4
 70
     1
102
RTVSPropertyOp5
 70
     1
102
RTVSPropertyOp6
 70
     1
102
RTVSPropertyOp7
 70
     1
102
RTVSPropertyOp8
 70
     1
102
RTVSPropertyOp9
 70
     1
102
RTVSPropertyOp10
 70
     1
102
RTVSPropertyOp11
 70
     1
102
RTVSPropertyOp12
 70
     1
102
RTVSPropertyOp13
 70
     1
102
RTVSPropertyOp14
 70
     1
102
RTVSPropertyOp15
 70
     1
102
RTVSPropertyOp16
 70
     1
102
RTVSPropertyOp17
 70
     1
102
RTVSPropertyOp18
 70
     1
102
RTVSPropertyOp19
 70
     1
102
RTVSPropertyOp20
 70
     1
102
RTVSPropertyOp21
 70
     1
102
RTVSPropertyOp22
 70
     1
102
RTVSPropertyOp23
 70
     1
102
RTVSPropertyOp24
 70
     1
102
RTVSPropertyOp25
 70
     1
102
RTVSPropertyOp26
 70
     1
102
RTVSPropertyOp27
 70
     1
102
RTVSPropertyOp28
 70
     1
102
RTVSPropertyOp29
 70
     1
102
RTVSPropertyOp30
 70
     1
102
RTVSPropertyOp31
 70
     1
102
RTVSPropertyOp32
 70
     1
102
RTVSPropertyOp33
 70
     1
102
RTVSPropertyOp34
 70
     1
102
RTVSPropertyOp35
 70
     1
102
RTVSPropertyOp36
 70
     1
102
RTVSPropertyOp37
 70
     1
102
RTVSPropertyOp38
 70
     1
102
RTVSPropertyOp39
 70
     1
102
RTVSPropertyOp40
 70
     1
102
RTVSPropertyOp41
 70
     1
102
RTVSPropertyOp42
 70
     1
102
RTVSPropertyOp43
 70
     1
102
RTVSPropertyOp44
 70
     1
102
RTVSPropertyOp45
 70
     1
102
RTVSPropertyOp46
 70
     1
102
RTVSPropertyOp47
 70
     1
102
RTVSPropertyOp48
 70
     1
102
RTVSPropertyOp49
 70
     1
102
RTVSPropertyOp50
 70
     1
102
RTVSPropertyOp51
 70
     0
102
RTVSPropertyOp52
 70
     0
102
RTVSPropertyOp53
 70
     1
102
RTVSPropertyOp54
 70
     1
102
RTVSPropertyOp55
 70
     1
102
RTVSPropertyOp56
 70
     1
102
RTVSPropertyOp57
 70
     1
102
RTVSPropertyOp58
 70
     1
102
RTVSPropertyOp59
 70
     1
102
RTVSPropertyOp60
 70
     1
102
RTVSPropertyOp61
 70
     1
102
RTVSPropertyOp62
 70
     1
  0
XRECORD
  5
AADC
102
{ACAD_REACTORS
330
AADB
102
}
330
AADB
100
AcDbXrecord
280
     1
102
RTVSPost2010Prop28
280
     0
102
RTVSPost2010PropOp28
 70
     1
102
RTVSPost2010Prop29
280
     1
102
RTVSPost2010PropOp29
 70
     1
102
RTVSPost2010Prop30
280
     1
102
RTVSPost2010PropOp30
 70
     1
102
RTVSPost2010Prop31
280
     0
102
RTVSPost2010PropOp31
 70
     1
102
RTVSPost2010Prop32
280
     0
102
RTVSPost2010PropOp32
 70
     1
102
RTVSPost2010Prop33
280
     0
102
RTVSPost2010PropOp33
 70
     1
102
RTVSPost2010Prop34
280
     0
102
RTVSPost2010PropOp34
 70
     1
102
RTVSPost2010Prop35
280
     0
102
RTVSPost2010PropOp35
 70
     1
102
RTVSPost2010Prop36
280
     0
102
RTVSPost2010PropOp36
 70
     1
102
RTVSPost2010Prop37
 90
       50
102
RTVSPost2010PropOp37
 70
     1
102
RTVSPost2010Prop38
140
0.0
102
RTVSPost2010PropOp38
 70
     1
102
RTVSPost2010Prop39
140
1.0
102
RTVSPost2010PropOp39
 70
     1
102
RTVSPost2010Prop40
 90
        0
102
RTVSPost2010PropOp40
 70
     1
102
RTVSPost2010Prop41ColorIndex
 90
       18
102
RTVSPost2010Prop41ColorRGB
 90
        0
102
RTVSPost2010PropOp41
 70
     1
102
RTVSPost2010Prop42
 90
       50
102
RTVSPost2010PropOp42
 70
     1
102
RTVSPost2010Prop43
 90
        3
102
RTVSPost2010PropOp43
 70
     1
102
RTVSPost2010Prop44ColorIndex
 90
        5
102
RTVSPost2010Prop44ColorRGB
 90
      255
102
RTVSPost2010PropOp44
 70
     1
102
RTVSPost2010Prop45
280
     0
102
RTVSPost2010PropOp45
 70
     1
102
RTVSPost2010Prop46
 90
       50
102
RTVSPost2010PropOp46
 70
     1
102
RTVSPost2010Prop47
 90
       50
102
RTVSPost2010PropOp47
 70
     1
102
RTVSPost2010Prop48
 90
       50
102
RTVSPost2010PropOp48
 70
     1
102
RTVSPost2010Prop49
280
     0
102
RTVSPost2010PropOp49
 70
     1
102
RTVSPost2010Prop50
 90
       50
102
RTVSPost2010PropOp50
 70
     1
102
RTVSPost2010Prop51ColorIndex
 90
      256
102
RTVSPost2010Prop51ColorRGB
 90
-16777216
102
RTVSPost2010PropOp51
 70
     0
102
RTVSPost2010Prop52
140
1.0
102
RTVSPost2010PropOp52
 70
     0
102
RTVSPost2010Prop53
 90
        2
102
RTVSPost2010PropOp53
 70
     1
102
RTVSPost2010Prop54
  1
strokes_ogs.tif
102
RTVSPost2010PropOp54
 70
     1
102
RTVSPost2010Prop55
280
     0
102
RTVSPost2010PropOp55
 70
     1
102
RTVSPost2010Prop56
140
1.0
102
RTVSPost2010PropOp56
 70
     1
102
RTVSPost2010Prop57
140
1.0
102
RTVSPost2010PropOp57
 70
     1
102
RTVSPropertyOp0
 70
     1
102
RTVSPropertyOp1
 70
     1
102
RTVSPropertyOp2
 70
     1
102
RTVSPropertyOp3
 70
     1
102
RTVSPropertyOp4
 70
     1
102
RTVSPropertyOp5
 70
     1
102
RTVSPropertyOp6
 70
     1
102
RTVSPropertyOp7
 70
     1
102
RTVSPropertyOp8
 70
     1
102
RTVSPropertyOp9
 70
     1
102
RTVSPropertyOp10
 70
     1
102
RTVSPropertyOp11
 70
     1
102
RTVSPropertyOp12
 70
     1
102
RTVSPropertyOp13
 70
     1
102
RTVSPropertyOp14
 70
     1
102
RTVSPropertyOp15
 70
     1
102
RTVSPropertyOp16
 70
     1
102
RTVSPropertyOp17
 70
     1
102
RTVSPropertyOp18
 70
     1
102
RTVSPropertyOp19
 70
     1
102
RTVSPropertyOp20
 70
     1
102
RTVSPropertyOp21
 70
     1
102
RTVSPropertyOp22
 70
     1
102
RTVSPropertyOp23
 70
     1
102
RTVSPropertyOp24
 70
     1
102
RTVSPropertyOp25
 70
     1
102
RTVSPropertyOp26
 70
     1
102
RTVSPropertyOp27
 70
     1
102
RTVSPropertyOp28
 70
     1
102
RTVSPropertyOp29
 70
     1
102
RTVSPropertyOp30
 70
     1
102
RTVSPropertyOp31
 70
     1
102
RTVSPropertyOp32
 70
     1
102
RTVSPropertyOp33
 70
     1
102
RTVSPropertyOp34
 70
     1
102
RTVSPropertyOp35
 70
     1
102
RTVSPropertyOp36
 70
     1
102
RTVSPropertyOp37
 70
     1
102
RTVSPropertyOp38
 70
     1
102
RTVSPropertyOp39
 70
     1
102
RTVSPropertyOp40
 70
     1
102
RTVSPropertyOp41
 70
     1
102
RTVSPropertyOp42
 70
     1
102
RTVSPropertyOp43
 70
     1
102
RTVSPropertyOp44
 70
     1
102
RTVSPropertyOp45
 70
     1
102
RTVSPropertyOp46
 70
     1
102
RTVSPropertyOp47
 70
     1
102
RTVSPropertyOp48
 70
     1
102
RTVSPropertyOp49
 70
     1
102
RTVSPropertyOp50
 70
     1
102
RTVSPropertyOp51
 70
     0
102
RTVSPropertyOp52
 70
     0
102
RTVSPropertyOp53
 70
     1
102
RTVSPropertyOp54
 70
     1
102
RTVSPropertyOp55
 70
     1
102
RTVSPropertyOp56
 70
     1
102
RTVSPropertyOp57
 70
     1
102
RTVSPropertyOp58
 70
     1
102
RTVSPropertyOp59
 70
     1
102
RTVSPropertyOp60
 70
     1
102
RTVSPropertyOp61
 70
     1
102
RTVSPropertyOp62
 70
     1
  0
XRECORD
  5
AADE
102
{ACAD_REACTORS
330
AADD
102
}
330
AADD
100
AcDbXrecord
280
     1
102
RTVSPost2010Prop28
280
     0
102
RTVSPost2010PropOp28
 70
     1
102
RTVSPost2010Prop29
280
     1
102
RTVSPost2010PropOp29
 70
     1
102
RTVSPost2010Prop30
280
     1
102
RTVSPost2010PropOp30
 70
     1
102
RTVSPost2010Prop31
280
     0
102
RTVSPost2010PropOp31
 70
     1
102
RTVSPost2010Prop32
280
     0
102
RTVSPost2010PropOp32
 70
     1
102
RTVSPost2010Prop33
280
     0
102
RTVSPost2010PropOp33
 70
     1
102
RTVSPost2010Prop34
280
     0
102
RTVSPost2010PropOp34
 70
     1
102
RTVSPost2010Prop35
280
     0
102
RTVSPost2010PropOp35
 70
     1
102
RTVSPost2010Prop36
280
     0
102
RTVSPost2010PropOp36
 70
     1
102
RTVSPost2010Prop37
 90
       50
102
RTVSPost2010PropOp37
 70
     1
102
RTVSPost2010Prop38
140
0.0
102
RTVSPost2010PropOp38
 70
     1
102
RTVSPost2010Prop39
140
1.0
102
RTVSPost2010PropOp39
 70
     1
102
RTVSPost2010Prop40
 90
        0
102
RTVSPost2010PropOp40
 70
     1
102
RTVSPost2010Prop41ColorIndex
 90
       18
102
RTVSPost2010Prop41ColorRGB
 90
        0
102
RTVSPost2010PropOp41
 70
     1
102
RTVSPost2010Prop42
 90
       50
102
RTVSPost2010PropOp42
 70
     1
102
RTVSPost2010Prop43
 90
        3
102
RTVSPost2010PropOp43
 70
     1
102
RTVSPost2010Prop44ColorIndex
 90
        5
102
RTVSPost2010Prop44ColorRGB
 90
      255
102
RTVSPost2010PropOp44
 70
     1
102
RTVSPost2010Prop45
280
     0
102
RTVSPost2010PropOp45
 70
     1
102
RTVSPost2010Prop46
 90
       50
102
RTVSPost2010PropOp46
 70
     1
102
RTVSPost2010Prop47
 90
       50
102
RTVSPost2010PropOp47
 70
     1
102
RTVSPost2010Prop48
 90
       50
102
RTVSPost2010PropOp48
 70
     1
102
RTVSPost2010Prop49
280
     0
102
RTVSPost2010PropOp49
 70
     1
102
RTVSPost2010Prop50
 90
       50
102
RTVSPost2010PropOp50
 70
     1
102
RTVSPost2010Prop51ColorIndex
 90
      256
102
RTVSPost2010Prop51ColorRGB
 90
-16777216
102
RTVSPost2010PropOp51
 70
     0
102
RTVSPost2010Prop52
140
1.0
102
RTVSPost2010PropOp52
 70
     0
102
RTVSPost2010Prop53
 90
        2
102
RTVSPost2010PropOp53
 70
     1
102
RTVSPost2010Prop54
  1
strokes_ogs.tif
102
RTVSPost2010PropOp54
 70
     1
102
RTVSPost2010Prop55
280
     0
102
RTVSPost2010PropOp55
 70
     1
102
RTVSPost2010Prop56
140
1.0
102
RTVSPost2010PropOp56
 70
     1
102
RTVSPost2010Prop57
140
1.0
102
RTVSPost2010PropOp57
 70
     1
102
RTVSPropertyOp0
 70
     1
102
RTVSPropertyOp1
 70
     1
102
RTVSPropertyOp2
 70
     1
102
RTVSPropertyOp3
 70
     1
102
RTVSPropertyOp4
 70
     1
102
RTVSPropertyOp5
 70
     1
102
RTVSPropertyOp6
 70
     1
102
RTVSPropertyOp7
 70
     1
102
RTVSPropertyOp8
 70
     1
102
RTVSPropertyOp9
 70
     1
102
RTVSPropertyOp10
 70
     1
102
RTVSPropertyOp11
 70
     1
102
RTVSPropertyOp12
 70
     1
102
RTVSPropertyOp13
 70
     1
102
RTVSPropertyOp14
 70
     1
102
RTVSPropertyOp15
 70
     1
102
RTVSPropertyOp16
 70
     1
102
RTVSPropertyOp17
 70
     1
102
RTVSPropertyOp18
 70
     1
102
RTVSPropertyOp19
 70
     1
102
RTVSPropertyOp20
 70
     1
102
RTVSPropertyOp21
 70
     1
102
RTVSPropertyOp22
 70
     1
102
RTVSPropertyOp23
 70
     1
102
RTVSPropertyOp24
 70
     1
102
RTVSPropertyOp25
 70
     1
102
RTVSPropertyOp26
 70
     1
102
RTVSPropertyOp27
 70
     1
102
RTVSPropertyOp28
 70
     1
102
RTVSPropertyOp29
 70
     1
102
RTVSPropertyOp30
 70
     1
102
RTVSPropertyOp31
 70
     1
102
RTVSPropertyOp32
 70
     1
102
RTVSPropertyOp33
 70
     1
102
RTVSPropertyOp34
 70
     1
102
RTVSPropertyOp35
 70
     1
102
RTVSPropertyOp36
 70
     1
102
RTVSPropertyOp37
 70
     1
102
RTVSPropertyOp38
 70
     1
102
RTVSPropertyOp39
 70
     1
102
RTVSPropertyOp40
 70
     1
102
RTVSPropertyOp41
 70
     1
102
RTVSPropertyOp42
 70
     1
102
RTVSPropertyOp43
 70
     1
102
RTVSPropertyOp44
 70
     1
102
RTVSPropertyOp45
 70
     1
102
RTVSPropertyOp46
 70
     1
102
RTVSPropertyOp47
 70
     1
102
RTVSPropertyOp48
 70
     1
102
RTVSPropertyOp49
 70
     1
102
RTVSPropertyOp50
 70
     1
102
RTVSPropertyOp51
 70
     0
102
RTVSPropertyOp52
 70
     0
102
RTVSPropertyOp53
 70
     1
102
RTVSPropertyOp54
 70
     1
102
RTVSPropertyOp55
 70
     1
102
RTVSPropertyOp56
 70
     1
102
RTVSPropertyOp57
 70
     1
102
RTVSPropertyOp58
 70
     1
102
RTVSPropertyOp59
 70
     1
102
RTVSPropertyOp60
 70
     1
102
RTVSPropertyOp61
 70
     1
102
RTVSPropertyOp62
 70
     1
  0
XRECORD
  5
AAE0
102
{ACAD_REACTORS
330
AADF
102
}
330
AADF
100
AcDbXrecord
280
     1
102
RTVSPost2010Prop28
280
     0
102
RTVSPost2010PropOp28
 70
     1
102
RTVSPost2010Prop29
280
     1
102
RTVSPost2010PropOp29
 70
     1
102
RTVSPost2010Prop30
280
     1
102
RTVSPost2010PropOp30
 70
     1
102
RTVSPost2010Prop31
280
     0
102
RTVSPost2010PropOp31
 70
     1
102
RTVSPost2010Prop32
280
     0
102
RTVSPost2010PropOp32
 70
     1
102
RTVSPost2010Prop33
280
     0
102
RTVSPost2010PropOp33
 70
     1
102
RTVSPost2010Prop34
280
     0
102
RTVSPost2010PropOp34
 70
     1
102
RTVSPost2010Prop35
280
     0
102
RTVSPost2010PropOp35
 70
     1
102
RTVSPost2010Prop36
280
     0
102
RTVSPost2010PropOp36
 70
     1
102
RTVSPost2010Prop37
 90
       50
102
RTVSPost2010PropOp37
 70
     1
102
RTVSPost2010Prop38
140
0.0
102
RTVSPost2010PropOp38
 70
     1
102
RTVSPost2010Prop39
140
1.0
102
RTVSPost2010PropOp39
 70
     1
102
RTVSPost2010Prop40
 90
        0
102
RTVSPost2010PropOp40
 70
     1
102
RTVSPost2010Prop41ColorIndex
 90
       18
102
RTVSPost2010Prop41ColorRGB
 90
        0
102
RTVSPost2010PropOp41
 70
     1
102
RTVSPost2010Prop42
 90
       50
102
RTVSPost2010PropOp42
 70
     1
102
RTVSPost2010Prop43
 90
        3
102
RTVSPost2010PropOp43
 70
     1
102
RTVSPost2010Prop44ColorIndex
 90
        5
102
RTVSPost2010Prop44ColorRGB
 90
      255
102
RTVSPost2010PropOp44
 70
     1
102
RTVSPost2010Prop45
280
     0
102
RTVSPost2010PropOp45
 70
     1
102
RTVSPost2010Prop46
 90
       50
102
RTVSPost2010PropOp46
 70
     1
102
RTVSPost2010Prop47
 90
       50
102
RTVSPost2010PropOp47
 70
     1
102
RTVSPost2010Prop48
 90
       50
102
RTVSPost2010PropOp48
 70
     1
102
RTVSPost2010Prop49
280
     0
102
RTVSPost2010PropOp49
 70
     1
102
RTVSPost2010Prop50
 90
       50
102
RTVSPost2010PropOp50
 70
     1
102
RTVSPost2010Prop51ColorIndex
 90
      256
102
RTVSPost2010Prop51ColorRGB
 90
-16777216
102
RTVSPost2010PropOp51
 70
     0
102
RTVSPost2010Prop52
140
1.0
102
RTVSPost2010PropOp52
 70
     0
102
RTVSPost2010Prop53
 90
        2
102
RTVSPost2010PropOp53
 70
     1
102
RTVSPost2010Prop54
  1
strokes_ogs.tif
102
RTVSPost2010PropOp54
 70
     1
102
RTVSPost2010Prop55
280
     0
102
RTVSPost2010PropOp55
 70
     1
102
RTVSPost2010Prop56
140
1.0
102
RTVSPost2010PropOp56
 70
     1
102
RTVSPost2010Prop57
140
1.0
102
RTVSPost2010PropOp57
 70
     1
102
RTVSPropertyOp0
 70
     1
102
RTVSPropertyOp1
 70
     1
102
RTVSPropertyOp2
 70
     1
102
RTVSPropertyOp3
 70
     1
102
RTVSPropertyOp4
 70
     1
102
RTVSPropertyOp5
 70
     1
102
RTVSPropertyOp6
 70
     1
102
RTVSPropertyOp7
 70
     1
102
RTVSPropertyOp8
 70
     1
102
RTVSPropertyOp9
 70
     1
102
RTVSPropertyOp10
 70
     1
102
RTVSPropertyOp11
 70
     1
102
RTVSPropertyOp12
 70
     1
102
RTVSPropertyOp13
 70
     1
102
RTVSPropertyOp14
 70
     1
102
RTVSPropertyOp15
 70
     1
102
RTVSPropertyOp16
 70
     1
102
RTVSPropertyOp17
 70
     1
102
RTVSPropertyOp18
 70
     1
102
RTVSPropertyOp19
 70
     1
102
RTVSPropertyOp20
 70
     1
102
RTVSPropertyOp21
 70
     1
102
RTVSPropertyOp22
 70
     1
102
RTVSPropertyOp23
 70
     1
102
RTVSPropertyOp24
 70
     1
102
RTVSPropertyOp25
 70
     1
102
RTVSPropertyOp26
 70
     1
102
RTVSPropertyOp27
 70
     1
102
RTVSPropertyOp28
 70
     1
102
RTVSPropertyOp29
 70
     1
102
RTVSPropertyOp30
 70
     1
102
RTVSPropertyOp31
 70
     1
102
RTVSPropertyOp32
 70
     1
102
RTVSPropertyOp33
 70
     1
102
RTVSPropertyOp34
 70
     1
102
RTVSPropertyOp35
 70
     1
102
RTVSPropertyOp36
 70
     1
102
RTVSPropertyOp37
 70
     1
102
RTVSPropertyOp38
 70
     1
102
RTVSPropertyOp39
 70
     1
102
RTVSPropertyOp40
 70
     1
102
RTVSPropertyOp41
 70
     1
102
RTVSPropertyOp42
 70
     1
102
RTVSPropertyOp43
 70
     1
102
RTVSPropertyOp44
 70
     1
102
RTVSPropertyOp45
 70
     1
102
RTVSPropertyOp46
 70
     1
102
RTVSPropertyOp47
 70
     1
102
RTVSPropertyOp48
 70
     1
102
RTVSPropertyOp49
 70
     1
102
RTVSPropertyOp50
 70
     1
102
RTVSPropertyOp51
 70
     0
102
RTVSPropertyOp52
 70
     0
102
RTVSPropertyOp53
 70
     1
102
RTVSPropertyOp54
 70
     1
102
RTVSPropertyOp55
 70
     1
102
RTVSPropertyOp56
 70
     1
102
RTVSPropertyOp57
 70
     1
102
RTVSPropertyOp58
 70
     1
102
RTVSPropertyOp59
 70
     1
102
RTVSPropertyOp60
 70
     1
102
RTVSPropertyOp61
 70
     1
102
RTVSPropertyOp62
 70
     1
  0
XRECORD
  5
AAE8
102
{ACAD_REACTORS
330
AAE7
102
}
330
AAE7
100
AcDbXrecord
280
     1
102
RTVSPost2010Prop28
280
     0
102
RTVSPost2010PropOp28
 70
     1
102
RTVSPost2010Prop29
280
     1
102
RTVSPost2010PropOp29
 70
     1
102
RTVSPost2010Prop30
280
     1
102
RTVSPost2010PropOp30
 70
     1
102
RTVSPost2010Prop31
280
     0
102
RTVSPost2010PropOp31
 70
     1
102
RTVSPost2010Prop32
280
     0
102
RTVSPost2010PropOp32
 70
     1
102
RTVSPost2010Prop33
280
     0
102
RTVSPost2010PropOp33
 70
     1
102
RTVSPost2010Prop34
280
     0
102
RTVSPost2010PropOp34
 70
     1
102
RTVSPost2010Prop35
280
     0
102
RTVSPost2010PropOp35
 70
     1
102
RTVSPost2010Prop36
280
     0
102
RTVSPost2010PropOp36
 70
     1
102
RTVSPost2010Prop37
 90
       50
102
RTVSPost2010PropOp37
 70
     1
102
RTVSPost2010Prop38
140
0.0
102
RTVSPost2010PropOp38
 70
     1
102
RTVSPost2010Prop39
140
1.0
102
RTVSPost2010PropOp39
 70
     1
102
RTVSPost2010Prop40
 90
        0
102
RTVSPost2010PropOp40
 70
     1
102
RTVSPost2010Prop41ColorIndex
 90
       18
102
RTVSPost2010Prop41ColorRGB
 90
        0
102
RTVSPost2010PropOp41
 70
     1
102
RTVSPost2010Prop42
 90
       50
102
RTVSPost2010PropOp42
 70
     1
102
RTVSPost2010Prop43
 90
        3
102
RTVSPost2010PropOp43
 70
     1
102
RTVSPost2010Prop44ColorIndex
 90
        5
102
RTVSPost2010Prop44ColorRGB
 90
      255
102
RTVSPost2010PropOp44
 70
     1
102
RTVSPost2010Prop45
280
     0
102
RTVSPost2010PropOp45
 70
     1
102
RTVSPost2010Prop46
 90
       50
102
RTVSPost2010PropOp46
 70
     1
102
RTVSPost2010Prop47
 90
       50
102
RTVSPost2010PropOp47
 70
     1
102
RTVSPost2010Prop48
 90
       50
102
RTVSPost2010PropOp48
 70
     1
102
RTVSPost2010Prop49
280
     0
102
RTVSPost2010PropOp49
 70
     1
102
RTVSPost2010Prop50
 90
       50
102
RTVSPost2010PropOp50
 70
     1
102
RTVSPost2010Prop51ColorIndex
 90
      256
102
RTVSPost2010Prop51ColorRGB
 90
-16777216
102
RTVSPost2010PropOp51
 70
     0
102
RTVSPost2010Prop52
140
1.0
102
RTVSPost2010PropOp52
 70
     0
102
RTVSPost2010Prop53
 90
        2
102
RTVSPost2010PropOp53
 70
     1
102
RTVSPost2010Prop54
  1
strokes_ogs.tif
102
RTVSPost2010PropOp54
 70
     1
102
RTVSPost2010Prop55
280
     0
102
RTVSPost2010PropOp55
 70
     1
102
RTVSPost2010Prop56
140
1.0
102
RTVSPost2010PropOp56
 70
     1
102
RTVSPost2010Prop57
140
1.0
102
RTVSPost2010PropOp57
 70
     1
102
RTVSPropertyOp0
 70
     1
102
RTVSPropertyOp1
 70
     1
102
RTVSPropertyOp2
 70
     1
102
RTVSPropertyOp3
 70
     1
102
RTVSPropertyOp4
 70
     1
102
RTVSPropertyOp5
 70
     1
102
RTVSPropertyOp6
 70
     1
102
RTVSPropertyOp7
 70
     1
102
RTVSPropertyOp8
 70
     1
102
RTVSPropertyOp9
 70
     1
102
RTVSPropertyOp10
 70
     1
102
RTVSPropertyOp11
 70
     1
102
RTVSPropertyOp12
 70
     1
102
RTVSPropertyOp13
 70
     1
102
RTVSPropertyOp14
 70
     1
102
RTVSPropertyOp15
 70
     1
102
RTVSPropertyOp16
 70
     1
102
RTVSPropertyOp17
 70
     1
102
RTVSPropertyOp18
 70
     1
102
RTVSPropertyOp19
 70
     1
102
RTVSPropertyOp20
 70
     1
102
RTVSPropertyOp21
 70
     1
102
RTVSPropertyOp22
 70
     1
102
RTVSPropertyOp23
 70
     1
102
RTVSPropertyOp24
 70
     1
102
RTVSPropertyOp25
 70
     1
102
RTVSPropertyOp26
 70
     1
102
RTVSPropertyOp27
 70
     1
102
RTVSPropertyOp28
 70
     1
102
RTVSPropertyOp29
 70
     1
102
RTVSPropertyOp30
 70
     1
102
RTVSPropertyOp31
 70
     1
102
RTVSPropertyOp32
 70
     1
102
RTVSPropertyOp33
 70
     1
102
RTVSPropertyOp34
 70
     1
102
RTVSPropertyOp35
 70
     1
102
RTVSPropertyOp36
 70
     1
102
RTVSPropertyOp37
 70
     1
102
RTVSPropertyOp38
 70
     1
102
RTVSPropertyOp39
 70
     1
102
RTVSPropertyOp40
 70
     1
102
RTVSPropertyOp41
 70
     1
102
RTVSPropertyOp42
 70
     1
102
RTVSPropertyOp43
 70
     1
102
RTVSPropertyOp44
 70
     1
102
RTVSPropertyOp45
 70
     1
102
RTVSPropertyOp46
 70
     1
102
RTVSPropertyOp47
 70
     1
102
RTVSPropertyOp48
 70
     1
102
RTVSPropertyOp49
 70
     1
102
RTVSPropertyOp50
 70
     1
102
RTVSPropertyOp51
 70
     0
102
RTVSPropertyOp52
 70
     0
102
RTVSPropertyOp53
 70
     1
102
RTVSPropertyOp54
 70
     1
102
RTVSPropertyOp55
 70
     1
102
RTVSPropertyOp56
 70
     1
102
RTVSPropertyOp57
 70
     1
102
RTVSPropertyOp58
 70
     1
102
RTVSPropertyOp59
 70
     1
102
RTVSPropertyOp60
 70
     1
102
RTVSPropertyOp61
 70
     1
102
RTVSPropertyOp62
 70
     1
  0
XRECORD
  5
AB04
102
{ACAD_REACTORS
330
AB03
102
}
330
AB03
100
AcDbXrecord
280
     1
102
RTVSPost2010Prop28
280
     0
102
RTVSPost2010PropOp28
 70
     0
102
RTVSPost2010Prop29
280
     1
102
RTVSPost2010PropOp29
 70
     0
102
RTVSPost2010Prop30
280
     1
102
RTVSPost2010PropOp30
 70
     0
102
RTVSPost2010Prop31
280
     0
102
RTVSPost2010PropOp31
 70
     0
102
RTVSPost2010Prop32
280
     0
102
RTVSPost2010PropOp32
 70
     0
102
RTVSPost2010Prop33
280
     0
102
RTVSPost2010PropOp33
 70
     0
102
RTVSPost2010Prop34
280
     0
102
RTVSPost2010PropOp34
 70
     0
102
RTVSPost2010Prop35
280
     0
102
RTVSPost2010PropOp35
 70
     0
102
RTVSPost2010Prop36
280
     0
102
RTVSPost2010PropOp36
 70
     0
102
RTVSPost2010Prop37
 90
       50
102
RTVSPost2010PropOp37
 70
     0
102
RTVSPost2010Prop38
140
0.0
102
RTVSPost2010PropOp38
 70
     0
102
RTVSPost2010Prop39
140
1.0
102
RTVSPost2010PropOp39
 70
     0
102
RTVSPost2010Prop40
 90
        0
102
RTVSPost2010PropOp40
 70
     0
102
RTVSPost2010Prop41ColorIndex
 90
       18
102
RTVSPost2010Prop41ColorRGB
 90
        0
102
RTVSPost2010PropOp41
 70
     0
102
RTVSPost2010Prop42
 90
       50
102
RTVSPost2010PropOp42
 70
     0
102
RTVSPost2010Prop43
 90
        3
102
RTVSPost2010PropOp43
 70
     0
102
RTVSPost2010Prop44ColorIndex
 90
        5
102
RTVSPost2010Prop44ColorRGB
 90
      255
102
RTVSPost2010PropOp44
 70
     0
102
RTVSPost2010Prop45
280
     0
102
RTVSPost2010PropOp45
 70
     0
102
RTVSPost2010Prop46
 90
       50
102
RTVSPost2010PropOp46
 70
     0
102
RTVSPost2010Prop47
 90
       50
102
RTVSPost2010PropOp47
 70
     0
102
RTVSPost2010Prop48
 90
       50
102
RTVSPost2010PropOp48
 70
     0
102
RTVSPost2010Prop49
280
     0
102
RTVSPost2010PropOp49
 70
     0
102
RTVSPost2010Prop50
 90
       50
102
RTVSPost2010PropOp50
 70
     0
102
RTVSPost2010Prop51ColorIndex
 90
      256
102
RTVSPost2010Prop51ColorRGB
 90
-16777216
102
RTVSPost2010PropOp51
 70
     0
102
RTVSPost2010Prop52
140
1.0
102
RTVSPost2010PropOp52
 70
     0
102
RTVSPost2010Prop53
 90
        2
102
RTVSPost2010PropOp53
 70
     0
102
RTVSPost2010Prop54
  1
strokes_ogs.tif
102
RTVSPost2010PropOp54
 70
     0
102
RTVSPost2010Prop55
280
     0
102
RTVSPost2010PropOp55
 70
     0
102
RTVSPost2010Prop56
140
1.0
102
RTVSPost2010PropOp56
 70
     0
102
RTVSPost2010Prop57
140
1.0
102
RTVSPost2010PropOp57
 70
     0
102
RTVSPropertyOp0
 70
     0
102
RTVSPropertyOp1
 70
     0
102
RTVSPropertyOp2
 70
     0
102
RTVSPropertyOp3
 70
     0
102
RTVSPropertyOp4
 70
     0
102
RTVSPropertyOp5
 70
     0
102
RTVSPropertyOp6
 70
     0
102
RTVSPropertyOp7
 70
     0
102
RTVSPropertyOp8
 70
     0
102
RTVSPropertyOp9
 70
     0
102
RTVSPropertyOp10
 70
     0
102
RTVSPropertyOp11
 70
     0
102
RTVSPropertyOp12
 70
     0
102
RTVSPropertyOp13
 70
     0
102
RTVSPropertyOp14
 70
     2
102
RTVSPropertyOp15
 70
     0
102
RTVSPropertyOp16
 70
     0
102
RTVSPropertyOp17
 70
     0
102
RTVSPropertyOp18
 70
     0
102
RTVSPropertyOp19
 70
     0
102
RTVSPropertyOp20
 70
     0
102
RTVSPropertyOp21
 70
     0
102
RTVSPropertyOp22
 70
     0
102
RTVSPropertyOp23
 70
     0
102
RTVSPropertyOp24
 70
     0
102
RTVSPropertyOp25
 70
     0
102
RTVSPropertyOp26
 70
     0
102
RTVSPropertyOp27
 70
     0
102
RTVSPropertyOp28
 70
     0
102
RTVSPropertyOp29
 70
     0
102
RTVSPropertyOp30
 70
     0
102
RTVSPropertyOp31
 70
     0
102
RTVSPropertyOp32
 70
     0
102
RTVSPropertyOp33
 70
     0
102
RTVSPropertyOp34
 70
     0
102
RTVSPropertyOp35
 70
     0
102
RTVSPropertyOp36
 70
     0
102
RTVSPropertyOp37
 70
     0
102
RTVSPropertyOp38
 70
     0
102
RTVSPropertyOp39
 70
     0
102
RTVSPropertyOp40
 70
     0
102
RTVSPropertyOp41
 70
     0
102
RTVSPropertyOp42
 70
     0
102
RTVSPropertyOp43
 70
     0
102
RTVSPropertyOp44
 70
     0
102
RTVSPropertyOp45
 70
     0
102
RTVSPropertyOp46
 70
     0
102
RTVSPropertyOp47
 70
     0
102
RTVSPropertyOp48
 70
     0
102
RTVSPropertyOp49
 70
     0
102
RTVSPropertyOp50
 70
     0
102
RTVSPropertyOp51
 70
     0
102
RTVSPropertyOp52
 70
     0
102
RTVSPropertyOp53
 70
     0
102
RTVSPropertyOp54
 70
     0
102
RTVSPropertyOp55
 70
     0
102
RTVSPropertyOp56
 70
     0
102
RTVSPropertyOp57
 70
     0
102
RTVSPropertyOp58
 70
     0
102
RTVSPropertyOp59
 70
     0
102
RTVSPropertyOp60
 70
     0
102
RTVSPropertyOp61
 70
     0
102
RTVSPropertyOp62
 70
     0
  0
XRECORD
  5
AAF4
102
{ACAD_REACTORS
330
AAF3
102
}
330
AAF3
100
AcDbXrecord
280
     1
102
RTVSPost2010Prop28
280
     0
102
RTVSPost2010PropOp28
 70
     1
102
RTVSPost2010Prop29
280
     1
102
RTVSPost2010PropOp29
 70
     1
102
RTVSPost2010Prop30
280
     1
102
RTVSPost2010PropOp30
 70
     1
102
RTVSPost2010Prop31
280
     0
102
RTVSPost2010PropOp31
 70
     1
102
RTVSPost2010Prop32
280
     0
102
RTVSPost2010PropOp32
 70
     1
102
RTVSPost2010Prop33
280
     0
102
RTVSPost2010PropOp33
 70
     1
102
RTVSPost2010Prop34
280
     0
102
RTVSPost2010PropOp34
 70
     1
102
RTVSPost2010Prop35
280
     0
102
RTVSPost2010PropOp35
 70
     1
102
RTVSPost2010Prop36
280
     0
102
RTVSPost2010PropOp36
 70
     1
102
RTVSPost2010Prop37
 90
       50
102
RTVSPost2010PropOp37
 70
     1
102
RTVSPost2010Prop38
140
0.0
102
RTVSPost2010PropOp38
 70
     1
102
RTVSPost2010Prop39
140
1.0
102
RTVSPost2010PropOp39
 70
     1
102
RTVSPost2010Prop40
 90
        0
102
RTVSPost2010PropOp40
 70
     1
102
RTVSPost2010Prop41ColorIndex
 90
       18
102
RTVSPost2010Prop41ColorRGB
 90
        0
102
RTVSPost2010PropOp41
 70
     1
102
RTVSPost2010Prop42
 90
       50
102
RTVSPost2010PropOp42
 70
     1
102
RTVSPost2010Prop43
 90
        3
102
RTVSPost2010PropOp43
 70
     1
102
RTVSPost2010Prop44ColorIndex
 90
        5
102
RTVSPost2010Prop44ColorRGB
 90
      255
102
RTVSPost2010PropOp44
 70
     1
102
RTVSPost2010Prop45
280
     0
102
RTVSPost2010PropOp45
 70
     1
102
RTVSPost2010Prop46
 90
       50
102
RTVSPost2010PropOp46
 70
     1
102
RTVSPost2010Prop47
 90
       50
102
RTVSPost2010PropOp47
 70
     1
102
RTVSPost2010Prop48
 90
       50
102
RTVSPost2010PropOp48
 70
     1
102
RTVSPost2010Prop49
280
     0
102
RTVSPost2010PropOp49
 70
     1
102
RTVSPost2010Prop50
 90
       50
102
RTVSPost2010PropOp50
 70
     1
102
RTVSPost2010Prop51ColorIndex
 90
      256
102
RTVSPost2010Prop51ColorRGB
 90
-16777216
102
RTVSPost2010PropOp51
 70
     0
102
RTVSPost2010Prop52
140
1.0
102
RTVSPost2010PropOp52
 70
     0
102
RTVSPost2010Prop53
 90
        2
102
RTVSPost2010PropOp53
 70
     1
102
RTVSPost2010Prop54
  1
strokes_ogs.tif
102
RTVSPost2010PropOp54
 70
     1
102
RTVSPost2010Prop55
280
     0
102
RTVSPost2010PropOp55
 70
     1
102
RTVSPost2010Prop56
140
1.0
102
RTVSPost2010PropOp56
 70
     1
102
RTVSPost2010Prop57
140
1.0
102
RTVSPost2010PropOp57
 70
     1
102
RTVSPropertyOp0
 70
     1
102
RTVSPropertyOp1
 70
     1
102
RTVSPropertyOp2
 70
     1
102
RTVSPropertyOp3
 70
     1
102
RTVSPropertyOp4
 70
     1
102
RTVSPropertyOp5
 70
     1
102
RTVSPropertyOp6
 70
     1
102
RTVSPropertyOp7
 70
     1
102
RTVSPropertyOp8
 70
     1
102
RTVSPropertyOp9
 70
     1
102
RTVSPropertyOp10
 70
     1
102
RTVSPropertyOp11
 70
     1
102
RTVSPropertyOp12
 70
     1
102
RTVSPropertyOp13
 70
     1
102
RTVSPropertyOp14
 70
     1
102
RTVSPropertyOp15
 70
     1
102
RTVSPropertyOp16
 70
     1
102
RTVSPropertyOp17
 70
     1
102
RTVSPropertyOp18
 70
     1
102
RTVSPropertyOp19
 70
     1
102
RTVSPropertyOp20
 70
     1
102
RTVSPropertyOp21
 70
     1
102
RTVSPropertyOp22
 70
     1
102
RTVSPropertyOp23
 70
     1
102
RTVSPropertyOp24
 70
     1
102
RTVSPropertyOp25
 70
     1
102
RTVSPropertyOp26
 70
     1
102
RTVSPropertyOp27
 70
     1
102
RTVSPropertyOp28
 70
     1
102
RTVSPropertyOp29
 70
     1
102
RTVSPropertyOp30
 70
     1
102
RTVSPropertyOp31
 70
     1
102
RTVSPropertyOp32
 70
     1
102
RTVSPropertyOp33
 70
     1
102
RTVSPropertyOp34
 70
     1
102
RTVSPropertyOp35
 70
     1
102
RTVSPropertyOp36
 70
     1
102
RTVSPropertyOp37
 70
     1
102
RTVSPropertyOp38
 70
     1
102
RTVSPropertyOp39
 70
     1
102
RTVSPropertyOp40
 70
     1
102
RTVSPropertyOp41
 70
     1
102
RTVSPropertyOp42
 70
     1
102
RTVSPropertyOp43
 70
     1
102
RTVSPropertyOp44
 70
     1
102
RTVSPropertyOp45
 70
     1
102
RTVSPropertyOp46
 70
     1
102
RTVSPropertyOp47
 70
     1
102
RTVSPropertyOp48
 70
     1
102
RTVSPropertyOp49
 70
     1
102
RTVSPropertyOp50
 70
     1
102
RTVSPropertyOp51
 70
     0
102
RTVSPropertyOp52
 70
     0
102
RTVSPropertyOp53
 70
     1
102
RTVSPropertyOp54
 70
     1
102
RTVSPropertyOp55
 70
     1
102
RTVSPropertyOp56
 70
     1
102
RTVSPropertyOp57
 70
     1
102
RTVSPropertyOp58
 70
     1
102
RTVSPropertyOp59
 70
     1
102
RTVSPropertyOp60
 70
     1
102
RTVSPropertyOp61
 70
     1
102
RTVSPropertyOp62
 70
     1
  0
XRECORD
  5
AB06
102
{ACAD_REACTORS
330
AB05
102
}
330
AB05
100
AcDbXrecord
280
     1
102
RTVSPost2010Prop28
280
     0
102
RTVSPost2010PropOp28
 70
     0
102
RTVSPost2010Prop29
280
     1
102
RTVSPost2010PropOp29
 70
     0
102
RTVSPost2010Prop30
280
     1
102
RTVSPost2010PropOp30
 70
     0
102
RTVSPost2010Prop31
280
     0
102
RTVSPost2010PropOp31
 70
     0
102
RTVSPost2010Prop32
280
     0
102
RTVSPost2010PropOp32
 70
     0
102
RTVSPost2010Prop33
280
     0
102
RTVSPost2010PropOp33
 70
     0
102
RTVSPost2010Prop34
280
     0
102
RTVSPost2010PropOp34
 70
     0
102
RTVSPost2010Prop35
280
     0
102
RTVSPost2010PropOp35
 70
     0
102
RTVSPost2010Prop36
280
     0
102
RTVSPost2010PropOp36
 70
     0
102
RTVSPost2010Prop37
 90
       50
102
RTVSPost2010PropOp37
 70
     0
102
RTVSPost2010Prop38
140
0.0
102
RTVSPost2010PropOp38
 70
     0
102
RTVSPost2010Prop39
140
1.0
102
RTVSPost2010PropOp39
 70
     0
102
RTVSPost2010Prop40
 90
        0
102
RTVSPost2010PropOp40
 70
     0
102
RTVSPost2010Prop41ColorIndex
 90
       18
102
RTVSPost2010Prop41ColorRGB
 90
        0
102
RTVSPost2010PropOp41
 70
     0
102
RTVSPost2010Prop42
 90
       50
102
RTVSPost2010PropOp42
 70
     0
102
RTVSPost2010Prop43
 90
        3
102
RTVSPost2010PropOp43
 70
     0
102
RTVSPost2010Prop44ColorIndex
 90
        5
102
RTVSPost2010Prop44ColorRGB
 90
      255
102
RTVSPost2010PropOp44
 70
     0
102
RTVSPost2010Prop45
280
     0
102
RTVSPost2010PropOp45
 70
     0
102
RTVSPost2010Prop46
 90
       50
102
RTVSPost2010PropOp46
 70
     0
102
RTVSPost2010Prop47
 90
       50
102
RTVSPost2010PropOp47
 70
     0
102
RTVSPost2010Prop48
 90
       50
102
RTVSPost2010PropOp48
 70
     0
102
RTVSPost2010Prop49
280
     0
102
RTVSPost2010PropOp49
 70
     0
102
RTVSPost2010Prop50
 90
       50
102
RTVSPost2010PropOp50
 70
     0
102
RTVSPost2010Prop51ColorIndex
 90
      256
102
RTVSPost2010Prop51ColorRGB
 90
-16777216
102
RTVSPost2010PropOp51
 70
     0
102
RTVSPost2010Prop52
140
1.0
102
RTVSPost2010PropOp52
 70
     0
102
RTVSPost2010Prop53
 90
        2
102
RTVSPost2010PropOp53
 70
     0
102
RTVSPost2010Prop54
  1
strokes_ogs.tif
102
RTVSPost2010PropOp54
 70
     0
102
RTVSPost2010Prop55
280
     0
102
RTVSPost2010PropOp55
 70
     0
102
RTVSPost2010Prop56
140
1.0
102
RTVSPost2010PropOp56
 70
     0
102
RTVSPost2010Prop57
140
1.0
102
RTVSPost2010PropOp57
 70
     0
102
RTVSPropertyOp0
 70
     0
102
RTVSPropertyOp1
 70
     0
102
RTVSPropertyOp2
 70
     0
102
RTVSPropertyOp3
 70
     0
102
RTVSPropertyOp4
 70
     0
102
RTVSPropertyOp5
 70
     0
102
RTVSPropertyOp6
 70
     0
102
RTVSPropertyOp7
 70
     0
102
RTVSPropertyOp8
 70
     0
102
RTVSPropertyOp9
 70
     0
102
RTVSPropertyOp10
 70
     0
102
RTVSPropertyOp11
 70
     0
102
RTVSPropertyOp12
 70
     0
102
RTVSPropertyOp13
 70
     0
102
RTVSPropertyOp14
 70
     2
102
RTVSPropertyOp15
 70
     0
102
RTVSPropertyOp16
 70
     0
102
RTVSPropertyOp17
 70
     0
102
RTVSPropertyOp18
 70
     0
102
RTVSPropertyOp19
 70
     0
102
RTVSPropertyOp20
 70
     0
102
RTVSPropertyOp21
 70
     0
102
RTVSPropertyOp22
 70
     0
102
RTVSPropertyOp23
 70
     0
102
RTVSPropertyOp24
 70
     0
102
RTVSPropertyOp25
 70
     0
102
RTVSPropertyOp26
 70
     0
102
RTVSPropertyOp27
 70
     0
102
RTVSPropertyOp28
 70
     0
102
RTVSPropertyOp29
 70
     0
102
RTVSPropertyOp30
 70
     0
102
RTVSPropertyOp31
 70
     0
102
RTVSPropertyOp32
 70
     0
102
RTVSPropertyOp33
 70
     0
102
RTVSPropertyOp34
 70
     0
102
RTVSPropertyOp35
 70
     0
102
RTVSPropertyOp36
 70
     0
102
RTVSPropertyOp37
 70
     0
102
RTVSPropertyOp38
 70
     0
102
RTVSPropertyOp39
 70
     0
102
RTVSPropertyOp40
 70
     0
102
RTVSPropertyOp41
 70
     0
102
RTVSPropertyOp42
 70
     0
102
RTVSPropertyOp43
 70
     0
102
RTVSPropertyOp44
 70
     0
102
RTVSPropertyOp45
 70
     0
102
RTVSPropertyOp46
 70
     0
102
RTVSPropertyOp47
 70
     0
102
RTVSPropertyOp48
 70
     0
102
RTVSPropertyOp49
 70
     0
102
RTVSPropertyOp50
 70
     0
102
RTVSPropertyOp51
 70
     0
102
RTVSPropertyOp52
 70
     0
102
RTVSPropertyOp53
 70
     0
102
RTVSPropertyOp54
 70
     0
102
RTVSPropertyOp55
 70
     0
102
RTVSPropertyOp56
 70
     0
102
RTVSPropertyOp57
 70
     0
102
RTVSPropertyOp58
 70
     0
102
RTVSPropertyOp59
 70
     0
102
RTVSPropertyOp60
 70
     0
102
RTVSPropertyOp61
 70
     0
102
RTVSPropertyOp62
 70
     0
  0
XRECORD
  5
AAEC
102
{ACAD_REACTORS
330
AAEB
102
}
330
AAEB
100
AcDbXrecord
280
     1
102
RTVSPost2010Prop28
280
     0
102
RTVSPost2010PropOp28
 70
     1
102
RTVSPost2010Prop29
280
     1
102
RTVSPost2010PropOp29
 70
     1
102
RTVSPost2010Prop30
280
     1
102
RTVSPost2010PropOp30
 70
     1
102
RTVSPost2010Prop31
280
     0
102
RTVSPost2010PropOp31
 70
     1
102
RTVSPost2010Prop32
280
     0
102
RTVSPost2010PropOp32
 70
     1
102
RTVSPost2010Prop33
280
     0
102
RTVSPost2010PropOp33
 70
     1
102
RTVSPost2010Prop34
280
     0
102
RTVSPost2010PropOp34
 70
     1
102
RTVSPost2010Prop35
280
     0
102
RTVSPost2010PropOp35
 70
     1
102
RTVSPost2010Prop36
280
     0
102
RTVSPost2010PropOp36
 70
     1
102
RTVSPost2010Prop37
 90
       50
102
RTVSPost2010PropOp37
 70
     1
102
RTVSPost2010Prop38
140
0.0
102
RTVSPost2010PropOp38
 70
     1
102
RTVSPost2010Prop39
140
1.0
102
RTVSPost2010PropOp39
 70
     1
102
RTVSPost2010Prop40
 90
        0
102
RTVSPost2010PropOp40
 70
     1
102
RTVSPost2010Prop41ColorIndex
 90
       18
102
RTVSPost2010Prop41ColorRGB
 90
        0
102
RTVSPost2010PropOp41
 70
     1
102
RTVSPost2010Prop42
 90
       50
102
RTVSPost2010PropOp42
 70
     1
102
RTVSPost2010Prop43
 90
        3
102
RTVSPost2010PropOp43
 70
     1
102
RTVSPost2010Prop44ColorIndex
 90
        5
102
RTVSPost2010Prop44ColorRGB
 90
      255
102
RTVSPost2010PropOp44
 70
     1
102
RTVSPost2010Prop45
280
     0
102
RTVSPost2010PropOp45
 70
     1
102
RTVSPost2010Prop46
 90
       50
102
RTVSPost2010PropOp46
 70
     1
102
RTVSPost2010Prop47
 90
       50
102
RTVSPost2010PropOp47
 70
     1
102
RTVSPost2010Prop48
 90
       50
102
RTVSPost2010PropOp48
 70
     1
102
RTVSPost2010Prop49
280
     0
102
RTVSPost2010PropOp49
 70
     1
102
RTVSPost2010Prop50
 90
       50
102
RTVSPost2010PropOp50
 70
     1
102
RTVSPost2010Prop51ColorIndex
 90
      256
102
RTVSPost2010Prop51ColorRGB
 90
-16777216
102
RTVSPost2010PropOp51
 70
     0
102
RTVSPost2010Prop52
140
1.0
102
RTVSPost2010PropOp52
 70
     0
102
RTVSPost2010Prop53
 90
        2
102
RTVSPost2010PropOp53
 70
     1
102
RTVSPost2010Prop54
  1
strokes_ogs.tif
102
RTVSPost2010PropOp54
 70
     1
102
RTVSPost2010Prop55
280
     0
102
RTVSPost2010PropOp55
 70
     1
102
RTVSPost2010Prop56
140
1.0
102
RTVSPost2010PropOp56
 70
     1
102
RTVSPost2010Prop57
140
1.0
102
RTVSPost2010PropOp57
 70
     1
102
RTVSPropertyOp0
 70
     1
102
RTVSPropertyOp1
 70
     1
102
RTVSPropertyOp2
 70
     1
102
RTVSPropertyOp3
 70
     1
102
RTVSPropertyOp4
 70
     1
102
RTVSPropertyOp5
 70
     1
102
RTVSPropertyOp6
 70
     1
102
RTVSPropertyOp7
 70
     1
102
RTVSPropertyOp8
 70
     1
102
RTVSPropertyOp9
 70
     1
102
RTVSPropertyOp10
 70
     1
102
RTVSPropertyOp11
 70
     1
102
RTVSPropertyOp12
 70
     1
102
RTVSPropertyOp13
 70
     1
102
RTVSPropertyOp14
 70
     1
102
RTVSPropertyOp15
 70
     1
102
RTVSPropertyOp16
 70
     1
102
RTVSPropertyOp17
 70
     1
102
RTVSPropertyOp18
 70
     1
102
RTVSPropertyOp19
 70
     1
102
RTVSPropertyOp20
 70
     1
102
RTVSPropertyOp21
 70
     1
102
RTVSPropertyOp22
 70
     1
102
RTVSPropertyOp23
 70
     1
102
RTVSPropertyOp24
 70
     1
102
RTVSPropertyOp25
 70
     1
102
RTVSPropertyOp26
 70
     1
102
RTVSPropertyOp27
 70
     1
102
RTVSPropertyOp28
 70
     1
102
RTVSPropertyOp29
 70
     1
102
RTVSPropertyOp30
 70
     1
102
RTVSPropertyOp31
 70
     1
102
RTVSPropertyOp32
 70
     1
102
RTVSPropertyOp33
 70
     1
102
RTVSPropertyOp34
 70
     1
102
RTVSPropertyOp35
 70
     1
102
RTVSPropertyOp36
 70
     1
102
RTVSPropertyOp37
 70
     1
102
RTVSPropertyOp38
 70
     1
102
RTVSPropertyOp39
 70
     1
102
RTVSPropertyOp40
 70
     1
102
RTVSPropertyOp41
 70
     1
102
RTVSPropertyOp42
 70
     1
102
RTVSPropertyOp43
 70
     1
102
RTVSPropertyOp44
 70
     1
102
RTVSPropertyOp45
 70
     1
102
RTVSPropertyOp46
 70
     1
102
RTVSPropertyOp47
 70
     1
102
RTVSPropertyOp48
 70
     1
102
RTVSPropertyOp49
 70
     1
102
RTVSPropertyOp50
 70
     1
102
RTVSPropertyOp51
 70
     0
102
RTVSPropertyOp52
 70
     0
102
RTVSPropertyOp53
 70
     1
102
RTVSPropertyOp54
 70
     1
102
RTVSPropertyOp55
 70
     1
102
RTVSPropertyOp56
 70
     1
102
RTVSPropertyOp57
 70
     1
102
RTVSPropertyOp58
 70
     1
102
RTVSPropertyOp59
 70
     1
102
RTVSPropertyOp60
 70
     1
102
RTVSPropertyOp61
 70
     1
102
RTVSPropertyOp62
 70
     1
  0
XRECORD
  5
AB02
102
{ACAD_REACTORS
330
AB01
102
}
330
AB01
100
AcDbXrecord
280
     1
102
RTVSPost2010Prop28
280
     0
102
RTVSPost2010PropOp28
 70
     1
102
RTVSPost2010Prop29
280
     1
102
RTVSPost2010PropOp29
 70
     1
102
RTVSPost2010Prop30
280
     1
102
RTVSPost2010PropOp30
 70
     1
102
RTVSPost2010Prop31
280
     0
102
RTVSPost2010PropOp31
 70
     1
102
RTVSPost2010Prop32
280
     0
102
RTVSPost2010PropOp32
 70
     1
102
RTVSPost2010Prop33
280
     0
102
RTVSPost2010PropOp33
 70
     1
102
RTVSPost2010Prop34
280
     0
102
RTVSPost2010PropOp34
 70
     1
102
RTVSPost2010Prop35
280
     0
102
RTVSPost2010PropOp35
 70
     1
102
RTVSPost2010Prop36
280
     0
102
RTVSPost2010PropOp36
 70
     1
102
RTVSPost2010Prop37
 90
       50
102
RTVSPost2010PropOp37
 70
     1
102
RTVSPost2010Prop38
140
0.0
102
RTVSPost2010PropOp38
 70
     1
102
RTVSPost2010Prop39
140
1.0
102
RTVSPost2010PropOp39
 70
     1
102
RTVSPost2010Prop40
 90
        0
102
RTVSPost2010PropOp40
 70
     1
102
RTVSPost2010Prop41ColorIndex
 90
       18
102
RTVSPost2010Prop41ColorRGB
 90
        0
102
RTVSPost2010PropOp41
 70
     1
102
RTVSPost2010Prop42
 90
       50
102
RTVSPost2010PropOp42
 70
     1
102
RTVSPost2010Prop43
 90
        3
102
RTVSPost2010PropOp43
 70
     1
102
RTVSPost2010Prop44ColorIndex
 90
        5
102
RTVSPost2010Prop44ColorRGB
 90
      255
102
RTVSPost2010PropOp44
 70
     1
102
RTVSPost2010Prop45
280
     0
102
RTVSPost2010PropOp45
 70
     1
102
RTVSPost2010Prop46
 90
       50
102
RTVSPost2010PropOp46
 70
     1
102
RTVSPost2010Prop47
 90
       50
102
RTVSPost2010PropOp47
 70
     1
102
RTVSPost2010Prop48
 90
       50
102
RTVSPost2010PropOp48
 70
     1
102
RTVSPost2010Prop49
280
     0
102
RTVSPost2010PropOp49
 70
     1
102
RTVSPost2010Prop50
 90
       50
102
RTVSPost2010PropOp50
 70
     1
102
RTVSPost2010Prop51ColorIndex
 90
      256
102
RTVSPost2010Prop51ColorRGB
 90
-16777216
102
RTVSPost2010PropOp51
 70
     0
102
RTVSPost2010Prop52
140
1.0
102
RTVSPost2010PropOp52
 70
     0
102
RTVSPost2010Prop53
 90
        2
102
RTVSPost2010PropOp53
 70
     1
102
RTVSPost2010Prop54
  1
strokes_ogs.tif
102
RTVSPost2010PropOp54
 70
     1
102
RTVSPost2010Prop55
280
     0
102
RTVSPost2010PropOp55
 70
     1
102
RTVSPost2010Prop56
140
1.0
102
RTVSPost2010PropOp56
 70
     1
102
RTVSPost2010Prop57
140
1.0
102
RTVSPost2010PropOp57
 70
     1
102
RTVSPropertyOp0
 70
     1
102
RTVSPropertyOp1
 70
     1
102
RTVSPropertyOp2
 70
     1
102
RTVSPropertyOp3
 70
     1
102
RTVSPropertyOp4
 70
     1
102
RTVSPropertyOp5
 70
     1
102
RTVSPropertyOp6
 70
     1
102
RTVSPropertyOp7
 70
     1
102
RTVSPropertyOp8
 70
     1
102
RTVSPropertyOp9
 70
     1
102
RTVSPropertyOp10
 70
     1
102
RTVSPropertyOp11
 70
     1
102
RTVSPropertyOp12
 70
     1
102
RTVSPropertyOp13
 70
     1
102
RTVSPropertyOp14
 70
     1
102
RTVSPropertyOp15
 70
     1
102
RTVSPropertyOp16
 70
     1
102
RTVSPropertyOp17
 70
     1
102
RTVSPropertyOp18
 70
     1
102
RTVSPropertyOp19
 70
     1
102
RTVSPropertyOp20
 70
     1
102
RTVSPropertyOp21
 70
     1
102
RTVSPropertyOp22
 70
     1
102
RTVSPropertyOp23
 70
     1
102
RTVSPropertyOp24
 70
     1
102
RTVSPropertyOp25
 70
     1
102
RTVSPropertyOp26
 70
     1
102
RTVSPropertyOp27
 70
     1
102
RTVSPropertyOp28
 70
     1
102
RTVSPropertyOp29
 70
     1
102
RTVSPropertyOp30
 70
     1
102
RTVSPropertyOp31
 70
     1
102
RTVSPropertyOp32
 70
     1
102
RTVSPropertyOp33
 70
     1
102
RTVSPropertyOp34
 70
     1
102
RTVSPropertyOp35
 70
     1
102
RTVSPropertyOp36
 70
     1
102
RTVSPropertyOp37
 70
     1
102
RTVSPropertyOp38
 70
     1
102
RTVSPropertyOp39
 70
     1
102
RTVSPropertyOp40
 70
     1
102
RTVSPropertyOp41
 70
     1
102
RTVSPropertyOp42
 70
     1
102
RTVSPropertyOp43
 70
     1
102
RTVSPropertyOp44
 70
     1
102
RTVSPropertyOp45
 70
     1
102
RTVSPropertyOp46
 70
     1
102
RTVSPropertyOp47
 70
     1
102
RTVSPropertyOp48
 70
     1
102
RTVSPropertyOp49
 70
     1
102
RTVSPropertyOp50
 70
     1
102
RTVSPropertyOp51
 70
     0
102
RTVSPropertyOp52
 70
     0
102
RTVSPropertyOp53
 70
     1
102
RTVSPropertyOp54
 70
     1
102
RTVSPropertyOp55
 70
     1
102
RTVSPropertyOp56
 70
     1
102
RTVSPropertyOp57
 70
     1
102
RTVSPropertyOp58
 70
     1
102
RTVSPropertyOp59
 70
     1
102
RTVSPropertyOp60
 70
     1
102
RTVSPropertyOp61
 70
     1
102
RTVSPropertyOp62
 70
     1
  0
XRECORD
  5
AB00
102
{ACAD_REACTORS
330
AAFF
102
}
330
AAFF
100
AcDbXrecord
280
     1
102
RTVSPost2010Prop28
280
     0
102
RTVSPost2010PropOp28
 70
     1
102
RTVSPost2010Prop29
280
     1
102
RTVSPost2010PropOp29
 70
     1
102
RTVSPost2010Prop30
280
     1
102
RTVSPost2010PropOp30
 70
     1
102
RTVSPost2010Prop31
280
     0
102
RTVSPost2010PropOp31
 70
     1
102
RTVSPost2010Prop32
280
     0
102
RTVSPost2010PropOp32
 70
     1
102
RTVSPost2010Prop33
280
     0
102
RTVSPost2010PropOp33
 70
     1
102
RTVSPost2010Prop34
280
     0
102
RTVSPost2010PropOp34
 70
     1
102
RTVSPost2010Prop35
280
     0
102
RTVSPost2010PropOp35
 70
     1
102
RTVSPost2010Prop36
280
     0
102
RTVSPost2010PropOp36
 70
     1
102
RTVSPost2010Prop37
 90
       50
102
RTVSPost2010PropOp37
 70
     1
102
RTVSPost2010Prop38
140
0.0
102
RTVSPost2010PropOp38
 70
     1
102
RTVSPost2010Prop39
140
1.0
102
RTVSPost2010PropOp39
 70
     1
102
RTVSPost2010Prop40
 90
        0
102
RTVSPost2010PropOp40
 70
     1
102
RTVSPost2010Prop41ColorIndex
 90
       18
102
RTVSPost2010Prop41ColorRGB
 90
        0
102
RTVSPost2010PropOp41
 70
     1
102
RTVSPost2010Prop42
 90
       50
102
RTVSPost2010PropOp42
 70
     1
102
RTVSPost2010Prop43
 90
        3
102
RTVSPost2010PropOp43
 70
     1
102
RTVSPost2010Prop44ColorIndex
 90
        5
102
RTVSPost2010Prop44ColorRGB
 90
      255
102
RTVSPost2010PropOp44
 70
     1
102
RTVSPost2010Prop45
280
     0
102
RTVSPost2010PropOp45
 70
     1
102
RTVSPost2010Prop46
 90
       50
102
RTVSPost2010PropOp46
 70
     1
102
RTVSPost2010Prop47
 90
       50
102
RTVSPost2010PropOp47
 70
     1
102
RTVSPost2010Prop48
 90
       50
102
RTVSPost2010PropOp48
 70
     1
102
RTVSPost2010Prop49
280
     0
102
RTVSPost2010PropOp49
 70
     1
102
RTVSPost2010Prop50
 90
       50
102
RTVSPost2010PropOp50
 70
     1
102
RTVSPost2010Prop51ColorIndex
 90
      256
102
RTVSPost2010Prop51ColorRGB
 90
-16777216
102
RTVSPost2010PropOp51
 70
     0
102
RTVSPost2010Prop52
140
1.0
102
RTVSPost2010PropOp52
 70
     0
102
RTVSPost2010Prop53
 90
        2
102
RTVSPost2010PropOp53
 70
     1
102
RTVSPost2010Prop54
  1
strokes_ogs.tif
102
RTVSPost2010PropOp54
 70
     1
102
RTVSPost2010Prop55
280
     0
102
RTVSPost2010PropOp55
 70
     1
102
RTVSPost2010Prop56
140
1.0
102
RTVSPost2010PropOp56
 70
     1
102
RTVSPost2010Prop57
140
1.0
102
RTVSPost2010PropOp57
 70
     1
102
RTVSPropertyOp0
 70
     1
102
RTVSPropertyOp1
 70
     1
102
RTVSPropertyOp2
 70
     1
102
RTVSPropertyOp3
 70
     1
102
RTVSPropertyOp4
 70
     1
102
RTVSPropertyOp5
 70
     1
102
RTVSPropertyOp6
 70
     1
102
RTVSPropertyOp7
 70
     1
102
RTVSPropertyOp8
 70
     1
102
RTVSPropertyOp9
 70
     1
102
RTVSPropertyOp10
 70
     1
102
RTVSPropertyOp11
 70
     1
102
RTVSPropertyOp12
 70
     1
102
RTVSPropertyOp13
 70
     1
102
RTVSPropertyOp14
 70
     1
102
RTVSPropertyOp15
 70
     1
102
RTVSPropertyOp16
 70
     1
102
RTVSPropertyOp17
 70
     1
102
RTVSPropertyOp18
 70
     1
102
RTVSPropertyOp19
 70
     1
102
RTVSPropertyOp20
 70
     1
102
RTVSPropertyOp21
 70
     1
102
RTVSPropertyOp22
 70
     1
102
RTVSPropertyOp23
 70
     1
102
RTVSPropertyOp24
 70
     1
102
RTVSPropertyOp25
 70
     1
102
RTVSPropertyOp26
 70
     1
102
RTVSPropertyOp27
 70
     1
102
RTVSPropertyOp28
 70
     1
102
RTVSPropertyOp29
 70
     1
102
RTVSPropertyOp30
 70
     1
102
RTVSPropertyOp31
 70
     1
102
RTVSPropertyOp32
 70
     1
102
RTVSPropertyOp33
 70
     1
102
RTVSPropertyOp34
 70
     1
102
RTVSPropertyOp35
 70
     1
102
RTVSPropertyOp36
 70
     1
102
RTVSPropertyOp37
 70
     1
102
RTVSPropertyOp38
 70
     1
102
RTVSPropertyOp39
 70
     1
102
RTVSPropertyOp40
 70
     1
102
RTVSPropertyOp41
 70
     1
102
RTVSPropertyOp42
 70
     1
102
RTVSPropertyOp43
 70
     1
102
RTVSPropertyOp44
 70
     1
102
RTVSPropertyOp45
 70
     1
102
RTVSPropertyOp46
 70
     1
102
RTVSPropertyOp47
 70
     1
102
RTVSPropertyOp48
 70
     1
102
RTVSPropertyOp49
 70
     1
102
RTVSPropertyOp50
 70
     1
102
RTVSPropertyOp51
 70
     0
102
RTVSPropertyOp52
 70
     0
102
RTVSPropertyOp53
 70
     1
102
RTVSPropertyOp54
 70
     1
102
RTVSPropertyOp55
 70
     1
102
RTVSPropertyOp56
 70
     1
102
RTVSPropertyOp57
 70
     1
102
RTVSPropertyOp58
 70
     1
102
RTVSPropertyOp59
 70
     1
102
RTVSPropertyOp60
 70
     1
102
RTVSPropertyOp61
 70
     1
102
RTVSPropertyOp62
 70
     1
  0
XRECORD
  5
AAFA
102
{ACAD_REACTORS
330
AAF9
102
}
330
AAF9
100
AcDbXrecord
280
     1
102
RTVSPost2010Prop28
280
     0
102
RTVSPost2010PropOp28
 70
     1
102
RTVSPost2010Prop29
280
     1
102
RTVSPost2010PropOp29
 70
     1
102
RTVSPost2010Prop30
280
     1
102
RTVSPost2010PropOp30
 70
     1
102
RTVSPost2010Prop31
280
     0
102
RTVSPost2010PropOp31
 70
     1
102
RTVSPost2010Prop32
280
     0
102
RTVSPost2010PropOp32
 70
     1
102
RTVSPost2010Prop33
280
     0
102
RTVSPost2010PropOp33
 70
     1
102
RTVSPost2010Prop34
280
     0
102
RTVSPost2010PropOp34
 70
     1
102
RTVSPost2010Prop35
280
     0
102
RTVSPost2010PropOp35
 70
     1
102
RTVSPost2010Prop36
280
     0
102
RTVSPost2010PropOp36
 70
     1
102
RTVSPost2010Prop37
 90
       50
102
RTVSPost2010PropOp37
 70
     1
102
RTVSPost2010Prop38
140
0.0
102
RTVSPost2010PropOp38
 70
     1
102
RTVSPost2010Prop39
140
1.0
102
RTVSPost2010PropOp39
 70
     1
102
RTVSPost2010Prop40
 90
        0
102
RTVSPost2010PropOp40
 70
     1
102
RTVSPost2010Prop41ColorIndex
 90
       18
102
RTVSPost2010Prop41ColorRGB
 90
        0
102
RTVSPost2010PropOp41
 70
     1
102
RTVSPost2010Prop42
 90
       50
102
RTVSPost2010PropOp42
 70
     1
102
RTVSPost2010Prop43
 90
        3
102
RTVSPost2010PropOp43
 70
     1
102
RTVSPost2010Prop44ColorIndex
 90
        5
102
RTVSPost2010Prop44ColorRGB
 90
      255
102
RTVSPost2010PropOp44
 70
     1
102
RTVSPost2010Prop45
280
     0
102
RTVSPost2010PropOp45
 70
     1
102
RTVSPost2010Prop46
 90
       50
102
RTVSPost2010PropOp46
 70
     1
102
RTVSPost2010Prop47
 90
       50
102
RTVSPost2010PropOp47
 70
     1
102
RTVSPost2010Prop48
 90
       50
102
RTVSPost2010PropOp48
 70
     1
102
RTVSPost2010Prop49
280
     0
102
RTVSPost2010PropOp49
 70
     1
102
RTVSPost2010Prop50
 90
       50
102
RTVSPost2010PropOp50
 70
     1
102
RTVSPost2010Prop51ColorIndex
 90
      256
102
RTVSPost2010Prop51ColorRGB
 90
-16777216
102
RTVSPost2010PropOp51
 70
     0
102
RTVSPost2010Prop52
140
1.0
102
RTVSPost2010PropOp52
 70
     0
102
RTVSPost2010Prop53
 90
        2
102
RTVSPost2010PropOp53
 70
     1
102
RTVSPost2010Prop54
  1
strokes_ogs.tif
102
RTVSPost2010PropOp54
 70
     1
102
RTVSPost2010Prop55
280
     0
102
RTVSPost2010PropOp55
 70
     1
102
RTVSPost2010Prop56
140
1.0
102
RTVSPost2010PropOp56
 70
     1
102
RTVSPost2010Prop57
140
1.0
102
RTVSPost2010PropOp57
 70
     1
102
RTVSPropertyOp0
 70
     1
102
RTVSPropertyOp1
 70
     1
102
RTVSPropertyOp2
 70
     1
102
RTVSPropertyOp3
 70
     1
102
RTVSPropertyOp4
 70
     1
102
RTVSPropertyOp5
 70
     1
102
RTVSPropertyOp6
 70
     1
102
RTVSPropertyOp7
 70
     1
102
RTVSPropertyOp8
 70
     1
102
RTVSPropertyOp9
 70
     1
102
RTVSPropertyOp10
 70
     1
102
RTVSPropertyOp11
 70
     1
102
RTVSPropertyOp12
 70
     1
102
RTVSPropertyOp13
 70
     1
102
RTVSPropertyOp14
 70
     1
102
RTVSPropertyOp15
 70
     1
102
RTVSPropertyOp16
 70
     1
102
RTVSPropertyOp17
 70
     1
102
RTVSPropertyOp18
 70
     1
102
RTVSPropertyOp19
 70
     1
102
RTVSPropertyOp20
 70
     1
102
RTVSPropertyOp21
 70
     1
102
RTVSPropertyOp22
 70
     1
102
RTVSPropertyOp23
 70
     1
102
RTVSPropertyOp24
 70
     1
102
RTVSPropertyOp25
 70
     1
102
RTVSPropertyOp26
 70
     1
102
RTVSPropertyOp27
 70
     1
102
RTVSPropertyOp28
 70
     1
102
RTVSPropertyOp29
 70
     1
102
RTVSPropertyOp30
 70
     1
102
RTVSPropertyOp31
 70
     1
102
RTVSPropertyOp32
 70
     1
102
RTVSPropertyOp33
 70
     1
102
RTVSPropertyOp34
 70
     1
102
RTVSPropertyOp35
 70
     1
102
RTVSPropertyOp36
 70
     1
102
RTVSPropertyOp37
 70
     1
102
RTVSPropertyOp38
 70
     1
102
RTVSPropertyOp39
 70
     1
102
RTVSPropertyOp40
 70
     1
102
RTVSPropertyOp41
 70
     1
102
RTVSPropertyOp42
 70
     1
102
RTVSPropertyOp43
 70
     1
102
RTVSPropertyOp44
 70
     1
102
RTVSPropertyOp45
 70
     1
102
RTVSPropertyOp46
 70
     1
102
RTVSPropertyOp47
 70
     1
102
RTVSPropertyOp48
 70
     1
102
RTVSPropertyOp49
 70
     1
102
RTVSPropertyOp50
 70
     1
102
RTVSPropertyOp51
 70
     0
102
RTVSPropertyOp52
 70
     0
102
RTVSPropertyOp53
 70
     1
102
RTVSPropertyOp54
 70
     1
102
RTVSPropertyOp55
 70
     1
102
RTVSPropertyOp56
 70
     1
102
RTVSPropertyOp57
 70
     1
102
RTVSPropertyOp58
 70
     1
102
RTVSPropertyOp59
 70
     1
102
RTVSPropertyOp60
 70
     1
102
RTVSPropertyOp61
 70
     1
102
RTVSPropertyOp62
 70
     1
  0
XRECORD
  5
AAFC
102
{ACAD_REACTORS
330
AAFB
102
}
330
AAFB
100
AcDbXrecord
280
     1
102
RTVSPost2010Prop28
280
     0
102
RTVSPost2010PropOp28
 70
     1
102
RTVSPost2010Prop29
280
     1
102
RTVSPost2010PropOp29
 70
     1
102
RTVSPost2010Prop30
280
     1
102
RTVSPost2010PropOp30
 70
     1
102
RTVSPost2010Prop31
280
     0
102
RTVSPost2010PropOp31
 70
     1
102
RTVSPost2010Prop32
280
     0
102
RTVSPost2010PropOp32
 70
     1
102
RTVSPost2010Prop33
280
     0
102
RTVSPost2010PropOp33
 70
     1
102
RTVSPost2010Prop34
280
     0
102
RTVSPost2010PropOp34
 70
     1
102
RTVSPost2010Prop35
280
     0
102
RTVSPost2010PropOp35
 70
     1
102
RTVSPost2010Prop36
280
     0
102
RTVSPost2010PropOp36
 70
     1
102
RTVSPost2010Prop37
 90
       50
102
RTVSPost2010PropOp37
 70
     1
102
RTVSPost2010Prop38
140
0.0
102
RTVSPost2010PropOp38
 70
     1
102
RTVSPost2010Prop39
140
1.0
102
RTVSPost2010PropOp39
 70
     1
102
RTVSPost2010Prop40
 90
        0
102
RTVSPost2010PropOp40
 70
     1
102
RTVSPost2010Prop41ColorIndex
 90
       18
102
RTVSPost2010Prop41ColorRGB
 90
        0
102
RTVSPost2010PropOp41
 70
     1
102
RTVSPost2010Prop42
 90
       50
102
RTVSPost2010PropOp42
 70
     1
102
RTVSPost2010Prop43
 90
        3
102
RTVSPost2010PropOp43
 70
     1
102
RTVSPost2010Prop44ColorIndex
 90
        5
102
RTVSPost2010Prop44ColorRGB
 90
      255
102
RTVSPost2010PropOp44
 70
     1
102
RTVSPost2010Prop45
280
     0
102
RTVSPost2010PropOp45
 70
     1
102
RTVSPost2010Prop46
 90
       50
102
RTVSPost2010PropOp46
 70
     1
102
RTVSPost2010Prop47
 90
       50
102
RTVSPost2010PropOp47
 70
     1
102
RTVSPost2010Prop48
 90
       50
102
RTVSPost2010PropOp48
 70
     1
102
RTVSPost2010Prop49
280
     0
102
RTVSPost2010PropOp49
 70
     1
102
RTVSPost2010Prop50
 90
       50
102
RTVSPost2010PropOp50
 70
     1
102
RTVSPost2010Prop51ColorIndex
 90
      256
102
RTVSPost2010Prop51ColorRGB
 90
-16777216
102
RTVSPost2010PropOp51
 70
     0
102
RTVSPost2010Prop52
140
1.0
102
RTVSPost2010PropOp52
 70
     0
102
RTVSPost2010Prop53
 90
        2
102
RTVSPost2010PropOp53
 70
     1
102
RTVSPost2010Prop54
  1
strokes_ogs.tif
102
RTVSPost2010PropOp54
 70
     1
102
RTVSPost2010Prop55
280
     0
102
RTVSPost2010PropOp55
 70
     1
102
RTVSPost2010Prop56
140
1.0
102
RTVSPost2010PropOp56
 70
     1
102
RTVSPost2010Prop57
140
1.0
102
RTVSPost2010PropOp57
 70
     1
102
RTVSPropertyOp0
 70
     1
102
RTVSPropertyOp1
 70
     1
102
RTVSPropertyOp2
 70
     1
102
RTVSPropertyOp3
 70
     1
102
RTVSPropertyOp4
 70
     1
102
RTVSPropertyOp5
 70
     1
102
RTVSPropertyOp6
 70
     1
102
RTVSPropertyOp7
 70
     1
102
RTVSPropertyOp8
 70
     1
102
RTVSPropertyOp9
 70
     1
102
RTVSPropertyOp10
 70
     1
102
RTVSPropertyOp11
 70
     1
102
RTVSPropertyOp12
 70
     1
102
RTVSPropertyOp13
 70
     1
102
RTVSPropertyOp14
 70
     1
102
RTVSPropertyOp15
 70
     1
102
RTVSPropertyOp16
 70
     1
102
RTVSPropertyOp17
 70
     1
102
RTVSPropertyOp18
 70
     1
102
RTVSPropertyOp19
 70
     1
102
RTVSPropertyOp20
 70
     1
102
RTVSPropertyOp21
 70
     1
102
RTVSPropertyOp22
 70
     1
102
RTVSPropertyOp23
 70
     1
102
RTVSPropertyOp24
 70
     1
102
RTVSPropertyOp25
 70
     1
102
RTVSPropertyOp26
 70
     1
102
RTVSPropertyOp27
 70
     1
102
RTVSPropertyOp28
 70
     1
102
RTVSPropertyOp29
 70
     1
102
RTVSPropertyOp30
 70
     1
102
RTVSPropertyOp31
 70
     1
102
RTVSPropertyOp32
 70
     1
102
RTVSPropertyOp33
 70
     1
102
RTVSPropertyOp34
 70
     1
102
RTVSPropertyOp35
 70
     1
102
RTVSPropertyOp36
 70
     1
102
RTVSPropertyOp37
 70
     1
102
RTVSPropertyOp38
 70
     1
102
RTVSPropertyOp39
 70
     1
102
RTVSPropertyOp40
 70
     1
102
RTVSPropertyOp41
 70
     1
102
RTVSPropertyOp42
 70
     1
102
RTVSPropertyOp43
 70
     1
102
RTVSPropertyOp44
 70
     1
102
RTVSPropertyOp45
 70
     1
102
RTVSPropertyOp46
 70
     1
102
RTVSPropertyOp47
 70
     1
102
RTVSPropertyOp48
 70
     1
102
RTVSPropertyOp49
 70
     1
102
RTVSPropertyOp50
 70
     1
102
RTVSPropertyOp51
 70
     0
102
RTVSPropertyOp52
 70
     0
102
RTVSPropertyOp53
 70
     1
102
RTVSPropertyOp54
 70
     1
102
RTVSPropertyOp55
 70
     1
102
RTVSPropertyOp56
 70
     1
102
RTVSPropertyOp57
 70
     1
102
RTVSPropertyOp58
 70
     1
102
RTVSPropertyOp59
 70
     1
102
RTVSPropertyOp60
 70
     1
102
RTVSPropertyOp61
 70
     1
102
RTVSPropertyOp62
 70
     1
  0
XRECORD
  5
AAF2
102
{ACAD_REACTORS
330
AAF1
102
}
330
AAF1
100
AcDbXrecord
280
     1
102
RTVSPost2010Prop28
280
     0
102
RTVSPost2010PropOp28
 70
     1
102
RTVSPost2010Prop29
280
     1
102
RTVSPost2010PropOp29
 70
     1
102
RTVSPost2010Prop30
280
     1
102
RTVSPost2010PropOp30
 70
     1
102
RTVSPost2010Prop31
280
     0
102
RTVSPost2010PropOp31
 70
     1
102
RTVSPost2010Prop32
280
     0
102
RTVSPost2010PropOp32
 70
     1
102
RTVSPost2010Prop33
280
     0
102
RTVSPost2010PropOp33
 70
     1
102
RTVSPost2010Prop34
280
     0
102
RTVSPost2010PropOp34
 70
     1
102
RTVSPost2010Prop35
280
     0
102
RTVSPost2010PropOp35
 70
     1
102
RTVSPost2010Prop36
280
     0
102
RTVSPost2010PropOp36
 70
     1
102
RTVSPost2010Prop37
 90
       50
102
RTVSPost2010PropOp37
 70
     1
102
RTVSPost2010Prop38
140
0.0
102
RTVSPost2010PropOp38
 70
     1
102
RTVSPost2010Prop39
140
1.0
102
RTVSPost2010PropOp39
 70
     1
102
RTVSPost2010Prop40
 90
        0
102
RTVSPost2010PropOp40
 70
     1
102
RTVSPost2010Prop41ColorIndex
 90
       18
102
RTVSPost2010Prop41ColorRGB
 90
        0
102
RTVSPost2010PropOp41
 70
     1
102
RTVSPost2010Prop42
 90
       50
102
RTVSPost2010PropOp42
 70
     1
102
RTVSPost2010Prop43
 90
        3
102
RTVSPost2010PropOp43
 70
     1
102
RTVSPost2010Prop44ColorIndex
 90
        5
102
RTVSPost2010Prop44ColorRGB
 90
      255
102
RTVSPost2010PropOp44
 70
     1
102
RTVSPost2010Prop45
280
     0
102
RTVSPost2010PropOp45
 70
     1
102
RTVSPost2010Prop46
 90
       50
102
RTVSPost2010PropOp46
 70
     1
102
RTVSPost2010Prop47
 90
       50
102
RTVSPost2010PropOp47
 70
     1
102
RTVSPost2010Prop48
 90
       50
102
RTVSPost2010PropOp48
 70
     1
102
RTVSPost2010Prop49
280
     0
102
RTVSPost2010PropOp49
 70
     1
102
RTVSPost2010Prop50
 90
       50
102
RTVSPost2010PropOp50
 70
     1
102
RTVSPost2010Prop51ColorIndex
 90
      256
102
RTVSPost2010Prop51ColorRGB
 90
-16777216
102
RTVSPost2010PropOp51
 70
     0
102
RTVSPost2010Prop52
140
1.0
102
RTVSPost2010PropOp52
 70
     0
102
RTVSPost2010Prop53
 90
        2
102
RTVSPost2010PropOp53
 70
     1
102
RTVSPost2010Prop54
  1
strokes_ogs.tif
102
RTVSPost2010PropOp54
 70
     1
102
RTVSPost2010Prop55
280
     0
102
RTVSPost2010PropOp55
 70
     1
102
RTVSPost2010Prop56
140
1.0
102
RTVSPost2010PropOp56
 70
     1
102
RTVSPost2010Prop57
140
1.0
102
RTVSPost2010PropOp57
 70
     1
102
RTVSPropertyOp0
 70
     1
102
RTVSPropertyOp1
 70
     1
102
RTVSPropertyOp2
 70
     1
102
RTVSPropertyOp3
 70
     1
102
RTVSPropertyOp4
 70
     1
102
RTVSPropertyOp5
 70
     1
102
RTVSPropertyOp6
 70
     1
102
RTVSPropertyOp7
 70
     1
102
RTVSPropertyOp8
 70
     1
102
RTVSPropertyOp9
 70
     1
102
RTVSPropertyOp10
 70
     1
102
RTVSPropertyOp11
 70
     1
102
RTVSPropertyOp12
 70
     1
102
RTVSPropertyOp13
 70
     1
102
RTVSPropertyOp14
 70
     1
102
RTVSPropertyOp15
 70
     1
102
RTVSPropertyOp16
 70
     1
102
RTVSPropertyOp17
 70
     1
102
RTVSPropertyOp18
 70
     1
102
RTVSPropertyOp19
 70
     1
102
RTVSPropertyOp20
 70
     1
102
RTVSPropertyOp21
 70
     1
102
RTVSPropertyOp22
 70
     1
102
RTVSPropertyOp23
 70
     1
102
RTVSPropertyOp24
 70
     1
102
RTVSPropertyOp25
 70
     1
102
RTVSPropertyOp26
 70
     1
102
RTVSPropertyOp27
 70
     1
102
RTVSPropertyOp28
 70
     1
102
RTVSPropertyOp29
 70
     1
102
RTVSPropertyOp30
 70
     1
102
RTVSPropertyOp31
 70
     1
102
RTVSPropertyOp32
 70
     1
102
RTVSPropertyOp33
 70
     1
102
RTVSPropertyOp34
 70
     1
102
RTVSPropertyOp35
 70
     1
102
RTVSPropertyOp36
 70
     1
102
RTVSPropertyOp37
 70
     1
102
RTVSPropertyOp38
 70
     1
102
RTVSPropertyOp39
 70
     1
102
RTVSPropertyOp40
 70
     1
102
RTVSPropertyOp41
 70
     1
102
RTVSPropertyOp42
 70
     1
102
RTVSPropertyOp43
 70
     1
102
RTVSPropertyOp44
 70
     1
102
RTVSPropertyOp45
 70
     1
102
RTVSPropertyOp46
 70
     1
102
RTVSPropertyOp47
 70
     1
102
RTVSPropertyOp48
 70
     1
102
RTVSPropertyOp49
 70
     1
102
RTVSPropertyOp50
 70
     1
102
RTVSPropertyOp51
 70
     0
102
RTVSPropertyOp52
 70
     0
102
RTVSPropertyOp53
 70
     1
102
RTVSPropertyOp54
 70
     1
102
RTVSPropertyOp55
 70
     1
102
RTVSPropertyOp56
 70
     1
102
RTVSPropertyOp57
 70
     1
102
RTVSPropertyOp58
 70
     1
102
RTVSPropertyOp59
 70
     1
102
RTVSPropertyOp60
 70
     1
102
RTVSPropertyOp61
 70
     1
102
RTVSPropertyOp62
 70
     1
  0
XRECORD
  5
AAE6
102
{ACAD_REACTORS
330
AAE5
102
}
330
AAE5
100
AcDbXrecord
280
     1
102
RTVSPost2010Prop28
280
     0
102
RTVSPost2010PropOp28
 70
     1
102
RTVSPost2010Prop29
280
     1
102
RTVSPost2010PropOp29
 70
     1
102
RTVSPost2010Prop30
280
     1
102
RTVSPost2010PropOp30
 70
     1
102
RTVSPost2010Prop31
280
     0
102
RTVSPost2010PropOp31
 70
     1
102
RTVSPost2010Prop32
280
     0
102
RTVSPost2010PropOp32
 70
     1
102
RTVSPost2010Prop33
280
     0
102
RTVSPost2010PropOp33
 70
     1
102
RTVSPost2010Prop34
280
     0
102
RTVSPost2010PropOp34
 70
     1
102
RTVSPost2010Prop35
280
     0
102
RTVSPost2010PropOp35
 70
     1
102
RTVSPost2010Prop36
280
     0
102
RTVSPost2010PropOp36
 70
     1
102
RTVSPost2010Prop37
 90
       50
102
RTVSPost2010PropOp37
 70
     1
102
RTVSPost2010Prop38
140
0.0
102
RTVSPost2010PropOp38
 70
     1
102
RTVSPost2010Prop39
140
1.0
102
RTVSPost2010PropOp39
 70
     1
102
RTVSPost2010Prop40
 90
        0
102
RTVSPost2010PropOp40
 70
     1
102
RTVSPost2010Prop41ColorIndex
 90
       18
102
RTVSPost2010Prop41ColorRGB
 90
        0
102
RTVSPost2010PropOp41
 70
     1
102
RTVSPost2010Prop42
 90
       50
102
RTVSPost2010PropOp42
 70
     1
102
RTVSPost2010Prop43
 90
        3
102
RTVSPost2010PropOp43
 70
     1
102
RTVSPost2010Prop44ColorIndex
 90
        5
102
RTVSPost2010Prop44ColorRGB
 90
      255
102
RTVSPost2010PropOp44
 70
     1
102
RTVSPost2010Prop45
280
     0
102
RTVSPost2010PropOp45
 70
     1
102
RTVSPost2010Prop46
 90
       50
102
RTVSPost2010PropOp46
 70
     1
102
RTVSPost2010Prop47
 90
       50
102
RTVSPost2010PropOp47
 70
     1
102
RTVSPost2010Prop48
 90
       50
102
RTVSPost2010PropOp48
 70
     1
102
RTVSPost2010Prop49
280
     0
102
RTVSPost2010PropOp49
 70
     1
102
RTVSPost2010Prop50
 90
       50
102
RTVSPost2010PropOp50
 70
     1
102
RTVSPost2010Prop51ColorIndex
 90
      256
102
RTVSPost2010Prop51ColorRGB
 90
-16777216
102
RTVSPost2010PropOp51
 70
     0
102
RTVSPost2010Prop52
140
1.0
102
RTVSPost2010PropOp52
 70
     0
102
RTVSPost2010Prop53
 90
        2
102
RTVSPost2010PropOp53
 70
     1
102
RTVSPost2010Prop54
  1
strokes_ogs.tif
102
RTVSPost2010PropOp54
 70
     1
102
RTVSPost2010Prop55
280
     0
102
RTVSPost2010PropOp55
 70
     1
102
RTVSPost2010Prop56
140
1.0
102
RTVSPost2010PropOp56
 70
     1
102
RTVSPost2010Prop57
140
1.0
102
RTVSPost2010PropOp57
 70
     1
102
RTVSPropertyOp0
 70
     1
102
RTVSPropertyOp1
 70
     1
102
RTVSPropertyOp2
 70
     1
102
RTVSPropertyOp3
 70
     1
102
RTVSPropertyOp4
 70
     1
102
RTVSPropertyOp5
 70
     1
102
RTVSPropertyOp6
 70
     1
102
RTVSPropertyOp7
 70
     1
102
RTVSPropertyOp8
 70
     1
102
RTVSPropertyOp9
 70
     1
102
RTVSPropertyOp10
 70
     1
102
RTVSPropertyOp11
 70
     1
102
RTVSPropertyOp12
 70
     1
102
RTVSPropertyOp13
 70
     1
102
RTVSPropertyOp14
 70
     1
102
RTVSPropertyOp15
 70
     1
102
RTVSPropertyOp16
 70
     1
102
RTVSPropertyOp17
 70
     1
102
RTVSPropertyOp18
 70
     1
102
RTVSPropertyOp19
 70
     1
102
RTVSPropertyOp20
 70
     1
102
RTVSPropertyOp21
 70
     1
102
RTVSPropertyOp22
 70
     1
102
RTVSPropertyOp23
 70
     1
102
RTVSPropertyOp24
 70
     1
102
RTVSPropertyOp25
 70
     1
102
RTVSPropertyOp26
 70
     1
102
RTVSPropertyOp27
 70
     1
102
RTVSPropertyOp28
 70
     1
102
RTVSPropertyOp29
 70
     1
102
RTVSPropertyOp30
 70
     1
102
RTVSPropertyOp31
 70
     1
102
RTVSPropertyOp32
 70
     1
102
RTVSPropertyOp33
 70
     1
102
RTVSPropertyOp34
 70
     1
102
RTVSPropertyOp35
 70
     1
102
RTVSPropertyOp36
 70
     1
102
RTVSPropertyOp37
 70
     1
102
RTVSPropertyOp38
 70
     1
102
RTVSPropertyOp39
 70
     1
102
RTVSPropertyOp40
 70
     1
102
RTVSPropertyOp41
 70
     1
102
RTVSPropertyOp42
 70
     1
102
RTVSPropertyOp43
 70
     1
102
RTVSPropertyOp44
 70
     1
102
RTVSPropertyOp45
 70
     1
102
RTVSPropertyOp46
 70
     1
102
RTVSPropertyOp47
 70
     1
102
RTVSPropertyOp48
 70
     1
102
RTVSPropertyOp49
 70
     1
102
RTVSPropertyOp50
 70
     1
102
RTVSPropertyOp51
 70
     0
102
RTVSPropertyOp52
 70
     0
102
RTVSPropertyOp53
 70
     1
102
RTVSPropertyOp54
 70
     1
102
RTVSPropertyOp55
 70
     1
102
RTVSPropertyOp56
 70
     1
102
RTVSPropertyOp57
 70
     1
102
RTVSPropertyOp58
 70
     1
102
RTVSPropertyOp59
 70
     1
102
RTVSPropertyOp60
 70
     1
102
RTVSPropertyOp61
 70
     1
102
RTVSPropertyOp62
 70
     1
  0
XRECORD
  5
AAFE
102
{ACAD_REACTORS
330
AAFD
102
}
330
AAFD
100
AcDbXrecord
280
     1
102
RTVSPost2010Prop28
280
     0
102
RTVSPost2010PropOp28
 70
     1
102
RTVSPost2010Prop29
280
     1
102
RTVSPost2010PropOp29
 70
     1
102
RTVSPost2010Prop30
280
     1
102
RTVSPost2010PropOp30
 70
     1
102
RTVSPost2010Prop31
280
     0
102
RTVSPost2010PropOp31
 70
     1
102
RTVSPost2010Prop32
280
     0
102
RTVSPost2010PropOp32
 70
     1
102
RTVSPost2010Prop33
280
     0
102
RTVSPost2010PropOp33
 70
     1
102
RTVSPost2010Prop34
280
     0
102
RTVSPost2010PropOp34
 70
     1
102
RTVSPost2010Prop35
280
     0
102
RTVSPost2010PropOp35
 70
     1
102
RTVSPost2010Prop36
280
     0
102
RTVSPost2010PropOp36
 70
     1
102
RTVSPost2010Prop37
 90
       50
102
RTVSPost2010PropOp37
 70
     1
102
RTVSPost2010Prop38
140
0.0
102
RTVSPost2010PropOp38
 70
     1
102
RTVSPost2010Prop39
140
1.0
102
RTVSPost2010PropOp39
 70
     1
102
RTVSPost2010Prop40
 90
        0
102
RTVSPost2010PropOp40
 70
     1
102
RTVSPost2010Prop41ColorIndex
 90
       18
102
RTVSPost2010Prop41ColorRGB
 90
        0
102
RTVSPost2010PropOp41
 70
     1
102
RTVSPost2010Prop42
 90
       50
102
RTVSPost2010PropOp42
 70
     1
102
RTVSPost2010Prop43
 90
        3
102
RTVSPost2010PropOp43
 70
     1
102
RTVSPost2010Prop44ColorIndex
 90
        5
102
RTVSPost2010Prop44ColorRGB
 90
      255
102
RTVSPost2010PropOp44
 70
     1
102
RTVSPost2010Prop45
280
     0
102
RTVSPost2010PropOp45
 70
     1
102
RTVSPost2010Prop46
 90
       50
102
RTVSPost2010PropOp46
 70
     1
102
RTVSPost2010Prop47
 90
       50
102
RTVSPost2010PropOp47
 70
     1
102
RTVSPost2010Prop48
 90
       50
102
RTVSPost2010PropOp48
 70
     1
102
RTVSPost2010Prop49
280
     0
102
RTVSPost2010PropOp49
 70
     1
102
RTVSPost2010Prop50
 90
       50
102
RTVSPost2010PropOp50
 70
     1
102
RTVSPost2010Prop51ColorIndex
 90
      256
102
RTVSPost2010Prop51ColorRGB
 90
-16777216
102
RTVSPost2010PropOp51
 70
     0
102
RTVSPost2010Prop52
140
1.0
102
RTVSPost2010PropOp52
 70
     0
102
RTVSPost2010Prop53
 90
        2
102
RTVSPost2010PropOp53
 70
     1
102
RTVSPost2010Prop54
  1
strokes_ogs.tif
102
RTVSPost2010PropOp54
 70
     1
102
RTVSPost2010Prop55
280
     0
102
RTVSPost2010PropOp55
 70
     1
102
RTVSPost2010Prop56
140
1.0
102
RTVSPost2010PropOp56
 70
     1
102
RTVSPost2010Prop57
140
1.0
102
RTVSPost2010PropOp57
 70
     1
102
RTVSPropertyOp0
 70
     1
102
RTVSPropertyOp1
 70
     1
102
RTVSPropertyOp2
 70
     1
102
RTVSPropertyOp3
 70
     1
102
RTVSPropertyOp4
 70
     1
102
RTVSPropertyOp5
 70
     1
102
RTVSPropertyOp6
 70
     1
102
RTVSPropertyOp7
 70
     1
102
RTVSPropertyOp8
 70
     1
102
RTVSPropertyOp9
 70
     1
102
RTVSPropertyOp10
 70
     1
102
RTVSPropertyOp11
 70
     1
102
RTVSPropertyOp12
 70
     1
102
RTVSPropertyOp13
 70
     1
102
RTVSPropertyOp14
 70
     1
102
RTVSPropertyOp15
 70
     1
102
RTVSPropertyOp16
 70
     1
102
RTVSPropertyOp17
 70
     1
102
RTVSPropertyOp18
 70
     1
102
RTVSPropertyOp19
 70
     1
102
RTVSPropertyOp20
 70
     1
102
RTVSPropertyOp21
 70
     1
102
RTVSPropertyOp22
 70
     1
102
RTVSPropertyOp23
 70
     1
102
RTVSPropertyOp24
 70
     1
102
RTVSPropertyOp25
 70
     1
102
RTVSPropertyOp26
 70
     1
102
RTVSPropertyOp27
 70
     1
102
RTVSPropertyOp28
 70
     1
102
RTVSPropertyOp29
 70
     1
102
RTVSPropertyOp30
 70
     1
102
RTVSPropertyOp31
 70
     1
102
RTVSPropertyOp32
 70
     1
102
RTVSPropertyOp33
 70
     1
102
RTVSPropertyOp34
 70
     1
102
RTVSPropertyOp35
 70
     1
102
RTVSPropertyOp36
 70
     1
102
RTVSPropertyOp37
 70
     1
102
RTVSPropertyOp38
 70
     1
102
RTVSPropertyOp39
 70
     1
102
RTVSPropertyOp40
 70
     1
102
RTVSPropertyOp41
 70
     1
102
RTVSPropertyOp42
 70
     1
102
RTVSPropertyOp43
 70
     1
102
RTVSPropertyOp44
 70
     1
102
RTVSPropertyOp45
 70
     1
102
RTVSPropertyOp46
 70
     1
102
RTVSPropertyOp47
 70
     1
102
RTVSPropertyOp48
 70
     1
102
RTVSPropertyOp49
 70
     1
102
RTVSPropertyOp50
 70
     1
102
RTVSPropertyOp51
 70
     0
102
RTVSPropertyOp52
 70
     0
102
RTVSPropertyOp53
 70
     1
102
RTVSPropertyOp54
 70
     1
102
RTVSPropertyOp55
 70
     1
102
RTVSPropertyOp56
 70
     1
102
RTVSPropertyOp57
 70
     1
102
RTVSPropertyOp58
 70
     1
102
RTVSPropertyOp59
 70
     1
102
RTVSPropertyOp60
 70
     1
102
RTVSPropertyOp61
 70
     1
102
RTVSPropertyOp62
 70
     1
  0
ENDSEC
  0
EOF
